<?xml version="1.0" standalone="no"?>
<!DOCTYPE svg PUBLIC "-//W3C//DTD SVG 1.1//EN" "http://www.w3.org/Graphics/SVG/1.1/DTD/svg11.dtd" >
<svg xmlns="http://www.w3.org/2000/svg" xmlns:xlink="http://www.w3.org/1999/xlink" version="1.1">
<metadata></metadata>
<defs>
<font id="mullerheavy_italic" horiz-adv-x="1280" >
<font-face units-per-em="2048" ascent="1597" descent="-451" />
<missing-glyph horiz-adv-x="335" />
<glyph horiz-adv-x="0" />
<glyph horiz-adv-x="682" />
<glyph unicode=" "  horiz-adv-x="335" />
<glyph unicode="&#x09;" horiz-adv-x="335" />
<glyph unicode="&#xa0;" horiz-adv-x="335" />
<glyph unicode="!" horiz-adv-x="657" d="M520 586h-389l64 848h532zM528 186q-18 -111 -95 -166t-183 -55q-119 0 -189.5 76t-48.5 211q18 111 94 166t181 55q120 0 191 -76t50 -211z" />
<glyph unicode="&#x22;" horiz-adv-x="1056" d="M981 844h-352l94 590h430zM465 844h-352l94 590h430z" />
<glyph unicode="#" horiz-adv-x="1531" d="M442 0h-422l93 236h-119l53 327h197l104 268h-158l54 328h235l92 236h422l-92 -236h131l92 236h422l-92 -236h117l-53 -328h-195l-104 -268h155l-53 -327h-234l-92 -236h-422l93 236h-131zM770 831l-104 -268h131l104 268h-131z" />
<glyph unicode="$" horiz-adv-x="1335" d="M717 -225h-369l33 205q-212 34 -375 131l72 458q217 -166 473 -166q151 0 158 41q3 18 -23.5 34t-71.5 27.5t-101.5 30.5t-116 40.5t-113.5 60.5t-93.5 87.5t-57 124.5t-3.5 169q17 110 87 195t169 134t221 68l33 203h369l-33 -209q188 -29 342 -111l-70 -442 q-97 69 -216.5 105t-231.5 36q-114 0 -119 -41q-3 -20 31 -36.5t90 -33.5t123 -39t132 -58.5t115.5 -85.5t75.5 -128t10 -178q-13 -85 -46 -152.5t-79 -113.5t-108.5 -79t-129 -51.5t-146.5 -27.5z" />
<glyph unicode="%" horiz-adv-x="2025" d="M629 -123h-295l1104 1679h295zM979 1030q-15 -95 -59 -167.5t-108 -117t-141 -66.5t-163 -22q-91 0 -167.5 28t-132.5 81t-80 138.5t-7 191.5q15 95 58.5 167.5t107.5 116.5t141 66t164 22q90 0 166.5 -28t132 -80.5t80 -138t8.5 -191.5zM465 1063q-6 -38 8.5 -66 t61.5 -28q50 0 73 28t29 66t-8.5 66t-61.5 28q-50 0 -73 -28t-29 -66zM1944 338q-15 -95 -58.5 -167.5t-107.5 -117t-140.5 -66.5t-162.5 -22q-94 0 -171 28t-131.5 81t-77 137.5t-5.5 191.5q15 95 58.5 168t107.5 117.5t140.5 67t162.5 22.5q94 0 171 -28t131.5 -81.5 t77 -138.5t5.5 -192zM1430 373q-14 -94 69 -94q50 0 73.5 28t29.5 66t-8.5 66t-61.5 28q-50 0 -73 -28t-29 -66z" />
<glyph unicode="&#x26;" horiz-adv-x="1536" d="M1137 735h401q-17 -129 -91 -254t-192 -231l203 -250h-446l-54 61q-229 -96 -466 -96q-254 0 -385.5 110.5t-100.5 301.5q11 69 46 130t88 109t104.5 82.5t115.5 67.5q-65 80 -100 160.5t-20 171.5q17 109 98 194.5t200.5 130.5t254.5 45q250 0 382.5 -118t98.5 -295 q-38 -195 -359 -381l125 -156q86 103 97 217zM778 1161q-53 0 -85.5 -28t-37.5 -68q-8 -49 60 -141q145 72 157 145q6 38 -20 65t-74 27zM467 385q-3 -35 26 -59.5t99 -24.5q62 0 143 23l-160 188q-103 -62 -108 -127z" />
<glyph unicode="'" horiz-adv-x="540" d="M465 844h-352l94 590h430z" />
<glyph unicode="(" horiz-adv-x="737" d="M535 1665h356q-66 -127 -110.5 -220.5t-97.5 -220.5t-90 -256.5t-58 -262.5q-28 -160 -24.5 -337.5t21.5 -320.5t50 -280h-336q-120 213 -170 470.5t-10 512.5q38 236 164.5 482t304.5 433z" />
<glyph unicode=")" horiz-adv-x="735" d="M193 1667h337q120 -213 169.5 -470.5t9.5 -512.5q-38 -237 -163.5 -482.5t-303.5 -432.5h-359q138 262 227.5 486t129.5 474q25 161 24.5 336.5t-19.5 321.5t-52 280z" />
<glyph unicode="*" horiz-adv-x="1134" d="M602 739l-153 -241l-314 229l180 145l-223 48l219 397l178 -125l5 242h426l-82 -242l211 125l96 -397l-236 -48l140 -145l-371 -229z" />
<glyph unicode="+" horiz-adv-x="1142" d="M817 913h326l-62 -389h-327l-52 -325h-389l52 325h-324l61 389h326l51 326h389z" />
<glyph unicode="," horiz-adv-x="602" d="M186 -293h-360l254 655h457z" />
<glyph unicode="-" horiz-adv-x="974" d="M92 676h815l-57 -369h-815z" />
<glyph unicode="." horiz-adv-x="598" d="M500 186q-18 -111 -95.5 -166t-183.5 -55q-119 0 -189 76t-48 211q18 111 94 166t180 55q121 0 192 -76t50 -211z" />
<glyph unicode="/" horiz-adv-x="1071" d="M270 -127h-352l924 1688h352z" />
<glyph unicode="0" horiz-adv-x="1439" d="M74 729q18 114 55 214.5t100.5 190.5t147.5 154t200.5 101.5t253.5 37.5q99 0 182.5 -21t146 -60t111.5 -93t78.5 -120t46.5 -142t16 -158.5t-13 -168.5q-18 -114 -55.5 -214.5t-101 -190.5t-147 -154.5t-199.5 -102t-253 -37.5q-115 0 -210 28.5t-161.5 80t-114.5 123 t-69.5 156.5t-27 180.5t13.5 195.5zM864 696q24 146 4 203t-86 57q-64 0 -106.5 -59.5t-67.5 -200.5q-24 -146 -3.5 -203t87.5 -57q63 0 105 59.5t67 200.5z" />
<glyph unicode="1" horiz-adv-x="1069" d="M557 1393h399l-151 -953h211l-70 -440h-969l70 440h234l71 451l-221 -84l72 450z" />
<glyph unicode="2" horiz-adv-x="1288" d="M217 1288q266 139 543 139q89 0 169 -17.5t150 -56t118 -95.5t68.5 -142t4.5 -188q-18 -112 -73 -183.5t-159 -138.5q-18 -11 -87.5 -53.5t-109 -69t-50.5 -41.5h399l-70 -440h-1149l37 229q13 79 42 146t64.5 116t88 95t100.5 77.5t115 69.5q35 20 83 44.5t77.5 40 t59.5 34t45.5 35t18.5 33.5q3 21 -14 34t-51 13q-99 0 -233.5 -50.5t-266.5 -136.5z" />
<glyph unicode="3" horiz-adv-x="1239" d="M1196 985q-13 -90 -79.5 -165t-186.5 -113q111 -22 179.5 -114t45.5 -237q-17 -108 -76.5 -186.5t-150 -122t-192 -63t-220.5 -19.5q-153 0 -295 29t-237 72l69 434q207 -101 441 -101q72 0 119 17t51 49q3 20 -11 33.5t-45 13.5h-268l59 377h199q74 0 82 43 q4 26 -21.5 40.5t-76.5 14.5q-229 0 -443 -121l70 441q211 120 491 120q83 0 159.5 -15.5t145 -50.5t116 -85t69 -125t6.5 -166z" />
<glyph unicode="4" horiz-adv-x="1413" d="M786 1393h541l-131 -826h164l-66 -409h-164l-24 -158h-481l24 158h-680l70 434zM715 567l39 246l-230 -246h191z" />
<glyph unicode="5" horiz-adv-x="1243" d="M287 1393h973l-70 -439h-520l-19 -88q52 6 94 6q67 0 130.5 -14t123.5 -48.5t101 -85.5t59 -131.5t2 -180.5q-16 -103 -66 -183t-118 -128.5t-158 -80t-178 -43.5t-186 -12q-128 0 -258.5 26.5t-221.5 71.5l62 394q141 -72 336 -72q244 0 260 102q6 38 -25 62t-79 32.5 t-115 8.5q-131 0 -299 -33z" />
<glyph unicode="6" horiz-adv-x="1386" d="M625 834q125 67 286 67q89 0 169 -29t141.5 -85t89.5 -148.5t10 -208.5q-19 -123 -80 -215.5t-150.5 -145.5t-192.5 -78.5t-220 -25.5q-351 0 -506 204t-98 560q23 146 83.5 265.5t143 198.5t186 133t210 77.5t216.5 23.5q245 0 428 -104l-59 -375q-136 74 -287 74 q-271 0 -370 -188zM680 350q57 0 97.5 28t49.5 81q7 44 -17 69t-71 25q-86 0 -174 -55q6 -84 36 -116t79 -32z" />
<glyph unicode="7" horiz-adv-x="1224" d="M164 1393h1161l-55 -342l-647 -1051h-598l587 952h-518z" />
<glyph unicode="8" horiz-adv-x="1368" d="M1284 365q-13 -82 -59.5 -152.5t-128 -127t-209 -88.5t-287.5 -32q-168 0 -292 37.5t-189.5 101t-91 140t-11.5 162.5q18 103 89 186t161 129q-128 119 -98 309q12 74 56.5 142.5t120 126.5t193 93t261.5 35t256 -39t175.5 -102t90 -139t12.5 -154q-18 -93 -68 -148.5 t-147 -107.5q208 -116 166 -372zM535 444q-3 -38 27 -65t81 -27q106 0 123 62q8 31 -12 52t-62 42q-15 7 -43.5 22t-40.5 21q-66 -39 -73 -107zM715 895q13 -6 76 -29q54 31 61 84q3 38 -21.5 64t-78.5 26q-42 0 -70 -17t-33 -44q-4 -28 13.5 -47.5t52.5 -36.5z" />
<glyph unicode="9" horiz-adv-x="1386" d="M98 963q19 123 80 215t150.5 145t192.5 78.5t220 25.5q340 0 500.5 -206t104.5 -557q-23 -147 -80 -265.5t-134.5 -198.5t-177 -133.5t-206 -77.5t-222.5 -24q-268 0 -452 103l61 378q136 -75 299 -75q145 0 232.5 41.5t136.5 150.5q-130 -71 -295 -71q-97 0 -178 29 t-140.5 85t-84.5 148t-7 209zM735 1042q-57 0 -96.5 -27t-46.5 -77q-6 -44 21 -71t77 -27q93 0 170 49q-11 153 -125 153z" />
<glyph unicode=":" horiz-adv-x="606" d="M573 739q-16 -103 -88.5 -155t-171.5 -52q-112 0 -178 72.5t-47 200.5q18 103 88.5 155t167.5 52q114 0 182 -72.5t47 -200.5zM483 172q-16 -103 -88.5 -155t-171.5 -52q-112 0 -178 72.5t-45 200.5q16 103 87 154.5t169 51.5q114 0 181 -72t46 -200z" />
<glyph unicode=";" horiz-adv-x="638" d="M193 -293h-361l254 655h457zM616 725q-18 -111 -94 -166t-182 -55q-119 0 -190 76t-50 211q18 111 94 166t181 55q121 0 192 -76t49 -211z" />
<glyph unicode="&#x3c;" horiz-adv-x="1048" d="M956 625l-67 -422l-854 266l78 494l938 266l-68 -434l-512 -88z" />
<glyph unicode="=" d="M1202 778h-1065l60 369h1065zM1124 287h-1065l60 368h1065z" />
<glyph unicode="&#x3e;" horiz-adv-x="1048" d="M973 469l-936 -266l69 436l515 88l-486 90l66 414l850 -266z" />
<glyph unicode="?" horiz-adv-x="1042" d="M668 551h-453q11 72 44 134t73.5 101.5t80 71.5t69 59.5t34.5 49.5q5 20 -10 31.5t-49 11.5q-70 0 -171 -31.5t-171 -69.5l75 477q191 82 410 82q79 0 149 -11t138 -40t113 -74t66.5 -118.5t6.5 -167.5q-11 -71 -55 -139t-100 -118.5t-110.5 -95t-94.5 -84t-45 -69.5z M651 186q-18 -111 -95 -166t-183 -55q-119 0 -189.5 76t-48.5 211q18 111 94.5 166t180.5 55q120 0 191 -76t50 -211z" />
<glyph unicode="@" horiz-adv-x="2129" d="M33 524q23 147 86 285t166.5 257.5t236.5 209t306 141t364 51.5q120 0 228.5 -22.5t193.5 -63.5t158.5 -97t124.5 -123.5t90.5 -143t57 -155.5t24 -161t-8.5 -159q-20 -129 -74 -230.5t-131.5 -165.5t-171 -97.5t-196.5 -33.5q-254 0 -348 168q-102 -114 -262 -114 q-65 0 -120.5 20t-92.5 53.5t-65.5 78.5t-40.5 95t-16.5 103t5.5 102q8 51 27 102.5t52.5 102t76 89.5t101.5 63t126 24q156 0 244 -127l16 105h360l-73 -469q-14 -88 53 -88q35 0 60.5 18.5t41.5 56.5t25 75t18 93q5 48 5.5 99t-15.5 103t-39.5 100.5t-65.5 91t-94.5 74 t-126.5 49.5t-161 18q-149 0 -280 -47.5t-225.5 -129t-156 -191t-80.5 -234.5q-21 -129 1 -233.5t77 -174.5t140 -117t185 -67.5t216 -20.5q247 0 463 62l-58 -367q-178 -65 -432 -65q-170 0 -328 39t-293.5 122t-229.5 199.5t-134.5 283.5t-9.5 363zM1143 578 q-20 34 -66 34q-58 0 -88.5 -40.5t-36.5 -86.5q-7 -44 11 -81t67 -37q46 0 84 30z" />
<glyph unicode="A" horiz-adv-x="1587" d="M1505 0h-524l-20 164h-439l-73 -164h-558l742 1434h586zM795 774l-109 -242h227l-30 240q-15 131 -15 205q-25 -98 -73 -203z" />
<glyph unicode="B" horiz-adv-x="1456" d="M219 1434h760q240 0 366.5 -100.5t96.5 -295.5q-16 -99 -71.5 -168t-172.5 -116q114 -37 166.5 -134.5t30.5 -236.5q-14 -90 -54 -158t-96.5 -110.5t-135.5 -68.5t-162.5 -36t-186.5 -10h-768zM870 489q6 32 -13 58t-69 26h-159l-29 -184h145q51 0 84 27.5t41 72.5z M920 971q4 28 -14.5 53t-65.5 25h-135l-29 -172h123q48 0 81.5 26.5t39.5 67.5z" />
<glyph unicode="C" horiz-adv-x="1312" d="M57 739q24 153 89 278.5t153 207.5t198 138t221.5 80.5t225.5 24.5q239 0 422 -94l-72 -448q-44 30 -122 50.5t-162 20.5q-72 0 -134.5 -15t-118 -46.5t-94 -88t-51.5 -132.5q-15 -85 20 -148.5t97.5 -93t140.5 -29.5q206 0 371 86l-78 -489q-173 -76 -397 -76 q-126 0 -239 27.5t-211 88.5t-164 149.5t-93 219.5t-2 289z" />
<glyph unicode="D" horiz-adv-x="1519" d="M219 1434h641q146 0 263 -36t195 -102t126.5 -159t59 -207t-8.5 -246q-24 -155 -85.5 -278.5t-162.5 -215t-251 -141t-339 -49.5h-665zM944 729q41 254 -151 254h-101l-84 -532h76q106 0 170.5 60.5t89.5 217.5z" />
<glyph unicode="E" d="M219 1434h1127l-66 -410h-582l-18 -123h500l-58 -364h-499l-21 -123h594l-66 -414h-1138z" />
<glyph unicode="F" horiz-adv-x="1226" d="M219 1434h1086l-74 -471h-541l-20 -123h481l-72 -451h-481l-61 -389h-545z" />
<glyph unicode="G" horiz-adv-x="1404" d="M59 750q24 151 89 274.5t153.5 204.5t198.5 136t220.5 79t223.5 24q272 0 475 -90l-71 -450q-128 69 -320 69q-79 0 -146 -15t-124.5 -47.5t-96 -91t-51.5 -138.5q-10 -64 0 -113t35 -76t56 -40t65 -13q27 0 45 6l55 340h508l-119 -756q-196 -88 -469 -88q-127 0 -244 31 t-216 96t-167 156.5t-96 221t-4 280.5z" />
<glyph unicode="H" horiz-adv-x="1540" d="M1042 1434h545l-227 -1434h-545l76 481h-279l-75 -481h-545l227 1434h545l-76 -482h279z" />
<glyph unicode="I" horiz-adv-x="716" d="M219 1434h545l-227 -1434h-545z" />
<glyph unicode="J" horiz-adv-x="1064" d="M270 1434h852l-143 -912q-21 -128 -68 -225.5t-107.5 -156.5t-141.5 -96t-160 -50.5t-172 -13.5q-114 0 -219.5 17t-167.5 46l71 457q91 -29 201 -29q98 0 160.5 35.5t73.5 111.5l55 345h-307z" />
<glyph unicode="K" horiz-adv-x="1527" d="M1087 1434h617l-553 -719l307 -715h-569l-199 481h-78l-75 -481h-545l227 1434h545l-76 -482h72z" />
<glyph unicode="L" horiz-adv-x="1232" d="M219 1434h545l-152 -963h582l-76 -471h-1126z" />
<glyph unicode="M" horiz-adv-x="1851" d="M1397 1434h501l-227 -1434h-524l94 592l-221 -301h-275l-135 301l-94 -592h-524l227 1434h453l274 -613z" />
<glyph unicode="N" horiz-adv-x="1560" d="M537 0h-545l227 1434h387l381 -592q2 119 23 250l53 342h545l-228 -1434h-387l-379 592q-3 -127 -22 -250z" />
<glyph unicode="O" horiz-adv-x="1638" d="M1614 684q-24 -154 -93 -284t-177.5 -227.5t-264 -152.5t-342.5 -55t-330.5 61t-227.5 167.5t-116 249t-6 307.5q24 154 92.5 284t176.5 227t263.5 152t342.5 55t331 -61t228.5 -167t116.5 -248.5t6 -307.5zM610 684q-10 -114 36.5 -170.5t141.5 -56.5q111 0 186 77.5 t87 215.5q10 114 -37 170.5t-143 56.5q-110 0 -184 -77.5t-87 -215.5z" />
<glyph unicode="P" horiz-adv-x="1439" d="M219 1434h660q90 0 169.5 -13.5t151.5 -42.5t124.5 -75.5t89.5 -112.5t46 -152.5t-6 -195.5q-19 -120 -62.5 -210.5t-106.5 -150.5t-150.5 -97.5t-186.5 -53t-221 -15.5h-139l-51 -315h-545zM932 883q8 48 -23 80t-96 32h-119l-39 -241h95q163 0 182 129z" />
<glyph unicode="Q" horiz-adv-x="1638" d="M1526 152l-316 -250l-110 125q-169 -62 -363 -62q-187 0 -330.5 61t-227.5 167.5t-116 249t-6 307.5q24 154 92.5 284t176.5 227t263.5 152t342.5 55t331 -61t228.5 -167t116.5 -248.5t6 -307.5q-38 -245 -184 -422zM590 684q-9 -126 47.5 -187t155.5 -61h6l-92 107 l256 227l102 -119q13 51 16 99q9 126 -47.5 186.5t-156.5 60.5q-114 0 -195.5 -81.5t-91.5 -231.5z" />
<glyph unicode="R" horiz-adv-x="1519" d="M537 0h-545l227 1434h701q93 0 178 -17.5t163.5 -59t131.5 -103t76 -158.5t4 -217q-44 -281 -281 -404l260 -475h-573l-195 389h-86zM696 1004l-34 -222h124q60 0 100.5 32t49.5 87q5 36 -18 69.5t-72 33.5h-150z" />
<glyph unicode="S" horiz-adv-x="1312" d="M127 1059q15 99 73.5 179t145.5 129t191 75t215 26q321 0 563 -129l-70 -442q-99 63 -218.5 97t-229.5 34q-114 0 -119 -41q-2 -16 18 -30.5t56 -28.5t82.5 -30.5t97.5 -38.5t101.5 -49t93.5 -67t74 -87.5t43.5 -114t0.5 -144.5q-15 -101 -59.5 -178t-106.5 -124.5 t-146.5 -77.5t-170.5 -41t-189 -11q-341 0 -579 146l72 458q220 -155 473 -155q150 0 157 41q3 17 -17.5 31.5t-56.5 28t-83 29t-98.5 37t-102 48.5t-94 67t-74.5 89.5t-43 120t0 153.5z" />
<glyph unicode="T" horiz-adv-x="1325" d="M154 1434h1282l-74 -471h-369l-153 -963h-545l154 963h-369z" />
<glyph unicode="U" horiz-adv-x="1507" d="M1022 1434h545l-140 -885q-93 -584 -763 -584q-107 0 -202 20.5t-177.5 67.5t-137.5 116.5t-77.5 175.5t-1.5 237l135 852h545l-138 -861q-9 -62 21 -89t96 -27q140 0 164 149z" />
<glyph unicode="V" horiz-adv-x="1560" d="M965 0h-557l-289 1434h549l90 -797l350 797h598z" />
<glyph unicode="W" horiz-adv-x="2318" d="M1845 1434h609l-656 -1434h-592l-51 596l-246 -596h-577l-201 1434h565l54 -752l305 752h434l61 -752z" />
<glyph unicode="X" horiz-adv-x="1558" d="M506 0h-653l614 733l-358 701h616l119 -332l231 332h654l-586 -701l370 -733h-616l-135 342z" />
<glyph unicode="Y" horiz-adv-x="1581" d="M963 0h-541l82 489l-385 945h575l125 -504l277 504h635l-687 -945z" />
<glyph unicode="Z" horiz-adv-x="1353" d="M1206 0h-1247l53 338l559 625h-428l74 471h1188l-53 -338l-557 -625h487z" />
<glyph unicode="[" horiz-adv-x="829" d="M651 -225h-690l297 1884h690l-65 -422h-201l-166 -1040h201z" />
<glyph unicode="\" horiz-adv-x="1048" d="M905 -127h-336l-387 1688h336z" />
<glyph unicode="]" horiz-adv-x="829" d="M610 -225h-690l66 422h200l166 1040h-200l65 422h690z" />
<glyph unicode="^" horiz-adv-x="1419" d="M565 631h-514l574 803h438l321 -803h-477l-114 340z" />
<glyph unicode="_" horiz-adv-x="1099" d="M936 -442h-1100l62 393h1099z" />
<glyph unicode="`" horiz-adv-x="833" d="M934 1526h-402l-210 360h454z" />
<glyph unicode="a" d="M696 86q-108 -121 -307 -121q-86 0 -155 29.5t-114 81t-73 122.5t-32 153t8 173q16 103 53 190t96 156t146.5 108.5t193.5 39.5q100 0 181 -47t124 -121l21 133h436l-156 -983h-436zM524 485q-7 -61 15.5 -94t62.5 -35q43 0 82 33l33 205q-17 31 -62 31q-50 0 -87 -39.5 t-44 -100.5z" />
<glyph unicode="b" horiz-adv-x="1282" d="M201 1434h495l-80 -504q117 88 250 88q138 0 229.5 -78t123.5 -203.5t8 -277.5q-16 -102 -54.5 -190t-96.5 -156.5t-141.5 -108t-182.5 -39.5q-206 0 -322 162l-20 -127h-437zM723 494q9 52 -9.5 91.5t-68.5 39.5q-41 0 -82 -33l-33 -207q21 -27 64 -27q46 0 82 39t47 97 z" />
<glyph unicode="c" horiz-adv-x="991" d="M14 492q12 108 57 197t109.5 149t146.5 101.5t168.5 60t176.5 18.5q167 0 313 -60l-59 -378q-76 36 -176 36q-54 0 -99 -9.5t-83 -39.5t-46 -78q-9 -59 37.5 -88.5t128.5 -29.5q116 0 221 43l-63 -404q-158 -45 -293 -45q-174 0 -301.5 60t-192.5 180.5t-45 286.5z" />
<glyph unicode="d" horiz-adv-x="1277" d="M852 1434h496l-228 -1434h-436l16 106q-124 -141 -309 -141q-132 0 -224.5 77.5t-128.5 204.5t-13 277q16 102 54.5 190t98.5 156.5t146.5 108t189.5 39.5q168 0 256 -105zM719 594q-17 31 -62 31q-50 0 -87 -39.5t-44 -100.5t15.5 -94t62.5 -35q43 0 82 33z" />
<glyph unicode="e" horiz-adv-x="1118" d="M23 535q15 100 59.5 183t105.5 137.5t135 92t146.5 54t142.5 16.5q129 0 225.5 -39.5t148.5 -103.5t75.5 -145.5t16.5 -166.5t-38 -166h-581q28 -102 241 -102q163 0 304 41l-52 -328q-147 -43 -350 -43q-89 0 -174 17t-168 59t-141 105t-86 163.5t-10 225.5zM692 590 q13 53 -9.5 86t-70.5 33q-60 0 -96 -38t-41 -81h217z" />
<glyph unicode="f" horiz-adv-x="860" d="M242 1081q16 96 54 168t85 113t111 65.5t121 32.5t126 8q130 0 250 -38l-57 -355q-46 21 -96 21q-45 0 -74 -20t-35 -58l-6 -35h178l-61 -389h-179l-94 -594h-495l94 594h-123l61 389h123z" />
<glyph unicode="g" d="M1130 63q-19 -120 -66.5 -215.5t-110.5 -156.5t-144 -101.5t-163.5 -57.5t-172.5 -17q-291 0 -498 86l62 391q172 -76 330 -76q112 0 183.5 38t84.5 112l4 22q-94 -82 -240 -82q-142 0 -236 73t-127 194t-9 272q34 208 164 340.5t327 132.5q98 0 177 -45.5t124 -112.5 l21 123h436zM528 496q-7 -61 15.5 -94t62.5 -35q44 0 82 32l33 205q-17 31 -62 31q-50 0 -87 -39t-44 -100z" />
<glyph unicode="h" horiz-adv-x="1220" d="M201 1434h495l-75 -484q127 68 239 68q75 0 134.5 -23t95 -61t58.5 -87.5t26 -102t-3 -105.5l-102 -639h-496l91 567q3 17 -7.5 27t-29.5 10q-33 0 -66 -22l-92 -582h-496z" />
<glyph unicode="i" horiz-adv-x="628" d="M469 0h-496l156 983h496zM666 1260q-16 -103 -88 -155t-170 -52q-111 0 -177 70t-47 194q18 103 90 155t170 52q111 0 177 -70t45 -194z" />
<glyph unicode="j" horiz-adv-x="628" d="M451 -117q-15 -95 -59.5 -168t-108.5 -115.5t-137 -63.5t-154 -21q-156 0 -266 45l61 387q30 -13 76 -13q52 0 80 26t37 83l149 940h496zM666 1260q-16 -103 -88 -155t-170 -52q-111 0 -177 70t-47 194q18 103 90 155t170 52q111 0 177 -70t45 -194z" />
<glyph unicode="k" horiz-adv-x="1277" d="M823 983h541l-381 -522l201 -461h-512l-99 301h-57l-47 -301h-496l228 1434h495l-118 -744h55z" />
<glyph unicode="l" horiz-adv-x="628" d="M211 1495h496l-238 -1495h-496z" />
<glyph unicode="m" horiz-adv-x="1767" d="M1094 891q53 57 142 92t187 35q165 0 241.5 -115.5t45.5 -310.5l-94 -592h-488l91 573q3 17 -7 25t-24 8q-32 0 -58 -22q-1 -6 -3 -19.5t-3 -19.5l-86 -545h-487l90 573q3 17 -7 25t-24 8q-31 0 -57 -22l-92 -584h-488l156 983h438l-14 -90q42 52 124 88.5t169 36.5 q172 0 248 -127z" />
<glyph unicode="n" horiz-adv-x="1220" d="M553 907q138 111 307 111q75 0 134.5 -23t95 -61t58.5 -87.5t26 -102t-3 -105.5l-102 -639h-496l91 567q3 17 -7.5 27t-29.5 10q-33 0 -66 -22l-92 -582h-496l156 983h436z" />
<glyph unicode="o" horiz-adv-x="1216" d="M1163 459q-27 -167 -116.5 -279.5t-220 -163.5t-298.5 -51q-93 0 -176.5 21.5t-152 67.5t-114.5 111t-64 157.5t-1 201.5q26 167 114.5 279.5t218.5 163.5t298 51q117 0 218 -35.5t175 -102.5t107 -176t12 -245zM481 475q-4 -53 18 -79.5t66 -26.5q54 0 88.5 36.5 t40.5 102.5q9 106 -86 106q-52 0 -86.5 -36.5t-40.5 -102.5z" />
<glyph unicode="p" horiz-adv-x="1282" d="M549 879q65 63 146.5 101t162.5 38q142 0 235 -78t125.5 -203.5t8.5 -277.5q-17 -104 -53 -190.5t-93.5 -156t-143.5 -108.5t-192 -39q-79 0 -149.5 30.5t-116.5 72.5l-82 -519h-495l227 1434h436zM723 494q9 52 -9.5 91.5t-68.5 39.5q-41 0 -82 -33l-33 -207 q21 -27 64 -27q46 0 82 39t47 97z" />
<glyph unicode="q" d="M23 524q16 103 53 190t96 156t146.5 108.5t193.5 39.5q100 0 181 -47t124 -121l21 133h436l-227 -1434h-496l78 490q-90 -74 -240 -74q-86 0 -155 29.5t-114 81t-73 122.5t-32 153t8 173zM717 594q-17 31 -62 31q-50 0 -87 -39.5t-44 -100.5t15.5 -94t62.5 -35 q43 0 82 33z" />
<glyph unicode="r" horiz-adv-x="878" d="M553 895q59 61 154.5 92.5t212.5 13.5l-72 -448q-65 33 -158.5 24t-136.5 -51l-84 -526h-496l156 983h438z" />
<glyph unicode="s" horiz-adv-x="1013" d="M61 733q34 285 500 285q224 0 400 -88l-56 -338q-55 42 -128 69t-140 27q-70 0 -72 -31q-1 -16 21.5 -29.5t58.5 -26t79.5 -28t85.5 -41t74 -59.5t46.5 -88.5t3.5 -122.5q-12 -71 -49 -125t-88 -86t-120.5 -52t-138 -27t-149.5 -7q-214 0 -409 92l61 377 q58 -53 143.5 -84t147.5 -37q97 -8 100 23q2 15 -20 28t-57 26t-77.5 29t-84 42.5t-74.5 60.5t-49.5 88.5t-8.5 122.5z" />
<glyph unicode="t" horiz-adv-x="894" d="M262 1237l516 115l-59 -369h182l-61 -389h-183l-24 -156q-12 -71 78 -71q54 0 104 16l-59 -383q-129 -37 -271 -37q-41 0 -79.5 5.5t-79.5 19t-74 35.5t-63 54t-46 76.5t-22.5 102t6.5 129.5l33 209h-123l61 389h123z" />
<glyph unicode="u" horiz-adv-x="1218" d="M719 983h495l-155 -983h-436l12 78q-110 -113 -287 -113q-88 0 -157 31.5t-110.5 84.5t-58 122.5t-4.5 146.5l101 633h495l-88 -557q-9 -51 37 -51q35 0 64 24z" />
<glyph unicode="v" horiz-adv-x="1267" d="M799 983h532l-528 -983h-527l-217 983h502l33 -534z" />
<glyph unicode="w" horiz-adv-x="1744" d="M1292 983h508l-457 -983h-460l-45 416l-174 -416h-451l-145 983h479l10 -504l201 504h323l37 -504z" />
<glyph unicode="x" horiz-adv-x="1198" d="M397 0h-518l397 489l-223 494h484l81 -219l144 219h516l-387 -494l233 -489h-518l-59 203z" />
<glyph unicode="y" horiz-adv-x="1282" d="M641 487l184 496h516l-507 -1022q-222 -444 -631 -444q-146 0 -262 43l61 389q64 -21 131 -21q123 0 201 97l-285 958h490z" />
<glyph unicode="z" horiz-adv-x="1046" d="M141 983h889l-47 -293l-332 -301h314l-62 -389h-950l45 289l336 305h-254z" />
<glyph unicode="{" horiz-adv-x="876" d="M758 139l-58 -366q-157 -28 -276 -8t-195.5 76.5t-108.5 142.5t-16 190l39 248q4 27 -2.5 45.5t-16.5 28t-33 14.5t-38.5 5.5t-47.5 0.5h-5l66 412q30 -4 59 -1.5t52 10t39 29.5t22 58l43 268q20 125 83 215.5t157.5 135.5t216.5 50.5t259 -40.5l-57 -367 q-164 59 -199 -172l-28 -188q-32 -198 -205 -211q64 -7 106.5 -73.5t26.5 -166.5l-31 -188q-14 -89 18 -123.5t130 -24.5z" />
<glyph unicode="|" horiz-adv-x="671" d="M455 -205h-492l295 1864h492z" />
<glyph unicode="}" horiz-adv-x="874" d="M633 141q-39 -250 -230 -343.5t-487 -20.5l57 362q93 -20 137 23t62 157l29 185q17 102 70.5 155.5t134.5 59.5q-64 7 -107 73.5t-27 165.5l31 189q14 90 -17.5 122.5t-129.5 20.5l59 377q158 29 277.5 10.5t196.5 -74t108.5 -144t13.5 -199.5l-41 -252q-5 -34 5 -54 t30 -26t47.5 -8t56.5 0l-63 -406q-31 4 -59 1t-50.5 -12.5t-38.5 -32.5t-22 -60z" />
<glyph unicode="~" horiz-adv-x="1243" d="M1217 905q5 -117 -20 -206.5t-73 -143t-110 -80t-135 -26.5q-68 0 -152 23t-149.5 46t-90.5 23q-31 0 -42 -17t-13 -61h-371q-5 117 20 206.5t73 143t110 80.5t135 27q68 0 152 -23t149.5 -46.5t90.5 -23.5q31 0 42 17t13 61h371z" />
<glyph unicode="&#xa1;" horiz-adv-x="641" d="M420 -451h-533l207 848h389zM606 731q-18 -111 -94 -166t-182 -55q-120 0 -191 76t-49 211q18 111 94 166t181 55q120 0 191 -76t50 -211z" />
<glyph unicode="&#xa2;" horiz-adv-x="1038" d="M1001 958l-59 -378q-46 21 -100 30l-37 -231q56 10 121 35l-64 -404q-41 -12 -119 -28l-36 -228h-164l32 211h-6q-174 0 -301.5 60t-192 180.5t-44.5 286.5q12 108 56.5 197t109 149t147 101.5t168.5 60t176 18.5q37 0 55 -2l33 213h164l-37 -238q31 -7 98 -33zM678 608 q-123 -25 -139 -119q-7 -46 20.5 -74.5t81.5 -37.5z" />
<glyph unicode="&#xa3;" horiz-adv-x="1253" d="M1104 0h-1137l68 424h51q109 0 123 88l6 33h-127l55 340h125l8 55q20 127 75 222.5t136.5 152.5t180 84.5t215.5 27.5q198 0 379 -77l-60 -383q-112 49 -235 49q-153 0 -170 -105l-4 -26h315l-53 -340h-316l-4 -25q-9 -67 -65 -96h501z" />
<glyph unicode="&#xa4;" horiz-adv-x="1130" d="M336 336l-148 -127l-165 188l131 121q-40 117 -21 232q16 110 82 196l-90 94l207 189l104 -119q82 31 191 31q111 0 202 -43l152 133l166 -191l-137 -125q42 -108 22 -231q-17 -113 -80 -192l92 -95l-210 -188l-101 115q-82 -31 -194 -31t-203 43zM514 717q-5 -26 9 -46 t48 -20t55.5 20t26.5 46t-9 45.5t-48 19.5t-55.5 -19.5t-26.5 -45.5z" />
<glyph unicode="&#xa5;" horiz-adv-x="1601" d="M1077 1393h611l-480 -656h183l-35 -225h-301l-11 -61h302l-35 -226h-305l-37 -225h-541l37 225h-301l35 226h305l10 61h-305l35 225h186l-268 656h551l127 -484z" />
<glyph unicode="&#xa6;" horiz-adv-x="684" d="M627 844h-492l129 815h492zM461 -205h-492l129 815h492z" />
<glyph unicode="&#xa7;" horiz-adv-x="1079" d="M958 221q-47 -297 -544 -297q-197 0 -410 99l53 339q67 -45 157 -69.5t151 -24.5q51 0 72 6t22 23q1 10 -5 17.5t-23 16t-30.5 13.5t-45 16.5t-50.5 18.5q-41 15 -72 31t-64.5 43t-53 58.5t-28.5 78t-1 102.5q19 135 193 223q-141 104 -115 269q10 66 44.5 116.5t82 81.5 t111.5 51t127.5 27.5t134.5 7.5q104 0 210.5 -25t186.5 -65l-49 -307q-136 68 -273 68q-64 0 -67 -33q-1 -17 20.5 -27.5t78 -28.5t97.5 -36q202 -87 168 -301q-22 -140 -172 -248q120 -88 94 -244zM530 635q80 -31 84 -33q44 20 52 53q12 49 -68 84q-15 6 -41 15.5 t-35 13.5q-41 -14 -51 -53q-10 -50 59 -80z" />
<glyph unicode="&#xa8;" horiz-adv-x="1001" d="M1188 1712q-7 -100 -71 -157.5t-159 -57.5t-151 57.5t-49 157.5t70.5 157.5t158.5 57.5t151.5 -57.5t49.5 -157.5zM700 1712q-7 -100 -70.5 -157.5t-158.5 -57.5t-151.5 57.5t-49.5 157.5t71 157.5t159 57.5t151 -57.5t49 -157.5z" />
<glyph unicode="&#xa9;" horiz-adv-x="1677" d="M1638 684q-23 -142 -83.5 -260.5t-145 -202.5t-190.5 -142t-221.5 -86t-237.5 -28q-126 0 -240 34t-205 99t-153 160.5t-85 218.5t1 273q23 142 83.5 260.5t144.5 202t190 142t221.5 86t236.5 27.5q159 0 296.5 -53.5t234.5 -151t140 -248t13 -331.5zM1143 360 q-122 -67 -303 -67q-67 0 -130 16t-119 51t-95 85t-55.5 124.5t-2.5 163.5q14 86 52 156t89 116t115.5 77.5t128.5 45t129 13.5q175 0 303 -64l-43 -276q-76 39 -178 39q-183 0 -196 -127q-6 -55 35 -88t104 -33q125 0 209 43zM244 717q-22 -138 9.5 -252t104 -189 t177.5 -116t229 -41q179 0 325.5 65.5t249 202.5t134.5 330q22 138 -9 252t-104 189t-178 116t-230 41q-178 0 -324 -65.5t-249 -202.5t-135 -330z" />
<glyph unicode="&#xab;" horiz-adv-x="1478" d="M1352 53h-488l-221 396l14 98l338 383h504l-381 -438zM737 53h-487l-221 396l14 98l338 383h504l-381 -438z" />
<glyph unicode="&#xac;" horiz-adv-x="1181" d="M1059 367h-410l37 225h-629l62 391h1038z" />
<glyph unicode="&#xad;" horiz-adv-x="974" d="M92 676h815l-57 -369h-815z" />
<glyph unicode="&#xae;" horiz-adv-x="1677" d="M1638 684q-23 -142 -83.5 -260.5t-145 -202.5t-190.5 -142t-221.5 -86t-237.5 -28q-126 0 -240 34t-205 99t-153 160.5t-85 218.5t1 273q23 142 83.5 260.5t144.5 202t190 142t221.5 86t236.5 27.5q159 0 296.5 -53.5t234.5 -151t140 -248t13 -331.5zM244 717 q-22 -138 9.5 -252t104 -189t177.5 -116t229 -41q179 0 325.5 65.5t249 202.5t134.5 330q22 138 -9 252t-104 189t-178 116t-230 41q-178 0 -324 -65.5t-249 -202.5t-135 -330zM760 317h-305l125 799h385q70 0 129.5 -17.5t107 -53.5t68 -101t6.5 -151q-23 -147 -150 -215 l142 -261h-322l-102 218h-15h-36zM848 877l-21 -123h64q81 0 92 67q1 11 -1 22t-13.5 22.5t-32.5 11.5h-88z" />
<glyph unicode="&#xaf;" horiz-adv-x="737" d="M231 1853h779l-52 -321h-778z" />
<glyph unicode="&#xb0;" horiz-adv-x="929" d="M971 1034q-30 -190 -156 -286.5t-321 -96.5q-196 0 -309 119t-81 330q29 177 157 272.5t319 95.5q196 0 309 -117.5t82 -316.5zM444 1061q-6 -39 14.5 -63.5t59.5 -24.5q43 0 70 24t33 64q6 39 -13 63.5t-57 24.5q-45 0 -73 -24.5t-34 -63.5z" />
<glyph unicode="&#xb1;" horiz-adv-x="1196" d="M928 1436l-45 -285h325l-61 -389h-326l-45 -285h-389l45 285h-326l62 389h326l45 285h389zM1026 0h-1040l61 389h1040z" />
<glyph unicode="&#xb4;" horiz-adv-x="833" d="M707 1526h-431l273 360h483z" />
<glyph unicode="&#xb6;" horiz-adv-x="1777" d="M883 -451h-508l151 951q-224 0 -342 133t-82 362q34 210 180 324.5t380 114.5h1132l-299 -1885h-508l225 1414h-104z" />
<glyph unicode="&#xb7;" horiz-adv-x="608" d="M547 455q-18 -111 -94.5 -166.5t-182.5 -55.5q-119 0 -189.5 76t-49.5 211q18 111 94 166t180 55q121 0 192.5 -75.5t49.5 -210.5z" />
<glyph unicode="&#xb8;" horiz-adv-x="477" d="M33 0h270l-47 -90q85 0 141 -55t43 -138q-9 -57 -42 -98t-83 -63.5t-104.5 -32.5t-116.5 -10q-176 0 -289 45l39 249q78 -40 174 -40q114 0 121 45q4 18 -13.5 29t-46.5 13.5t-61.5 0t-60.5 -8.5z" />
<glyph unicode="&#xbb;" horiz-adv-x="1478" d="M1069 53h-506l383 439l-235 438h489l219 -395l-16 -99zM453 53h-506l383 439l-236 438h490l219 -395l-17 -99z" />
<glyph unicode="&#xbc;" horiz-adv-x="1921" d="M1491 836h326l-80 -496h98l-39 -246h-98l-15 -94h-288l14 94h-408l41 258zM1448 340l25 147l-138 -147h113zM473 -35h-147l1192 1503h147zM403 1393h242l-92 -572h127l-41 -264h-580l41 264h140l43 271l-133 -50l43 273z" />
<glyph unicode="&#xbd;" horiz-adv-x="1857" d="M467 -35h-148l1192 1503h148zM1171 774q152 82 314 82q52 0 101 -11t92.5 -35.5t74 -60.5t44 -89t3.5 -117t-40.5 -108t-84.5 -81q-22 -15 -75.5 -44.5t-81.5 -49.5h235l-41 -260h-690l20 129q34 209 248 311q16 8 50.5 24t50.5 24t37 20.5t30.5 22.5t11.5 20 q3 14 -7.5 21.5t-30.5 7.5q-59 0 -143 -30.5t-167 -82.5zM397 1393h242l-92 -572h127l-41 -264h-580l41 264h139l43 271l-133 -50l43 273z" />
<glyph unicode="&#xbe;" horiz-adv-x="2019" d="M571 -35h-147l1192 1503h147zM1589 836h326l-80 -496h98l-39 -246h-98l-14 -94h-289l14 94h-407l41 258zM1546 340l25 147l-137 -147h112zM788 1149q-8 -50 -46.5 -92t-112.5 -62q65 -15 107 -73.5t28 -149.5q-10 -62 -45 -106.5t-87.5 -69t-111.5 -35t-129 -10.5 q-101 0 -189.5 17.5t-138.5 43.5l41 256q126 -57 256 -57q101 0 107 39q2 12 -6 20.5t-25 8.5h-162l37 227h113q52 0 57 27q3 14 -10.5 22t-40.5 8q-68 0 -143.5 -18.5t-130.5 -46.5l41 264q136 65 284 65q62 0 119.5 -16.5t104.5 -49t70.5 -87.5t12.5 -125z" />
<glyph unicode="&#xbf;" horiz-adv-x="1032" d="M813 -412q-173 -73 -407 -73q-79 0 -149.5 11t-138.5 40t-114 74t-67.5 118.5t-6.5 167.5q11 71 55.5 135t100 111t110.5 89t95 86t45 85h452q-11 -70 -44 -130.5t-74 -101.5t-80.5 -74t-68.5 -61.5t-34 -50.5q-4 -20 11.5 -30.5t48.5 -10.5q84 0 177 25t165 63zM872 731 q-18 -111 -94 -166t-182 -55q-120 0 -191 76t-49 211q18 111 94 166t181 55q120 0 191 -76t50 -211z" />
<glyph unicode="&#xc0;" horiz-adv-x="1587" d="M1505 0h-524l-20 164h-439l-73 -164h-558l742 1434h586zM795 774l-109 -242h227l-30 240q-15 131 -15 205q-25 -98 -73 -203zM1167 1526h-401l-211 360h455z" />
<glyph unicode="&#xc1;" horiz-adv-x="1587" d="M1505 0h-524l-20 164h-439l-73 -164h-558l742 1434h586zM795 774l-109 -242h227l-30 240q-15 131 -15 205q-25 -98 -73 -203zM1126 1526h-430l273 360h483z" />
<glyph unicode="&#xc2;" horiz-adv-x="1587" d="M1505 0h-524l-20 164h-439l-73 -164h-558l742 1434h586zM795 774l-109 -242h227l-30 240q-15 131 -15 205q-25 -98 -73 -203zM770 1894h434l215 -368h-372l-78 131l-123 -131h-410z" />
<glyph unicode="&#xc3;" horiz-adv-x="1587" d="M1505 0h-524l-20 164h-439l-73 -164h-558l742 1434h586zM795 774l-109 -242h227l-30 240q-15 131 -15 205q-25 -98 -73 -203zM1434 1903q23 -171 -58 -286.5t-223 -115.5q-60 0 -118.5 20t-105 40t-79.5 20q-25 0 -40 -17.5t-9 -50.5h-305q-23 171 58 286.5t222 115.5 q60 0 118.5 -20t105 -40t79.5 -20q25 0 40 17.5t9 50.5h306z" />
<glyph unicode="&#xc4;" horiz-adv-x="1587" d="M1505 0h-524l-20 164h-439l-73 -164h-558l742 1434h586zM795 774l-109 -242h227l-30 240q-15 131 -15 205q-25 -98 -73 -203zM1419 1712q-7 -100 -70.5 -157.5t-158.5 -57.5t-151.5 57.5t-49.5 157.5t71 157.5t159 57.5t151 -57.5t49 -157.5zM932 1712 q-7 -100 -71 -157.5t-159 -57.5t-151 57.5t-49 157.5t70.5 157.5t158.5 57.5t151.5 -57.5t49.5 -157.5z" />
<glyph unicode="&#xc5;" horiz-adv-x="1587" d="M1505 0h-524l-20 164h-439l-73 -164h-558l742 1434h586zM795 774l-109 -242h227l-30 240q-15 131 -15 205q-25 -98 -73 -203zM1286 1743q-19 -121 -108.5 -183.5t-216.5 -62.5q-63 0 -118 20.5t-95.5 59t-58.5 98.5t-7 133q19 115 110 178.5t212 63.5q136 0 220 -84 t62 -223zM918 1774q-5 -30 9 -49t48 -19q67 0 78 68q5 30 -9 48.5t-49 18.5q-66 0 -77 -67z" />
<glyph unicode="&#xc6;" horiz-adv-x="2160" d="M2226 1434l-65 -410h-521l-18 -123h438l-57 -364h-438l-21 -123h533l-66 -414h-1057l27 164h-391l-115 -164h-596l1082 1434h1265zM850 532h188l60 351z" />
<glyph unicode="&#xc7;" horiz-adv-x="1312" d="M1294 926q-44 30 -122 50.5t-162 20.5q-72 0 -134.5 -15t-118 -46.5t-94 -88t-51.5 -132.5q-15 -85 20 -148.5t97.5 -93t140.5 -29.5q206 0 371 86l-78 -489q-130 -58 -305 -72l-31 -59q85 0 141.5 -55t43.5 -138q-9 -57 -42 -98t-83 -63.5t-104.5 -32.5t-116.5 -10 q-176 0 -289 45l39 249q78 -40 174 -40q114 0 121 45q4 18 -14 29t-47 13.5t-61.5 0t-60.5 -8.5l66 134q-104 18 -192 56t-163.5 101t-121.5 149.5t-65 200t5 252.5q24 153 89 278.5t153 207.5t198 138t221.5 80.5t225.5 24.5q239 0 422 -94z" />
<glyph unicode="&#xc8;" d="M219 1434h1127l-66 -410h-582l-18 -123h500l-58 -364h-499l-21 -123h594l-66 -414h-1138zM1042 1526h-401l-211 360h455z" />
<glyph unicode="&#xc9;" d="M219 1434h1127l-66 -410h-582l-18 -123h500l-58 -364h-499l-21 -123h594l-66 -414h-1138zM981 1526h-430l272 360h484z" />
<glyph unicode="&#xca;" d="M219 1434h1127l-66 -410h-582l-18 -123h500l-58 -364h-499l-21 -123h594l-66 -414h-1138zM645 1894h434l215 -368h-372l-78 131l-123 -131h-410z" />
<glyph unicode="&#xcb;" d="M219 1434h1127l-66 -410h-582l-18 -123h500l-58 -364h-499l-21 -123h594l-66 -414h-1138zM1294 1712q-7 -100 -70.5 -157.5t-158.5 -57.5t-151.5 57.5t-49.5 157.5t71 157.5t159 57.5t151 -57.5t49 -157.5zM807 1712q-7 -100 -70.5 -157.5t-158.5 -57.5t-151.5 57.5 t-49.5 157.5t70.5 157.5t158.5 57.5t151.5 -57.5t49.5 -157.5z" />
<glyph unicode="&#xcc;" horiz-adv-x="716" d="M219 1434h545l-227 -1434h-545zM737 1526h-401l-211 360h455z" />
<glyph unicode="&#xcd;" horiz-adv-x="716" d="M219 1434h545l-227 -1434h-545zM676 1526h-430l272 360h483z" />
<glyph unicode="&#xce;" horiz-adv-x="716" d="M219 1434h545l-227 -1434h-545zM340 1894h434l215 -368h-373l-77 131l-123 -131h-410z" />
<glyph unicode="&#xcf;" horiz-adv-x="716" d="M219 1434h545l-227 -1434h-545zM989 1712q-7 -100 -70.5 -157.5t-158.5 -57.5t-151.5 57.5t-49.5 157.5t70.5 157.5t158.5 57.5t151.5 -57.5t49.5 -157.5zM502 1712q-7 -100 -71 -157.5t-159 -57.5t-151 57.5t-49 157.5t70.5 157.5t158.5 57.5t151.5 -57.5t49.5 -157.5z " />
<glyph unicode="&#xd0;" horiz-adv-x="1540" d="M240 1434h641q146 0 263 -36t195 -102t126.5 -159t59 -207t-8.5 -246q-24 -155 -85.5 -278.5t-162.5 -215t-251 -141t-339 -49.5h-666l90 569h-102l45 287h102zM705 451q106 0 170.5 60.5t89.5 217.5q41 254 -152 254h-100l-21 -127h168l-45 -287h-168l-18 -118h76z" />
<glyph unicode="&#xd1;" horiz-adv-x="1560" d="M537 0h-545l227 1434h387l381 -592q2 119 23 250l53 342h545l-228 -1434h-387l-379 592q-3 -127 -22 -250zM1370 1903q23 -171 -58 -286.5t-222 -115.5q-60 0 -118.5 20t-105.5 40t-80 20q-25 0 -40 -17.5t-9 -50.5h-305q-23 171 58 286.5t223 115.5q60 0 118.5 -20 t105 -40t79.5 -20q25 0 40 17.5t9 50.5h305z" />
<glyph unicode="&#xd2;" horiz-adv-x="1638" d="M1614 684q-24 -154 -93 -284t-177.5 -227.5t-264 -152.5t-342.5 -55t-330.5 61t-227.5 167.5t-116 249t-6 307.5q24 154 92.5 284t176.5 227t263.5 152t342.5 55t331 -61t228.5 -167t116.5 -248.5t6 -307.5zM610 684q-10 -114 36.5 -170.5t141.5 -56.5q111 0 186 77.5 t87 215.5q10 114 -37 170.5t-143 56.5q-110 0 -184 -77.5t-87 -215.5zM1198 1526h-401l-211 360h454z" />
<glyph unicode="&#xd3;" horiz-adv-x="1638" d="M1614 684q-24 -154 -93 -284t-177.5 -227.5t-264 -152.5t-342.5 -55t-330.5 61t-227.5 167.5t-116 249t-6 307.5q24 154 92.5 284t176.5 227t263.5 152t342.5 55t331 -61t228.5 -167t116.5 -248.5t6 -307.5zM610 684q-10 -114 36.5 -170.5t141.5 -56.5q111 0 186 77.5 t87 215.5q10 114 -37 170.5t-143 56.5q-110 0 -184 -77.5t-87 -215.5zM1137 1526h-430l272 360h483z" />
<glyph unicode="&#xd4;" horiz-adv-x="1638" d="M1614 684q-24 -154 -93 -284t-177.5 -227.5t-264 -152.5t-342.5 -55t-330.5 61t-227.5 167.5t-116 249t-6 307.5q24 154 92.5 284t176.5 227t263.5 152t342.5 55t331 -61t228.5 -167t116.5 -248.5t6 -307.5zM610 684q-10 -114 36.5 -170.5t141.5 -56.5q111 0 186 77.5 t87 215.5q10 114 -37 170.5t-143 56.5q-110 0 -184 -77.5t-87 -215.5zM801 1894h434l215 -368h-373l-78 131l-122 -131h-410z" />
<glyph unicode="&#xd5;" horiz-adv-x="1638" d="M1614 684q-24 -154 -93 -284t-177.5 -227.5t-264 -152.5t-342.5 -55t-330.5 61t-227.5 167.5t-116 249t-6 307.5q24 154 92.5 284t176.5 227t263.5 152t342.5 55t331 -61t228.5 -167t116.5 -248.5t6 -307.5zM610 684q-10 -114 36.5 -170.5t141.5 -56.5q111 0 186 77.5 t87 215.5q10 114 -37 170.5t-143 56.5q-110 0 -184 -77.5t-87 -215.5zM1464 1903q23 -171 -58 -286.5t-222 -115.5q-60 0 -118.5 20t-105 40t-79.5 20q-25 0 -40.5 -17.5t-9.5 -50.5h-305q-23 171 58 286.5t223 115.5q60 0 118.5 -20t105 -40t79.5 -20q25 0 40 17.5t9 50.5 h305z" />
<glyph unicode="&#xd6;" horiz-adv-x="1638" d="M1614 684q-24 -154 -93 -284t-177.5 -227.5t-264 -152.5t-342.5 -55t-330.5 61t-227.5 167.5t-116 249t-6 307.5q24 154 92.5 284t176.5 227t263.5 152t342.5 55t331 -61t228.5 -167t116.5 -248.5t6 -307.5zM610 684q-10 -114 36.5 -170.5t141.5 -56.5q111 0 186 77.5 t87 215.5q10 114 -37 170.5t-143 56.5q-110 0 -184 -77.5t-87 -215.5zM1450 1712q-7 -100 -70.5 -157.5t-158.5 -57.5t-151.5 57.5t-49.5 157.5t70.5 157.5t158.5 57.5t151.5 -57.5t49.5 -157.5zM963 1712q-7 -100 -71 -157.5t-159 -57.5t-151.5 57.5t-49.5 157.5t71 157.5 t159 57.5t151.5 -57.5t49.5 -157.5z" />
<glyph unicode="&#xd7;" horiz-adv-x="1112" d="M545 459l-291 -248l-221 256l286 248l-206 248l284 256l211 -248l287 248l225 -256l-291 -248l211 -248l-288 -256z" />
<glyph unicode="&#xd8;" horiz-adv-x="1638" d="M244 -98h-234l213 245q-109 107 -151 263.5t-13 339.5q24 154 92.5 284t176.5 227t263.5 152t342.5 55q217 0 375 -79l125 143h233l-215 -248q109 -106 151 -261.5t13 -338.5q-24 -154 -93 -284t-177.5 -227.5t-264 -152.5t-342.5 -55q-213 0 -370 80zM612 684 q-5 -43 2 -90l330 377q-27 6 -61 6q-110 0 -184 -77.5t-87 -215.5zM733 463q27 -6 58 -6q111 0 185.5 77.5t86.5 215.5q3 53 -2 88z" />
<glyph unicode="&#xd9;" horiz-adv-x="1507" d="M1022 1434h545l-140 -885q-93 -584 -763 -584q-107 0 -202 20.5t-177.5 67.5t-137.5 116.5t-77.5 175.5t-1.5 237l135 852h545l-138 -861q-9 -62 21 -89t96 -27q140 0 164 149zM1110 1526h-401l-211 360h454z" />
<glyph unicode="&#xda;" horiz-adv-x="1507" d="M1022 1434h545l-140 -885q-93 -584 -763 -584q-107 0 -202 20.5t-177.5 67.5t-137.5 116.5t-77.5 175.5t-1.5 237l135 852h545l-138 -861q-9 -62 21 -89t96 -27q140 0 164 149zM1049 1526h-431l273 360h483z" />
<glyph unicode="&#xdb;" horiz-adv-x="1507" d="M1022 1434h545l-140 -885q-93 -584 -763 -584q-107 0 -202 20.5t-177.5 67.5t-137.5 116.5t-77.5 175.5t-1.5 237l135 852h545l-138 -861q-9 -62 21 -89t96 -27q140 0 164 149zM713 1894h434l215 -368h-373l-78 131l-123 -131h-409z" />
<glyph unicode="&#xdc;" horiz-adv-x="1507" d="M1022 1434h545l-140 -885q-93 -584 -763 -584q-107 0 -202 20.5t-177.5 67.5t-137.5 116.5t-77.5 175.5t-1.5 237l135 852h545l-138 -861q-9 -62 21 -89t96 -27q140 0 164 149zM1362 1712q-7 -100 -70.5 -157.5t-158.5 -57.5t-151.5 57.5t-49.5 157.5t70.5 157.5 t158.5 57.5t151.5 -57.5t49.5 -157.5zM874 1712q-7 -100 -70.5 -157.5t-158.5 -57.5t-151.5 57.5t-49.5 157.5t71 157.5t159 57.5t151 -57.5t49 -157.5z" />
<glyph unicode="&#xdd;" horiz-adv-x="1581" d="M963 0h-541l82 489l-385 945h575l125 -504l277 504h635l-687 -945zM1083 1526h-430l273 360h483z" />
<glyph unicode="&#xde;" horiz-adv-x="1441" d="M739 1276h115q90 0 169.5 -13.5t152 -42.5t125 -75.5t89.5 -112.5t46 -152.5t-6 -195.5q-19 -120 -63 -210.5t-107.5 -150t-151.5 -97t-187 -53t-221 -15.5h-139l-24 -158h-545l227 1434h545zM631 596h94q163 0 182 129q8 48 -22.5 80.5t-96.5 32.5h-118z" />
<glyph unicode="&#xdf;" horiz-adv-x="1320" d="M1257 266q-7 -75 -42 -134t-89 -94.5t-120 -54t-138 -18.5q-137 0 -293 58l58 372q35 -12 76 -12q78 0 90 66q5 30 -18 75t-51.5 84.5t-48.5 90.5t-11 92q8 38 55.5 108t54.5 107q5 23 -10 39t-43 16q-44 0 -71 -28t-35 -75l-152 -958h-496l154 973q37 239 196.5 366.5 t426.5 128.5q106 1 195 -24t146.5 -66t96.5 -93.5t54 -107t9 -106.5q-5 -45 -30.5 -88.5t-54 -72.5t-55 -70t-32.5 -82q-4 -28 14.5 -66t48 -81.5t58 -93t46 -116t11.5 -135.5z" />
<glyph unicode="&#xe0;" d="M696 86q-108 -121 -307 -121q-86 0 -155 29.5t-114 81t-73 122.5t-32 153t8 173q16 103 53 190t96 156t146.5 108.5t193.5 39.5q100 0 181 -47t124 -121l21 133h436l-156 -983h-436zM524 485q-7 -61 15.5 -94t62.5 -35q43 0 82 33l33 205q-17 31 -62 31q-50 0 -87 -39.5 t-44 -100.5zM920 1096h-402l-211 360h455z" />
<glyph unicode="&#xe1;" d="M696 86q-108 -121 -307 -121q-86 0 -155 29.5t-114 81t-73 122.5t-32 153t8 173q16 103 53 190t96 156t146.5 108.5t193.5 39.5q100 0 181 -47t124 -121l21 133h436l-156 -983h-436zM524 485q-7 -61 15.5 -94t62.5 -35q43 0 82 33l33 205q-17 31 -62 31q-50 0 -87 -39.5 t-44 -100.5zM858 1096h-430l272 360h484z" />
<glyph unicode="&#xe2;" d="M696 86q-108 -121 -307 -121q-86 0 -155 29.5t-114 81t-73 122.5t-32 153t8 173q16 103 53 190t96 156t146.5 108.5t193.5 39.5q100 0 181 -47t124 -121l21 133h436l-156 -983h-436zM524 485q-7 -61 15.5 -94t62.5 -35q43 0 82 33l33 205q-17 31 -62 31q-50 0 -87 -39.5 t-44 -100.5zM522 1464h434l215 -368h-372l-78 131l-123 -131h-410z" />
<glyph unicode="&#xe3;" d="M696 86q-108 -121 -307 -121q-86 0 -155 29.5t-114 81t-73 122.5t-32 153t8 173q16 103 53 190t96 156t146.5 108.5t193.5 39.5q100 0 181 -47t124 -121l21 133h436l-156 -983h-436zM524 485q-7 -61 15.5 -94t62.5 -35q43 0 82 33l33 205q-17 31 -62 31q-50 0 -87 -39.5 t-44 -100.5zM1186 1473q23 -171 -58 -286.5t-223 -115.5q-60 0 -118.5 20t-105 40t-79.5 20q-25 0 -40 -17.5t-9 -50.5h-305q-23 171 58 286.5t222 115.5q60 0 118.5 -20t105 -40t79.5 -20q25 0 40.5 17.5t9.5 50.5h305z" />
<glyph unicode="&#xe4;" d="M696 86q-108 -121 -307 -121q-86 0 -155 29.5t-114 81t-73 122.5t-32 153t8 173q16 103 53 190t96 156t146.5 108.5t193.5 39.5q100 0 181 -47t124 -121l21 133h436l-156 -983h-436zM524 485q-7 -61 15.5 -94t62.5 -35q43 0 82 33l33 205q-17 31 -62 31q-50 0 -87 -39.5 t-44 -100.5zM1171 1282q-7 -100 -70.5 -157.5t-158.5 -57.5t-151.5 57.5t-49.5 157.5t71 157.5t159 57.5t151 -57.5t49 -157.5zM684 1282q-7 -100 -70.5 -157.5t-158.5 -57.5t-151.5 57.5t-49.5 157.5t70.5 157.5t158.5 57.5t151.5 -57.5t49.5 -157.5z" />
<glyph unicode="&#xe5;" d="M696 86q-108 -121 -307 -121q-86 0 -155 29.5t-114 81t-73 122.5t-32 153t8 173q16 103 53 190t96 156t146.5 108.5t193.5 39.5q100 0 181 -47t124 -121l21 133h436l-156 -983h-436zM524 485q-7 -61 15.5 -94t62.5 -35q43 0 82 33l33 205q-17 31 -62 31q-50 0 -87 -39.5 t-44 -100.5zM1038 1313q-19 -121 -108.5 -183.5t-216.5 -62.5q-63 0 -118 20.5t-95.5 59t-58.5 98.5t-7 133q19 115 110 178.5t212 63.5q136 0 220 -84t62 -223zM670 1343q-5 -30 9 -48.5t48 -18.5q67 0 78 67q5 30 -8.5 49t-48.5 19q-33 0 -53 -19t-25 -49z" />
<glyph unicode="&#xe6;" horiz-adv-x="1857" d="M696 86q-108 -121 -307 -121q-86 0 -155 29.5t-114 81t-73 122.5t-32 153t8 173q16 103 53 190t96 156t146.5 108.5t193.5 39.5q100 0 181 -47t124 -121l21 133h395l-19 -115q52 77 131 113.5t166 36.5q112 0 188 -47.5t109 -131t25.5 -198t-57.5 -246.5h-582 q14 -51 74.5 -74.5t144.5 -23.5q146 0 275 29l-52 -328q-118 -33 -237 -33q-99 0 -180.5 35t-126.5 96l-15 -96h-395zM522 483q-7 -61 15.5 -94t62.5 -35q43 0 82 33l33 205q-17 31 -62 31q-50 0 -87 -39.5t-44 -100.5zM1348 707q-60 0 -96.5 -38t-41.5 -81h217q13 53 -9 86 t-70 33z" />
<glyph unicode="&#xe7;" horiz-adv-x="991" d="M926 580q-76 36 -176 36q-54 0 -99 -9.5t-83 -39.5t-46 -78q-9 -59 37.5 -88.5t128.5 -29.5q116 0 221 43l-63 -404q-125 -33 -219 -41l-31 -59q85 0 141 -55t43 -138q-9 -57 -42 -98t-83 -63.5t-104.5 -32.5t-116.5 -10q-176 0 -289 45l39 249q78 -40 174 -40 q114 0 121 45q4 18 -13.5 29t-46.5 13.5t-61.5 0t-60.5 -8.5l70 140q-185 44 -281 175t-72 331q12 108 57 197t109.5 149t146.5 101.5t168.5 60t176.5 18.5q167 0 313 -60z" />
<glyph unicode="&#xe8;" horiz-adv-x="1118" d="M23 535q15 100 59.5 183t105.5 137.5t135 92t146.5 54t142.5 16.5q129 0 225.5 -39.5t148.5 -103.5t75.5 -145.5t16.5 -166.5t-38 -166h-581q28 -102 241 -102q163 0 304 41l-52 -328q-147 -43 -350 -43q-89 0 -174 17t-168 59t-141 105t-86 163.5t-10 225.5zM692 590 q13 53 -9.5 86t-70.5 33q-60 0 -96 -38t-41 -81h217zM864 1075h-401l-211 361h455z" />
<glyph unicode="&#xe9;" horiz-adv-x="1118" d="M23 535q15 100 59.5 183t105.5 137.5t135 92t146.5 54t142.5 16.5q129 0 225.5 -39.5t148.5 -103.5t75.5 -145.5t16.5 -166.5t-38 -166h-581q28 -102 241 -102q163 0 304 41l-52 -328q-147 -43 -350 -43q-89 0 -174 17t-168 59t-141 105t-86 163.5t-10 225.5zM692 590 q13 53 -9.5 86t-70.5 33q-60 0 -96 -38t-41 -81h217zM803 1075h-430l272 361h483z" />
<glyph unicode="&#xea;" horiz-adv-x="1118" d="M23 535q15 100 59.5 183t105.5 137.5t135 92t146.5 54t142.5 16.5q129 0 225.5 -39.5t148.5 -103.5t75.5 -145.5t16.5 -166.5t-38 -166h-581q28 -102 241 -102q163 0 304 41l-52 -328q-147 -43 -350 -43q-89 0 -174 17t-168 59t-141 105t-86 163.5t-10 225.5zM692 590 q13 53 -9.5 86t-70.5 33q-60 0 -96 -38t-41 -81h217zM467 1444h434l215 -369h-373l-77 131l-123 -131h-410z" />
<glyph unicode="&#xeb;" horiz-adv-x="1118" d="M23 535q15 100 59.5 183t105.5 137.5t135 92t146.5 54t142.5 16.5q129 0 225.5 -39.5t148.5 -103.5t75.5 -145.5t16.5 -166.5t-38 -166h-581q28 -102 241 -102q163 0 304 41l-52 -328q-147 -43 -350 -43q-89 0 -174 17t-168 59t-141 105t-86 163.5t-10 225.5zM692 590 q13 53 -9.5 86t-70.5 33q-60 0 -96 -38t-41 -81h217zM1116 1262q-7 -100 -70.5 -157.5t-158.5 -57.5t-151.5 57.5t-49.5 157.5t70.5 157.5t158.5 57.5t151.5 -57.5t49.5 -157.5zM629 1262q-7 -100 -71 -157.5t-159 -57.5t-151 57.5t-49 157.5t70.5 157.5t158.5 57.5 t151.5 -57.5t49.5 -157.5z" />
<glyph unicode="&#xec;" horiz-adv-x="628" d="M618 1075h-421l-129 361h475zM469 0h-496l156 983h496z" />
<glyph unicode="&#xed;" horiz-adv-x="630" d="M469 0h-496l156 983h496zM557 1075h-430l272 361h484z" />
<glyph unicode="&#xee;" horiz-adv-x="630" d="M469 0h-496l156 983h496zM338 1075h-399l292 369h435l174 -369h-383l-37 131z" />
<glyph unicode="&#xef;" horiz-adv-x="630" d="M469 0h-496l156 983h496zM393 1262q-7 -96 -68 -150.5t-151 -54.5t-143.5 54.5t-46.5 150.5t68 150t151 54q91 0 144 -54t46 -150zM840 1262q-7 -96 -68 -150.5t-151 -54.5q-91 0 -144.5 54.5t-46.5 150.5t68 150t151 54q91 0 144.5 -54t46.5 -150z" />
<glyph unicode="&#xf0;" horiz-adv-x="1163" d="M1120 575q-22 -136 -67 -242t-103.5 -174t-134 -112.5t-153.5 -63t-166 -18.5q-104 0 -197.5 32t-166 93t-108 160.5t-18.5 222.5q14 99 59.5 176.5t109 122.5t134.5 67.5t144 22.5q81 0 150 -27t112 -73q8 43 2 92q-13 113 -111 172l-151 -135l-117 131l92 72 q-81 22 -186 16l39 399q275 0 481 -112l158 135l114 -131l-123 -109q274 -280 207 -717zM438 426q-4 -54 19.5 -81.5t66.5 -27.5q45 0 75 27.5t36 81.5q4 54 -19.5 81.5t-66.5 27.5q-45 0 -75 -27.5t-36 -81.5z" />
<glyph unicode="&#xf1;" horiz-adv-x="1220" d="M553 907q138 111 307 111q75 0 134.5 -23t95 -61t58.5 -87.5t26 -102t-3 -105.5l-102 -639h-496l91 567q3 17 -7.5 27t-29.5 10q-33 0 -66 -22l-92 -582h-496l156 983h436zM1155 1452q23 -171 -58 -286t-223 -115q-60 0 -118.5 19.5t-105 39.5t-79.5 20q-25 0 -40 -17 t-9 -50h-305q-23 171 58 286t223 115q60 0 118.5 -20t105 -40t79.5 -20q25 0 40 17.5t9 50.5h305z" />
<glyph unicode="&#xf2;" horiz-adv-x="1216" d="M1163 459q-27 -167 -116.5 -279.5t-220 -163.5t-298.5 -51q-93 0 -176.5 21.5t-152 67.5t-114.5 111t-64 157.5t-1 201.5q26 167 114.5 279.5t218.5 163.5t298 51q117 0 218 -35.5t175 -102.5t107 -176t12 -245zM481 475q-4 -53 18 -79.5t66 -26.5q54 0 88.5 36.5 t40.5 102.5q9 106 -86 106q-52 0 -86.5 -36.5t-40.5 -102.5zM887 1075h-402l-211 361h455z" />
<glyph unicode="&#xf3;" horiz-adv-x="1216" d="M1163 459q-27 -167 -116.5 -279.5t-220 -163.5t-298.5 -51q-93 0 -176.5 21.5t-152 67.5t-114.5 111t-64 157.5t-1 201.5q26 167 114.5 279.5t218.5 163.5t298 51q117 0 218 -35.5t175 -102.5t107 -176t12 -245zM481 475q-4 -53 18 -79.5t66 -26.5q54 0 88.5 36.5 t40.5 102.5q9 106 -86 106q-52 0 -86.5 -36.5t-40.5 -102.5zM825 1075h-430l273 361h483z" />
<glyph unicode="&#xf4;" horiz-adv-x="1216" d="M1163 459q-27 -167 -116.5 -279.5t-220 -163.5t-298.5 -51q-93 0 -176.5 21.5t-152 67.5t-114.5 111t-64 157.5t-1 201.5q26 167 114.5 279.5t218.5 163.5t298 51q117 0 218 -35.5t175 -102.5t107 -176t12 -245zM481 475q-4 -53 18 -79.5t66 -26.5q54 0 88.5 36.5 t40.5 102.5q9 106 -86 106q-52 0 -86.5 -36.5t-40.5 -102.5zM489 1444h435l215 -369h-373l-78 131l-123 -131h-409z" />
<glyph unicode="&#xf5;" horiz-adv-x="1216" d="M1163 459q-27 -167 -116.5 -279.5t-220 -163.5t-298.5 -51q-93 0 -176.5 21.5t-152 67.5t-114.5 111t-64 157.5t-1 201.5q26 167 114.5 279.5t218.5 163.5t298 51q117 0 218 -35.5t175 -102.5t107 -176t12 -245zM481 475q-4 -53 18 -79.5t66 -26.5q54 0 88.5 36.5 t40.5 102.5q9 106 -86 106q-52 0 -86.5 -36.5t-40.5 -102.5zM1153 1452q23 -171 -58 -286t-223 -115q-60 0 -118.5 19.5t-105 39.5t-79.5 20q-25 0 -40 -17t-9 -50h-305q-23 171 58 286t223 115q60 0 118.5 -20t105 -40t79.5 -20q25 0 40 17.5t9 50.5h305z" />
<glyph unicode="&#xf6;" horiz-adv-x="1216" d="M1163 459q-27 -167 -116.5 -279.5t-220 -163.5t-298.5 -51q-93 0 -176.5 21.5t-152 67.5t-114.5 111t-64 157.5t-1 201.5q26 167 114.5 279.5t218.5 163.5t298 51q117 0 218 -35.5t175 -102.5t107 -176t12 -245zM481 475q-4 -53 18 -79.5t66 -26.5q54 0 88.5 36.5 t40.5 102.5q9 106 -86 106q-52 0 -86.5 -36.5t-40.5 -102.5zM1139 1262q-7 -100 -71 -157.5t-159 -57.5t-151 57.5t-49 157.5t70.5 157.5t158.5 57.5t151.5 -57.5t49.5 -157.5zM651 1262q-7 -100 -70.5 -157.5t-158.5 -57.5t-151.5 57.5t-49.5 157.5t71 157.5t159 57.5 t151 -57.5t49 -157.5z" />
<glyph unicode="&#xf7;" horiz-adv-x="1161" d="M1102 535h-1065l59 368h1065zM780 186q-18 -111 -95 -166t-183 -55q-119 0 -189.5 76t-48.5 211q18 111 94 166t181 55q120 0 191 -76t50 -211zM938 1186q-18 -111 -94 -166t-182 -55q-120 0 -191 76t-49 210q18 111 94 166.5t180 55.5q121 0 192 -76t50 -211z" />
<glyph unicode="&#xf8;" horiz-adv-x="1216" d="M1141 1112l-152 -188q104 -71 151.5 -188.5t22.5 -276.5q-27 -167 -116.5 -279.5t-220 -163.5t-298.5 -51q-146 0 -264 53l-123 -151h-96l152 188q-105 71 -153.5 189.5t-23.5 279.5q26 167 114.5 279.5t218.5 163.5t298 51q156 0 273 -57l120 151h97zM608 614 q-52 0 -86.5 -36.5t-40.5 -102.5q-3 -36 6 -57l154 192q-20 4 -33 4zM565 369q54 0 88.5 36.5t40.5 102.5q2 19 -2 45l-147 -182q6 -2 20 -2z" />
<glyph unicode="&#xf9;" horiz-adv-x="1218" d="M719 983h495l-155 -983h-436l12 78q-110 -113 -287 -113q-88 0 -157 31.5t-110.5 84.5t-58 122.5t-4.5 146.5l101 633h495l-88 -557q-9 -51 37 -51q35 0 64 24zM897 1075h-401l-211 361h454z" />
<glyph unicode="&#xfa;" horiz-adv-x="1218" d="M719 983h495l-155 -983h-436l12 78q-110 -113 -287 -113q-88 0 -157 31.5t-110.5 84.5t-58 122.5t-4.5 146.5l101 633h495l-88 -557q-9 -51 37 -51q35 0 64 24zM836 1075h-430l272 361h483z" />
<glyph unicode="&#xfb;" horiz-adv-x="1218" d="M719 983h495l-155 -983h-436l12 78q-110 -113 -287 -113q-88 0 -157 31.5t-110.5 84.5t-58 122.5t-4.5 146.5l101 633h495l-88 -557q-9 -51 37 -51q35 0 64 24zM500 1444h434l215 -369h-373l-78 131l-123 -131h-409z" />
<glyph unicode="&#xfc;" horiz-adv-x="1218" d="M719 983h495l-155 -983h-436l12 78q-110 -113 -287 -113q-88 0 -157 31.5t-110.5 84.5t-58 122.5t-4.5 146.5l101 633h495l-88 -557q-9 -51 37 -51q35 0 64 24zM1149 1262q-7 -100 -70.5 -157.5t-158.5 -57.5t-151.5 57.5t-49.5 157.5t70.5 157.5t158.5 57.5t151.5 -57.5 t49.5 -157.5zM662 1262q-7 -100 -71 -157.5t-159 -57.5t-151.5 57.5t-49.5 157.5t71 157.5t159 57.5t151.5 -57.5t49.5 -157.5z" />
<glyph unicode="&#xfd;" horiz-adv-x="1282" d="M641 487l184 496h516l-507 -1022q-222 -444 -631 -444q-146 0 -262 43l61 389q64 -21 131 -21q123 0 201 97l-285 958h490zM864 1075h-430l273 361h483z" />
<glyph unicode="&#xfe;" horiz-adv-x="1282" d="M397 -451h-495l299 1885h495l-80 -504q53 40 117.5 64t124.5 24q142 0 235 -78t125.5 -203.5t8.5 -277.5q-17 -104 -53 -190.5t-93.5 -156t-143.5 -108.5t-192 -39q-79 0 -149.5 30.5t-116.5 72.5zM530 385q21 -27 64 -27q46 0 82 39t47 97q9 52 -9.5 91.5t-68.5 39.5 q-41 0 -82 -33z" />
<glyph unicode="&#xff;" horiz-adv-x="1282" d="M641 487l184 496h516l-507 -1022q-222 -444 -631 -444q-146 0 -262 43l61 389q64 -21 131 -21q123 0 201 97l-285 958h490zM1178 1262q-7 -100 -71 -157.5t-159 -57.5t-151 57.5t-49 157.5t70.5 157.5t158.5 57.5t151.5 -57.5t49.5 -157.5zM690 1262 q-7 -100 -70.5 -157.5t-158.5 -57.5t-151.5 57.5t-49.5 157.5t70.5 157.5t158.5 57.5t151.5 -57.5t49.5 -157.5z" />
<glyph unicode="&#x100;" horiz-adv-x="1587" d="M1505 0h-524l-20 164h-439l-73 -164h-558l742 1434h586zM795 774l-109 -242h227l-30 240q-15 131 -15 205q-25 -98 -73 -203zM602 1853h778l-51 -321h-778z" />
<glyph unicode="&#x101;" d="M696 86q-108 -121 -307 -121q-86 0 -155 29.5t-114 81t-73 122.5t-32 153t8 173q16 103 53 190t96 156t146.5 108.5t193.5 39.5q100 0 181 -47t124 -121l21 133h436l-156 -983h-436zM524 485q-7 -61 15.5 -94t62.5 -35q43 0 82 33l33 205q-17 31 -62 31q-50 0 -87 -39.5 t-44 -100.5zM354 1423h779l-52 -321h-778z" />
<glyph unicode="&#x102;" horiz-adv-x="1587" d="M1505 0h-524l-20 164h-439l-73 -164h-558l742 1434h586zM795 774l-109 -242h227l-30 240q-15 131 -15 205q-25 -98 -73 -203zM1354 1634q-174 -112 -393 -112q-110 0 -217.5 29t-180.5 83l51 320q149 -101 369 -101q242 0 422 101z" />
<glyph unicode="&#x103;" d="M696 86q-108 -121 -307 -121q-86 0 -155 29.5t-114 81t-73 122.5t-32 153t8 173q16 103 53 190t96 156t146.5 108.5t193.5 39.5q100 0 181 -47t124 -121l21 133h436l-156 -983h-436zM524 485q-7 -61 15.5 -94t62.5 -35q43 0 82 33l33 205q-17 31 -62 31q-50 0 -87 -39.5 t-44 -100.5zM1106 1204q-174 -112 -393 -112q-110 0 -217.5 29t-180.5 83l52 320q149 -101 368 -101q242 0 422 101z" />
<glyph unicode="&#x104;" horiz-adv-x="1587" d="M1219 1434l286 -1434q-42 -37 -74 -82t-32 -74q0 -34 35 -34q19 0 39 8l-46 -281q-73 -22 -165 -22q-118 0 -195.5 46.5t-77.5 141.5q0 73 47.5 153t134.5 144h-190l-20 164h-439l-73 -164h-558l742 1434h586zM795 774l-109 -242h227l-30 240q-15 131 -15 205 q-25 -98 -73 -203z" />
<glyph unicode="&#x105;" d="M817 850l21 133h436l-156 -983q-42 -37 -74 -82t-32 -74q0 -34 35 -34q18 0 38 8l-45 -281q-73 -22 -166 -22q-117 0 -194.5 46.5t-77.5 141.5q0 73 52.5 153t150.5 144h-123l14 86q-108 -121 -307 -121q-86 0 -155 29.5t-114 81t-73 122.5t-32 153t8 173q16 103 53 190 t96 156t146.5 108.5t193.5 39.5q100 0 181 -47t124 -121zM602 356q43 0 82 33l33 205q-17 31 -62 31q-50 0 -87 -39.5t-44 -100.5t15.5 -94t62.5 -35z" />
<glyph unicode="&#x106;" horiz-adv-x="1312" d="M57 739q24 153 89 278.5t153 207.5t198 138t221.5 80.5t225.5 24.5q239 0 422 -94l-72 -448q-44 30 -122 50.5t-162 20.5q-72 0 -134.5 -15t-118 -46.5t-94 -88t-51.5 -132.5q-15 -85 20 -148.5t97.5 -93t140.5 -29.5q206 0 371 86l-78 -489q-173 -76 -397 -76 q-126 0 -239 27.5t-211 88.5t-164 149.5t-93 219.5t-2 289zM1102 1526h-430l272 360h483z" />
<glyph unicode="&#x107;" horiz-adv-x="991" d="M14 492q12 108 57 197t109.5 149t146.5 101.5t168.5 60t176.5 18.5q167 0 313 -60l-59 -378q-76 36 -176 36q-54 0 -99 -9.5t-83 -39.5t-46 -78q-9 -59 37.5 -88.5t128.5 -29.5q116 0 221 43l-63 -404q-158 -45 -293 -45q-174 0 -301.5 60t-192.5 180.5t-45 286.5z M762 1075h-430l272 361h483z" />
<glyph unicode="&#x10a;" horiz-adv-x="1312" d="M57 739q24 153 89 278.5t153 207.5t198 138t221.5 80.5t225.5 24.5q239 0 422 -94l-72 -448q-44 30 -122 50.5t-162 20.5q-72 0 -134.5 -15t-118 -46.5t-94 -88t-51.5 -132.5q-15 -85 20 -148.5t97.5 -93t140.5 -29.5q206 0 371 86l-78 -489q-173 -76 -397 -76 q-126 0 -239 27.5t-211 88.5t-164 149.5t-93 219.5t-2 289zM1198 1716q-16 -101 -82 -147.5t-162 -46.5q-109 0 -173.5 67.5t-43.5 192.5q16 99 83 145.5t161 46.5q110 0 173 -67t44 -191z" />
<glyph unicode="&#x10b;" horiz-adv-x="991" d="M14 492q12 108 57 197t109.5 149t146.5 101.5t168.5 60t176.5 18.5q167 0 313 -60l-59 -378q-76 36 -176 36q-54 0 -99 -9.5t-83 -39.5t-46 -78q-9 -59 37.5 -88.5t128.5 -29.5q116 0 221 43l-63 -404q-158 -45 -293 -45q-174 0 -301.5 60t-192.5 180.5t-45 286.5z M858 1266q-16 -101 -82.5 -148t-161.5 -47q-109 0 -173.5 67.5t-43.5 192.5q16 99 83 146t161 47q110 0 173 -67t44 -191z" />
<glyph unicode="&#x10c;" horiz-adv-x="1312" d="M57 739q24 153 89 278.5t153 207.5t198 138t221.5 80.5t225.5 24.5q239 0 422 -94l-72 -448q-44 30 -122 50.5t-162 20.5q-72 0 -134.5 -15t-118 -46.5t-94 -88t-51.5 -132.5q-15 -85 20 -148.5t97.5 -93t140.5 -29.5q206 0 371 86l-78 -489q-173 -76 -397 -76 q-126 0 -239 27.5t-211 88.5t-164 149.5t-93 219.5t-2 289zM1493 1894l-334 -368h-434l-215 368h393l76 -131l125 131h389z" />
<glyph unicode="&#x10d;" horiz-adv-x="991" d="M14 492q12 108 57 197t109.5 149t146.5 101.5t168.5 60t176.5 18.5q167 0 313 -60l-59 -378q-76 36 -176 36q-54 0 -99 -9.5t-83 -39.5t-46 -78q-9 -59 37.5 -88.5t128.5 -29.5q116 0 221 43l-63 -404q-158 -45 -293 -45q-174 0 -301.5 60t-192.5 180.5t-45 286.5z M1153 1444l-334 -369h-434l-215 369h393l76 -131l125 131h389z" />
<glyph unicode="&#x10e;" horiz-adv-x="1519" d="M219 1434h641q146 0 263 -36t195 -102t126.5 -159t59 -207t-8.5 -246q-24 -155 -85.5 -278.5t-162.5 -215t-251 -141t-339 -49.5h-665zM944 729q41 254 -151 254h-101l-84 -532h76q106 0 170.5 60.5t89.5 217.5zM1350 1894l-334 -368h-434l-215 368h393l76 -131l125 131 h389z" />
<glyph unicode="&#x10f;" horiz-adv-x="1335" d="M1440 1434h387l-158 -449h-334zM852 1434h496l-228 -1434h-436l16 106q-124 -141 -309 -141q-132 0 -224.5 77.5t-128.5 204.5t-13 277q16 102 54.5 190t98.5 156.5t146.5 108t189.5 39.5q168 0 256 -105zM719 594q-17 31 -62 31q-50 0 -87 -39.5t-44 -100.5t15.5 -94 t62.5 -35q43 0 82 33z" />
<glyph unicode="&#x110;" horiz-adv-x="1540" d="M240 1434h641q146 0 263 -36t195 -102t126.5 -159t59 -207t-8.5 -246q-24 -155 -85.5 -278.5t-162.5 -215t-251 -141t-339 -49.5h-666l90 569h-102l45 287h102zM705 451q106 0 170.5 60.5t89.5 217.5q41 254 -152 254h-100l-21 -127h168l-45 -287h-168l-18 -118h76z" />
<glyph unicode="&#x111;" d="M1327 1307h117l-33 -215h-117l-174 -1092h-436l16 106q-124 -141 -309 -141q-132 0 -224.5 77.5t-128.5 204.5t-13 277q16 102 54.5 190t98.5 156.5t146.5 108t189.5 39.5q168 0 256 -105l29 179h-269l33 215h268l21 127h496zM604 356q43 0 82 33l33 205q-17 31 -62 31 q-50 0 -87 -39.5t-44 -100.5t15.5 -94t62.5 -35z" />
<glyph unicode="&#x112;" d="M219 1434h1127l-66 -410h-582l-18 -123h500l-58 -364h-499l-21 -123h594l-66 -414h-1138zM477 1853h778l-51 -321h-778z" />
<glyph unicode="&#x113;" horiz-adv-x="1118" d="M23 535q15 100 59.5 183t105.5 137.5t135 92t146.5 54t142.5 16.5q129 0 225.5 -39.5t148.5 -103.5t75.5 -145.5t16.5 -166.5t-38 -166h-581q28 -102 241 -102q163 0 304 41l-52 -328q-147 -43 -350 -43q-89 0 -174 17t-168 59t-141 105t-86 163.5t-10 225.5zM692 590 q13 53 -9.5 86t-70.5 33q-60 0 -96 -38t-41 -81h217zM299 1403h778l-51 -322h-778z" />
<glyph unicode="&#x116;" d="M219 1434h1127l-66 -410h-582l-18 -123h500l-58 -364h-499l-21 -123h594l-66 -414h-1138zM1077 1716q-16 -101 -82 -147.5t-161 -46.5q-109 0 -174 67.5t-44 192.5q16 99 83 145.5t161 46.5q110 0 173 -67t44 -191z" />
<glyph unicode="&#x117;" horiz-adv-x="1118" d="M23 535q15 100 59.5 183t105.5 137.5t135 92t146.5 54t142.5 16.5q129 0 225.5 -39.5t148.5 -103.5t75.5 -145.5t16.5 -166.5t-38 -166h-581q28 -102 241 -102q163 0 304 41l-52 -328q-147 -43 -350 -43q-89 0 -174 17t-168 59t-141 105t-86 163.5t-10 225.5zM692 590 q13 53 -9.5 86t-70.5 33q-60 0 -96 -38t-41 -81h217zM899 1266q-16 -101 -82.5 -148t-161.5 -47q-109 0 -173.5 67.5t-43.5 192.5q16 99 83 146t161 47q110 0 173 -67t44 -191z" />
<glyph unicode="&#x118;" d="M1346 1434l-66 -410h-582l-18 -123h500l-58 -364h-499l-21 -123h594l-66 -414q-42 -37 -74 -82t-32 -74q0 -34 35 -34q19 0 39 8l-45 -281q-73 -22 -166 -22q-118 0 -195.5 46.5t-77.5 141.5q0 73 52.5 153t150.5 144h-825l227 1434h1127z" />
<glyph unicode="&#x119;" horiz-adv-x="1118" d="M836 -465q-73 -22 -166 -22q-118 0 -195.5 46.5t-77.5 141.5q0 64 40.5 134t117.5 132q-96 7 -178 29q-67 18 -123 47.5t-107 75t-81 104.5t-44.5 137.5t1.5 174.5q15 100 59.5 183t105.5 137.5t135 92t146.5 54t142.5 16.5q129 0 225.5 -39.5t148.5 -103.5t75.5 -145.5 t16.5 -166.5t-38 -166h-581q28 -102 241 -102q163 0 304 41l-52 -328q-66 -40 -105.5 -87.5t-39.5 -80.5t35 -33q16 0 39 9zM612 709q-60 0 -96 -38t-41 -81h217q13 53 -9.5 86t-70.5 33z" />
<glyph unicode="&#x11a;" d="M219 1434h1127l-66 -410h-582l-18 -123h500l-58 -364h-499l-21 -123h594l-66 -414h-1138zM1372 1894l-334 -368h-434l-215 368h393l76 -131l125 131h389z" />
<glyph unicode="&#x11b;" horiz-adv-x="1118" d="M23 535q15 100 59.5 183t105.5 137.5t135 92t146.5 54t142.5 16.5q129 0 225.5 -39.5t148.5 -103.5t75.5 -145.5t16.5 -166.5t-38 -166h-581q28 -102 241 -102q163 0 304 41l-52 -328q-147 -43 -350 -43q-89 0 -174 17t-168 59t-141 105t-86 163.5t-10 225.5zM692 590 q13 53 -9.5 86t-70.5 33q-60 0 -96 -38t-41 -81h217zM1194 1444l-334 -369h-434l-215 369h393l76 -131l125 131h389z" />
<glyph unicode="&#x11e;" horiz-adv-x="1404" d="M59 750q24 151 89 274.5t153.5 204.5t198.5 136t220.5 79t223.5 24q272 0 475 -90l-71 -450q-128 69 -320 69q-79 0 -146 -15t-124.5 -47.5t-96 -91t-51.5 -138.5q-10 -64 0 -113t35 -76t56 -40t65 -13q27 0 45 6l55 340h508l-119 -756q-196 -88 -469 -88q-127 0 -244 31 t-216 96t-167 156.5t-96 221t-4 280.5zM1337 1634q-174 -112 -393 -112q-110 0 -217 29t-180 83l51 320q149 -101 369 -101q242 0 422 101z" />
<glyph unicode="&#x11f;" d="M1130 63q-19 -120 -66.5 -215.5t-110.5 -156.5t-144 -101.5t-163.5 -57.5t-172.5 -17q-291 0 -498 86l62 391q172 -76 330 -76q112 0 183.5 38t84.5 112l4 22q-94 -82 -240 -82q-142 0 -236 73t-127 194t-9 272q34 208 164 340.5t327 132.5q98 0 177 -45.5t124 -112.5 l21 123h436zM528 496q-7 -61 15.5 -94t62.5 -35q44 0 82 32l33 205q-17 31 -62 31q-50 0 -87 -39t-44 -100zM1092 1184q-176 -113 -394 -113q-109 0 -216.5 29.5t-180.5 83.5l51 319q147 -100 369 -100q244 0 422 100z" />
<glyph unicode="&#x120;" horiz-adv-x="1404" d="M59 750q24 151 89 274.5t153.5 204.5t198.5 136t220.5 79t223.5 24q272 0 475 -90l-71 -450q-128 69 -320 69q-79 0 -146 -15t-124.5 -47.5t-96 -91t-51.5 -138.5q-10 -64 0 -113t35 -76t56 -40t65 -13q27 0 45 6l55 340h508l-119 -756q-196 -88 -469 -88q-127 0 -244 31 t-216 96t-167 156.5t-96 221t-4 280.5zM1186 1716q-16 -101 -82 -147.5t-162 -46.5q-109 0 -173.5 67.5t-43.5 192.5q16 99 83 145.5t161 46.5q110 0 173 -67t44 -191z" />
<glyph unicode="&#x121;" d="M1130 63q-19 -120 -66.5 -215.5t-110.5 -156.5t-144 -101.5t-163.5 -57.5t-172.5 -17q-291 0 -498 86l62 391q172 -76 330 -76q112 0 183.5 38t84.5 112l4 22q-94 -82 -240 -82q-142 0 -236 73t-127 194t-9 272q34 208 164 340.5t327 132.5q98 0 177 -45.5t124 -112.5 l21 123h436zM528 496q-7 -61 15.5 -94t62.5 -35q44 0 82 32l33 205q-17 31 -62 31q-50 0 -87 -39t-44 -100zM940 1266q-16 -101 -82.5 -148t-161.5 -47q-109 0 -173.5 67.5t-43.5 192.5q16 99 83 146t161 47q110 0 173 -67t44 -191z" />
<glyph unicode="&#x122;" horiz-adv-x="1404" d="M59 750q24 151 89 274.5t153.5 204.5t198.5 136t220.5 79t223.5 24q272 0 475 -90l-71 -450q-128 69 -320 69q-79 0 -146 -15t-124.5 -47.5t-96 -91t-51.5 -138.5q-10 -64 0 -113t35 -76t56 -40t65 -13q27 0 45 6l55 340h508l-119 -756q-196 -88 -469 -88q-127 0 -244 31 t-216 96t-167 156.5t-96 221t-4 280.5zM795 -614h-359l137 491h435z" />
<glyph unicode="&#x123;" d="M881 1083h-410l178 449h357zM1130 63q-19 -120 -66.5 -215.5t-110.5 -156.5t-144 -101.5t-163.5 -57.5t-172.5 -17q-291 0 -498 86l62 391q172 -76 330 -76q112 0 183.5 38t84.5 112l4 22q-94 -82 -240 -82q-142 0 -236 73t-127 194t-9 272q34 208 164 340.5t327 132.5 q98 0 177 -45.5t124 -112.5l21 123h436zM528 496q-7 -61 15.5 -94t62.5 -35q44 0 82 32l33 205q-17 31 -62 31q-50 0 -87 -39t-44 -100z" />
<glyph unicode="&#x126;" horiz-adv-x="1638" d="M584 0h-545l174 1094h-135l33 209h135l20 131h543l-21 -131h281l21 131h544l-20 -131h135l-33 -209h-135l-174 -1094h-545l76 481h-279zM756 1094l-23 -142h281l22 142h-280z" />
<glyph unicode="&#x127;" horiz-adv-x="1218" d="M618 950q127 68 240 68q75 0 134.5 -23t95 -61t58.5 -87.5t26 -102t-3 -105.5l-102 -639h-496l91 567q3 17 -7.5 27t-29.5 10q-33 0 -66 -22l-92 -582h-496l174 1092h-122l32 215h123l21 127h495l-20 -127h262l-33 -215h-262z" />
<glyph unicode="&#x12a;" horiz-adv-x="716" d="M219 1434h545l-227 -1434h-545zM172 1853h778l-51 -321h-778z" />
<glyph unicode="&#x12b;" horiz-adv-x="628" d="M733 1116h-655l49 307h655zM469 0h-496l156 983h496z" />
<glyph unicode="&#x12e;" horiz-adv-x="716" d="M-8 0l227 1434h545l-227 -1434q-42 -37 -74.5 -82t-32.5 -74q0 -34 35 -34q19 0 39 8l-45 -281q-73 -22 -166 -22q-118 0 -195.5 46.5t-77.5 141.5q0 73 52.5 153t150.5 144h-231z" />
<glyph unicode="&#x12f;" horiz-adv-x="628" d="M172 1317q18 103 90 155t170 52q111 0 176.5 -70t44.5 -194q-16 -103 -88 -155t-170 -52q-111 0 -176.5 69.5t-46.5 194.5zM156 0h-183l156 983h496l-156 -983q-42 -37 -74.5 -82t-32.5 -74q0 -34 35 -34q19 0 39 8l-45 -281q-73 -22 -166 -22q-117 0 -194.5 46.5 t-77.5 141.5q0 73 52.5 153t150.5 144z" />
<glyph unicode="&#x130;" horiz-adv-x="716" d="M219 1434h545l-227 -1434h-545zM772 1716q-16 -101 -82 -147.5t-162 -46.5q-109 0 -173.5 67.5t-43.5 192.5q16 99 83 145.5t161 46.5q110 0 173 -67t44 -191z" />
<glyph unicode="&#x131;" horiz-adv-x="628" d="M469 0h-496l156 983h496z" />
<glyph unicode="&#x132;" horiz-adv-x="1781" d="M219 1434h545l-227 -1434h-545zM987 1434h852l-143 -912q-21 -128 -68 -225.5t-107.5 -156.5t-141.5 -96t-160 -50.5t-172 -13.5q-114 0 -220 17t-168 46l72 457q91 -29 201 -29q211 0 233 147l56 345h-308z" />
<glyph unicode="&#x133;" horiz-adv-x="1257" d="M469 0h-496l156 983h496zM666 1260q-16 -103 -88 -155t-170 -52q-111 0 -177 70t-47 194q18 103 90 155t170 52q111 0 177 -70t45 -194zM1079 -117q-15 -95 -59.5 -168t-108 -115.5t-136.5 -63.5t-154 -21q-157 0 -267 45l62 387q30 -13 76 -13q52 0 79.5 26t36.5 83 l150 940h495zM1294 1260q-16 -103 -88 -155t-170 -52q-111 0 -176.5 69.5t-46.5 194.5q18 103 90 155t170 52q111 0 176.5 -70t44.5 -194z" />
<glyph unicode="&#x136;" horiz-adv-x="1527" d="M1087 1434h617l-553 -719l307 -715h-569l-199 481h-78l-75 -481h-545l227 1434h545l-76 -482h72zM717 -594h-359l138 492h434z" />
<glyph unicode="&#x137;" horiz-adv-x="1277" d="M823 983h541l-381 -522l201 -461h-512l-99 301h-57l-47 -301h-496l228 1434h495l-118 -744h55zM582 -594h-359l137 492h435z" />
<glyph unicode="&#x139;" horiz-adv-x="1232" d="M219 1434h545l-152 -963h582l-76 -471h-1126zM709 1526h-430l272 360h483z" />
<glyph unicode="&#x13a;" horiz-adv-x="628" d="M211 1495h496l-238 -1495h-496zM682 1597h-430l272 361h484z" />
<glyph unicode="&#x13b;" horiz-adv-x="1232" d="M219 1434h545l-152 -963h582l-76 -471h-1126zM578 -594h-359l137 492h435z" />
<glyph unicode="&#x13c;" horiz-adv-x="628" d="M211 1495h496l-238 -1495h-496zM221 -594h-358l137 492h434z" />
<glyph unicode="&#x13d;" horiz-adv-x="1247" d="M940 1434h387l-166 -510h-334zM219 1434h545l-152 -963h582l-76 -471h-1126z" />
<glyph unicode="&#x13e;" horiz-adv-x="686" d="M801 1495h387l-168 -510h-334zM211 1495h496l-238 -1495h-496z" />
<glyph unicode="&#x13f;" horiz-adv-x="1267" d="M1233 834q-16 -97 -82.5 -145t-159.5 -48q-106 0 -169 68t-44 190q14 97 81 145t159 48q108 0 171 -68t44 -190zM219 1434h545l-152 -963h582l-76 -471h-1126z" />
<glyph unicode="&#x140;" horiz-adv-x="1138" d="M211 1495h496l-238 -1495h-496zM1161 684q-18 -111 -94 -166t-182 -55q-119 0 -190 76t-50 211q18 111 94.5 166t180.5 55q121 0 192 -76t49 -211z" />
<glyph unicode="&#x141;" horiz-adv-x="1353" d="M1239 0h-1126l67 422l-170 -53l66 438l174 55l90 572h545l-62 -387l238 79l-66 -438l-239 -78l-23 -139h582z" />
<glyph unicode="&#x142;" horiz-adv-x="847" d="M319 1495h496l-90 -563l145 51l-53 -365l-149 -49l-90 -569h-496l59 375l-145 -51l57 366l146 47z" />
<glyph unicode="&#x143;" horiz-adv-x="1560" d="M537 0h-545l227 1434h387l381 -592q2 119 23 250l53 342h545l-228 -1434h-387l-379 592q-3 -127 -22 -250zM1042 1526h-430l273 360h483z" />
<glyph unicode="&#x144;" horiz-adv-x="1220" d="M553 907q138 111 307 111q75 0 134.5 -23t95 -61t58.5 -87.5t26 -102t-3 -105.5l-102 -639h-496l91 567q3 17 -7.5 27t-29.5 10q-33 0 -66 -22l-92 -582h-496l156 983h436zM827 1075h-430l273 361h483z" />
<glyph unicode="&#x145;" horiz-adv-x="1560" d="M537 0h-545l227 1434h387l381 -592q2 119 23 250l53 342h545l-228 -1434h-387l-379 592q-3 -127 -22 -250zM772 -594h-358l137 492h434z" />
<glyph unicode="&#x146;" horiz-adv-x="1220" d="M553 907q138 111 307 111q75 0 134.5 -23t95 -61t58.5 -87.5t26 -102t-3 -105.5l-102 -639h-496l91 567q3 17 -7.5 27t-29.5 10q-33 0 -66 -22l-92 -582h-496l156 983h436zM535 -594h-359l137 492h435z" />
<glyph unicode="&#x147;" horiz-adv-x="1560" d="M537 0h-545l227 1434h387l381 -592q2 119 23 250l53 342h545l-228 -1434h-387l-379 592q-3 -127 -22 -250zM1434 1894l-334 -368h-434l-215 368h393l76 -131l124 131h390z" />
<glyph unicode="&#x148;" horiz-adv-x="1220" d="M553 907q138 111 307 111q75 0 134.5 -23t95 -61t58.5 -87.5t26 -102t-3 -105.5l-102 -639h-496l91 567q3 17 -7.5 27t-29.5 10q-33 0 -66 -22l-92 -582h-496l156 983h436zM1219 1444l-334 -369h-434l-215 369h393l76 -131l124 131h390z" />
<glyph unicode="&#x14a;" horiz-adv-x="1560" d="M1378 -16q-72 -459 -506 -459q-112 0 -219 24l64 394q27 -17 65 -17q82 0 97 97l20 124l-285 445q-3 -127 -22 -250l-55 -342h-545l227 1434h387l381 -592q2 119 23 250l53 342h545z" />
<glyph unicode="&#x14b;" horiz-adv-x="1220" d="M1055 -96q-62 -389 -455 -389q-61 0 -121.5 14t-91.5 31l57 358q20 -10 48 -10q67 0 81 92l91 567q3 17 -7.5 27t-29.5 10q-33 0 -66 -22l-92 -582h-496l156 983h436l-12 -76q138 111 307 111q75 0 134.5 -23t95 -61t58.5 -87.5t26 -102t-3 -105.5z" />
<glyph unicode="&#x14c;" horiz-adv-x="1638" d="M1614 684q-24 -154 -93 -284t-177.5 -227.5t-264 -152.5t-342.5 -55t-330.5 61t-227.5 167.5t-116 249t-6 307.5q24 154 92.5 284t176.5 227t263.5 152t342.5 55t331 -61t228.5 -167t116.5 -248.5t6 -307.5zM610 684q-10 -114 36.5 -170.5t141.5 -56.5q111 0 186 77.5 t87 215.5q10 114 -37 170.5t-143 56.5q-110 0 -184 -77.5t-87 -215.5zM633 1853h778l-51 -321h-778z" />
<glyph unicode="&#x14d;" horiz-adv-x="1216" d="M1163 459q-27 -167 -116.5 -279.5t-220 -163.5t-298.5 -51q-93 0 -176.5 21.5t-152 67.5t-114.5 111t-64 157.5t-1 201.5q26 167 114.5 279.5t218.5 163.5t298 51q117 0 218 -35.5t175 -102.5t107 -176t12 -245zM481 475q-4 -53 18 -79.5t66 -26.5q54 0 88.5 36.5 t40.5 102.5q9 106 -86 106q-52 0 -86.5 -36.5t-40.5 -102.5zM322 1403h778l-51 -322h-779z" />
<glyph unicode="&#x150;" horiz-adv-x="1638" d="M1614 684q-24 -154 -93 -284t-177.5 -227.5t-264 -152.5t-342.5 -55t-330.5 61t-227.5 167.5t-116 249t-6 307.5q24 154 92.5 284t176.5 227t263.5 152t342.5 55t331 -61t228.5 -167t116.5 -248.5t6 -307.5zM610 684q-10 -114 36.5 -170.5t141.5 -56.5q111 0 186 77.5 t87 215.5q10 114 -37 170.5t-143 56.5q-110 0 -184 -77.5t-87 -215.5zM1397 1516h-387l250 362h417zM915 1516h-387l220 362h417z" />
<glyph unicode="&#x151;" horiz-adv-x="1216" d="M1163 459q-27 -167 -116.5 -279.5t-220 -163.5t-298.5 -51q-93 0 -176.5 21.5t-152 67.5t-114.5 111t-64 157.5t-1 201.5q26 167 114.5 279.5t218.5 163.5t298 51q117 0 218 -35.5t175 -102.5t107 -176t12 -245zM481 475q-4 -53 18 -79.5t66 -26.5q54 0 88.5 36.5 t40.5 102.5q9 106 -86 106q-52 0 -86.5 -36.5t-40.5 -102.5zM1085 1065h-387l250 362h418zM604 1065h-387l219 362h418z" />
<glyph unicode="&#x152;" horiz-adv-x="2058" d="M881 0q-103 -35 -222 -35q-110 0 -205 27.5t-165.5 78.5t-123.5 122.5t-80 158.5t-35 187.5t11 210.5q24 153 89.5 283.5t165.5 227.5t238.5 152t299.5 55q132 0 233 -34h1035l-66 -410h-479l-18 -123h397l-58 -364h-397l-20 -123h491l-65 -414h-1026zM610 705 q-8 -62 4 -111.5t37.5 -78t55.5 -43.5t59 -15q110 0 186 53l68 430q-59 37 -135 37q-39 0 -78.5 -12.5t-81.5 -41t-73.5 -85t-41.5 -133.5z" />
<glyph unicode="&#x153;" horiz-adv-x="1826" d="M897 100q-156 -135 -408 -135q-110 0 -202.5 35.5t-160 103.5t-96 177t-7.5 245q19 125 74 220.5t136.5 154t182 88t217.5 29.5q206 0 332 -123q156 123 374 123q107 1 194.5 -31t144 -90t86 -135t25.5 -170.5t-42 -192.5h-582q14 -54 79.5 -79t162.5 -25q162 0 303 41 l-51 -328q-147 -43 -350 -43q-116 0 -225 33.5t-187 101.5zM489 473q-5 -42 16.5 -73t63.5 -31q64 0 97 39t36 106q3 43 -17.5 71.5t-63.5 28.5q-63 0 -96.5 -37.5t-35.5 -103.5zM1321 711q-60 0 -96 -38t-41 -81h217q13 53 -9.5 86t-70.5 33z" />
<glyph unicode="&#x154;" horiz-adv-x="1519" d="M537 0h-545l227 1434h701q93 0 178 -17.5t163.5 -59t131.5 -103t76 -158.5t4 -217q-44 -281 -281 -404l260 -475h-573l-195 389h-86zM696 1004l-34 -222h124q60 0 100.5 32t49.5 87q5 36 -18 69.5t-72 33.5h-150zM973 1526h-430l272 360h483z" />
<glyph unicode="&#x155;" horiz-adv-x="878" d="M553 895q59 61 154.5 92.5t212.5 13.5l-72 -448q-65 33 -158.5 24t-136.5 -51l-84 -526h-496l156 983h438zM684 1075h-430l272 361h484z" />
<glyph unicode="&#x156;" horiz-adv-x="1519" d="M537 0h-545l227 1434h701q93 0 178 -17.5t163.5 -59t131.5 -103t76 -158.5t4 -217q-44 -281 -281 -404l260 -475h-573l-195 389h-86zM696 1004l-34 -222h124q60 0 100.5 32t49.5 87q5 36 -18 69.5t-72 33.5h-150zM719 -594h-359l138 492h434z" />
<glyph unicode="&#x157;" horiz-adv-x="878" d="M553 895q59 61 154.5 92.5t212.5 13.5l-72 -448q-65 33 -158.5 24t-136.5 -51l-84 -526h-496l156 983h438zM227 -594h-358l137 492h434z" />
<glyph unicode="&#x158;" horiz-adv-x="1519" d="M537 0h-545l227 1434h701q93 0 178 -17.5t163.5 -59t131.5 -103t76 -158.5t4 -217q-44 -281 -281 -404l260 -475h-573l-195 389h-86zM696 1004l-34 -222h124q60 0 100.5 32t49.5 87q5 36 -18 69.5t-72 33.5h-150zM1364 1894l-334 -368h-434l-215 368h393l76 -131l125 131 h389z" />
<glyph unicode="&#x159;" horiz-adv-x="878" d="M553 895q59 61 154.5 92.5t212.5 13.5l-72 -448q-65 33 -158.5 24t-136.5 -51l-84 -526h-496l156 983h438zM1075 1444l-334 -369h-434l-215 369h393l76 -131l125 131h389z" />
<glyph unicode="&#x15a;" horiz-adv-x="1312" d="M127 1059q15 99 73.5 179t145.5 129t191 75t215 26q321 0 563 -129l-70 -442q-99 63 -218.5 97t-229.5 34q-114 0 -119 -41q-2 -16 18 -30.5t56 -28.5t82.5 -30.5t97.5 -38.5t101.5 -49t93.5 -67t74 -87.5t43.5 -114t0.5 -144.5q-15 -101 -59.5 -178t-106.5 -124.5 t-146.5 -77.5t-170.5 -41t-189 -11q-341 0 -579 146l72 458q220 -155 473 -155q150 0 157 41q3 17 -17.5 31.5t-56.5 28t-83 29t-98.5 37t-102 48.5t-94 67t-74.5 89.5t-43 120t0 153.5zM905 1526h-430l273 360h483z" />
<glyph unicode="&#x15b;" horiz-adv-x="1013" d="M61 733q34 285 500 285q224 0 400 -88l-56 -338q-55 42 -128 69t-140 27q-70 0 -72 -31q-1 -16 21.5 -29.5t58.5 -26t79.5 -28t85.5 -41t74 -59.5t46.5 -88.5t3.5 -122.5q-12 -71 -49 -125t-88 -86t-120.5 -52t-138 -27t-149.5 -7q-214 0 -409 92l61 377 q58 -53 143.5 -84t147.5 -37q97 -8 100 23q2 15 -20 28t-57 26t-77.5 29t-84 42.5t-74.5 60.5t-49.5 88.5t-8.5 122.5zM700 1075h-430l273 361h483z" />
<glyph unicode="&#x15e;" horiz-adv-x="1312" d="M844 -283q-9 -57 -42 -98t-83 -63.5t-104.5 -32.5t-116.5 -10q-176 0 -289 45l39 249q78 -40 174 -40q114 0 121 45q4 18 -14 29t-47 13.5t-61.5 0t-60.5 -8.5l64 127q-246 26 -430 138l72 458q220 -155 473 -155q150 0 157 41q3 17 -17.5 31.5t-56.5 28t-83 29t-98.5 37 t-102 48.5t-94 67t-74.5 89.5t-43 120t0 153.5q15 99 73.5 179t145.5 129t191 75t215 26q321 0 563 -129l-70 -442q-99 63 -218.5 97t-229.5 34q-114 0 -119 -41q-2 -16 18 -30.5t56 -28.5t82.5 -30.5t97.5 -38.5t101.5 -49t93.5 -67t74 -87.5t43.5 -114t0.5 -144.5 q-60 -392 -555 -428l-31 -59q85 0 141.5 -55t43.5 -138z" />
<glyph unicode="&#x15f;" horiz-adv-x="1013" d="M715 -283q-9 -57 -42 -98t-83 -63.5t-104.5 -32.5t-116.5 -10q-176 0 -289 45l39 249q78 -40 174 -40q114 0 121 45q4 18 -14 29t-47 13.5t-61.5 0t-60.5 -8.5l62 123q-166 17 -313 88l61 377q58 -53 143.5 -84t147.5 -37q97 -8 100 23q2 15 -20 28t-57 26t-77.5 29 t-84 42.5t-74.5 60.5t-49.5 88.5t-8.5 122.5q34 285 500 285q224 0 400 -88l-56 -338q-55 42 -128 69t-140 27q-70 0 -72 -31q-1 -16 21.5 -29.5t58.5 -26t79.5 -28t85.5 -41t74 -59.5t46.5 -88.5t3.5 -122.5q-40 -242 -369 -287l-35 -65q85 0 141.5 -55t43.5 -138z" />
<glyph unicode="&#x160;" horiz-adv-x="1312" d="M127 1059q15 99 73.5 179t145.5 129t191 75t215 26q321 0 563 -129l-70 -442q-99 63 -218.5 97t-229.5 34q-114 0 -119 -41q-2 -16 18 -30.5t56 -28.5t82.5 -30.5t97.5 -38.5t101.5 -49t93.5 -67t74 -87.5t43.5 -114t0.5 -144.5q-15 -101 -59.5 -178t-106.5 -124.5 t-146.5 -77.5t-170.5 -41t-189 -11q-341 0 -579 146l72 458q220 -155 473 -155q150 0 157 41q3 17 -17.5 31.5t-56.5 28t-83 29t-98.5 37t-102 48.5t-94 67t-74.5 89.5t-43 120t0 153.5zM1296 1894l-333 -368h-435l-215 368h394l75 -131l125 131h389z" />
<glyph unicode="&#x161;" horiz-adv-x="1013" d="M61 733q34 285 500 285q224 0 400 -88l-56 -338q-55 42 -128 69t-140 27q-70 0 -72 -31q-1 -16 21.5 -29.5t58.5 -26t79.5 -28t85.5 -41t74 -59.5t46.5 -88.5t3.5 -122.5q-12 -71 -49 -125t-88 -86t-120.5 -52t-138 -27t-149.5 -7q-214 0 -409 92l61 377 q58 -53 143.5 -84t147.5 -37q97 -8 100 23q2 15 -20 28t-57 26t-77.5 29t-84 42.5t-74.5 60.5t-49.5 88.5t-8.5 122.5zM1092 1444l-334 -369h-434l-215 369h393l76 -131l124 131h390z" />
<glyph unicode="&#x162;" horiz-adv-x="1325" d="M154 1434h1282l-74 -471h-369l-153 -963h-545l154 963h-369zM575 -594h-358l137 492h434z" />
<glyph unicode="&#x163;" horiz-adv-x="894" d="M262 1237l516 115l-59 -369h182l-61 -389h-183l-24 -156q-12 -71 78 -71q54 0 104 16l-59 -383q-129 -37 -271 -37q-41 0 -79.5 5.5t-79.5 19t-74 35.5t-63 54t-46 76.5t-22.5 102t6.5 129.5l33 209h-123l61 389h123zM492 -594h-359l137 492h435z" />
<glyph unicode="&#x164;" horiz-adv-x="1325" d="M154 1434h1282l-74 -471h-369l-153 -963h-545l154 963h-369zM1358 1894l-334 -368h-434l-215 368h393l76 -131l125 131h389z" />
<glyph unicode="&#x165;" horiz-adv-x="894" d="M944 1589h387l-168 -510h-334zM262 1237l516 115l-59 -369h182l-61 -389h-183l-24 -156q-12 -71 78 -71q54 0 104 16l-59 -383q-129 -37 -271 -37q-41 0 -79.5 5.5t-79.5 19t-74 35.5t-63 54t-46 76.5t-22.5 102t6.5 129.5l33 209h-123l61 389h123z" />
<glyph unicode="&#x166;" horiz-adv-x="1345" d="M850 0h-545l72 444h-219l49 308h217l35 211h-369l74 471h1282l-74 -471h-368l-35 -211h219l-47 -308h-219z" />
<glyph unicode="&#x167;" horiz-adv-x="897" d="M903 983l-59 -369h-182l-11 -61h156l-19 -123h-155l-2 -12q-4 -28 20 -39.5t62 -11.5q54 0 104 16l-59 -383q-129 -37 -271 -37q-58 0 -111.5 11t-106.5 40.5t-88.5 75.5t-51 122t-0.5 173l6 45h-63l18 123h64l10 61h-123l59 369h123l41 254l516 115l-59 -369h182z" />
<glyph unicode="&#x16a;" horiz-adv-x="1507" d="M1022 1434h545l-140 -885q-93 -584 -763 -584q-107 0 -202 20.5t-177.5 67.5t-137.5 116.5t-77.5 175.5t-1.5 237l135 852h545l-138 -861q-9 -62 21 -89t96 -27q140 0 164 149zM545 1853h778l-51 -321h-778z" />
<glyph unicode="&#x16b;" horiz-adv-x="1218" d="M719 983h495l-155 -983h-436l12 78q-110 -113 -287 -113q-88 0 -157 31.5t-110.5 84.5t-58 122.5t-4.5 146.5l101 633h495l-88 -557q-9 -51 37 -51q35 0 64 24zM332 1403h778l-51 -322h-778z" />
<glyph unicode="&#x16e;" horiz-adv-x="1507" d="M1022 1434h545l-140 -885q-93 -584 -763 -584q-107 0 -202 20.5t-177.5 67.5t-137.5 116.5t-77.5 175.5t-1.5 237l135 852h545l-138 -861q-9 -62 21 -89t96 -27q140 0 164 149zM1229 1743q-13 -81 -61 -137.5t-115.5 -82.5t-149.5 -26q-63 0 -118 20.5t-95 59t-58 98.5 t-7 133q19 115 109.5 178.5t211.5 63.5q136 0 220.5 -84t62.5 -223zM860 1774q-5 -30 9.5 -49t48.5 -19q66 0 77 68q5 30 -8.5 48.5t-48.5 18.5q-34 0 -53.5 -18.5t-24.5 -48.5z" />
<glyph unicode="&#x16f;" horiz-adv-x="1218" d="M719 983h495l-155 -983h-436l12 78q-110 -113 -287 -113q-88 0 -157 31.5t-110.5 84.5t-58 122.5t-4.5 146.5l101 633h495l-88 -557q-9 -51 37 -51q35 0 64 24zM1016 1292q-13 -81 -61 -137.5t-115.5 -82t-149.5 -25.5q-63 0 -118 20.5t-95 59t-58 98.5t-7 133 q19 115 109 178t212 63q136 0 220.5 -84t62.5 -223zM647 1323q-5 -30 9.5 -49t48.5 -19q66 0 77 68q5 30 -8.5 49t-48.5 19q-33 0 -53 -19t-25 -49z" />
<glyph unicode="&#x170;" horiz-adv-x="1507" d="M1022 1434h545l-140 -885q-93 -584 -763 -584q-107 0 -202 20.5t-177.5 67.5t-137.5 116.5t-77.5 175.5t-1.5 237l135 852h545l-138 -861q-9 -62 21 -89t96 -27q140 0 164 149zM1309 1516h-387l249 362h418zM827 1516h-387l219 362h418z" />
<glyph unicode="&#x171;" horiz-adv-x="1220" d="M719 983h495l-155 -983h-436l12 78q-110 -113 -287 -113q-88 0 -157 31.5t-110.5 84.5t-58 122.5t-4.5 146.5l101 633h495l-88 -557q-9 -51 37 -51q35 0 64 24zM1096 1065h-387l249 362h418zM614 1065h-387l219 362h418z" />
<glyph unicode="&#x172;" horiz-adv-x="1507" d="M891 606l131 828h545l-140 -885q-44 -280 -225 -428q-217 -177 -217 -277q0 -34 37 -34q19 0 39 8l-45 -281q-73 -22 -166 -22q-117 0 -194.5 46.5t-77.5 141.5q0 66 43 135.5t129 128.5q-29 -2 -86 -2q-107 0 -202 20.5t-177.5 67.5t-137.5 116.5t-77.5 175.5t-1.5 237 l135 852h545l-138 -861q-9 -62 21 -89t96 -27q140 0 164 149z" />
<glyph unicode="&#x173;" horiz-adv-x="1218" d="M627 399l92 584h495l-155 -983q-42 -37 -74.5 -82t-32.5 -74q0 -34 35 -34q19 0 39 8l-45 -281q-73 -22 -166 -22q-117 0 -194.5 46.5t-77.5 141.5q0 74 52 153.5t150 143.5h-122l12 78q-110 -113 -287 -113q-88 0 -157 31.5t-110.5 84.5t-58 122.5t-4.5 146.5l101 633 h495l-88 -557q-9 -51 37 -51q35 0 64 24z" />
<glyph unicode="&#x174;" horiz-adv-x="2318" d="M1845 1434h609l-656 -1434h-592l-51 596l-246 -596h-577l-201 1434h565l54 -752l305 752h434l61 -752zM1104 1894h434l215 -368h-373l-77 131l-123 -131h-410z" />
<glyph unicode="&#x175;" horiz-adv-x="1744" d="M1292 983h508l-457 -983h-460l-45 416l-174 -416h-451l-145 983h479l10 -504l201 504h323l37 -504zM756 1444h434l215 -369h-373l-78 131l-123 -131h-409z" />
<glyph unicode="&#x176;" horiz-adv-x="1581" d="M963 0h-541l82 489l-385 945h575l125 -504l277 504h635l-687 -945zM748 1894h434l215 -368h-373l-78 131l-123 -131h-409z" />
<glyph unicode="&#x177;" horiz-adv-x="1282" d="M641 487l184 496h516l-507 -1022q-222 -444 -631 -444q-146 0 -262 43l61 389q64 -21 131 -21q123 0 201 97l-285 958h490zM528 1444h435l215 -369h-373l-78 131l-123 -131h-409z" />
<glyph unicode="&#x178;" horiz-adv-x="1581" d="M963 0h-541l82 489l-385 945h575l125 -504l277 504h635l-687 -945zM1397 1712q-7 -100 -71 -157.5t-159 -57.5t-151 57.5t-49 157.5t70.5 157.5t158.5 57.5t151.5 -57.5t49.5 -157.5zM909 1712q-7 -100 -70.5 -157.5t-158.5 -57.5t-151.5 57.5t-49.5 157.5t71 157.5 t159 57.5t151 -57.5t49 -157.5z" />
<glyph unicode="&#x179;" horiz-adv-x="1353" d="M1206 0h-1247l53 338l559 625h-428l74 471h1188l-53 -338l-557 -625h487zM971 1526h-430l272 360h483z" />
<glyph unicode="&#x17a;" horiz-adv-x="1046" d="M141 983h889l-47 -293l-332 -301h314l-62 -389h-950l45 289l336 305h-254zM778 1075h-430l273 361h483z" />
<glyph unicode="&#x17b;" horiz-adv-x="1353" d="M1206 0h-1247l53 338l559 625h-428l74 471h1188l-53 -338l-557 -625h487zM1067 1716q-16 -101 -82 -147.5t-162 -46.5q-109 0 -173.5 67.5t-43.5 192.5q16 99 83 145.5t161 46.5q110 0 173 -67t44 -191z" />
<glyph unicode="&#x17c;" horiz-adv-x="1046" d="M141 983h889l-47 -293l-332 -301h314l-62 -389h-950l45 289l336 305h-254zM874 1266q-16 -101 -82 -148t-161 -47q-109 0 -173.5 67.5t-43.5 192.5q16 100 82.5 146.5t160.5 46.5q110 0 173 -67t44 -191z" />
<glyph unicode="&#x17d;" horiz-adv-x="1353" d="M1206 0h-1247l53 338l559 625h-428l74 471h1188l-53 -338l-557 -625h487zM1362 1894l-334 -368h-434l-215 368h393l76 -131l125 131h389z" />
<glyph unicode="&#x17e;" horiz-adv-x="1046" d="M141 983h889l-47 -293l-332 -301h314l-62 -389h-950l45 289l336 305h-254zM1169 1444l-333 -369h-435l-215 369h394l75 -131l125 131h389z" />
<glyph unicode="&#x2c6;" horiz-adv-x="901" d="M487 1894h435l215 -368h-373l-78 131l-123 -131h-409z" />
<glyph unicode="&#x2da;" horiz-adv-x="593" d="M834 1743q-13 -81 -61 -137.5t-115.5 -82.5t-149.5 -26q-63 0 -118 20.5t-95.5 59t-58.5 98.5t-7 133q19 115 110 178.5t212 63.5q136 0 220.5 -84t62.5 -223zM465 1774q-5 -30 9 -49t48 -19q67 0 78 68q5 30 -8.5 48.5t-48.5 18.5q-34 0 -53.5 -18.5t-24.5 -48.5z" />
<glyph unicode="&#x2dc;" horiz-adv-x="958" d="M1176 1903q23 -171 -58 -286.5t-223 -115.5q-60 0 -118.5 20t-105 40t-79.5 20q-25 0 -40 -17.5t-9 -50.5h-305q-23 171 58 286.5t222 115.5q60 0 118.5 -20t105 -40t79.5 -20q25 0 40 17.5t9 50.5h306z" />
<glyph unicode="&#x401;" d="M1294 1712q-7 -100 -70.5 -157.5t-158.5 -57.5t-151.5 57.5t-49.5 157.5t71 157.5t159 57.5t151 -57.5t49 -157.5zM807 1712q-7 -100 -70.5 -157.5t-158.5 -57.5t-151.5 57.5t-49.5 157.5t70.5 157.5t158.5 57.5t151.5 -57.5t49.5 -157.5zM219 1434h1127l-66 -410h-582 l-18 -123h500l-58 -364h-499l-21 -123h594l-66 -414h-1138z" />
<glyph unicode="&#x410;" horiz-adv-x="1587" d="M1505 0h-524l-20 164h-439l-73 -164h-558l742 1434h586zM795 774l-109 -242h227l-30 240q-15 131 -15 205q-25 -98 -73 -203z" />
<glyph unicode="&#x411;" horiz-adv-x="1398" d="M682 913h176q81 0 153.5 -12.5t144.5 -46t119.5 -86.5t69 -141.5t3.5 -202.5q-16 -106 -60 -184t-101 -123t-135.5 -72.5t-151.5 -36t-163 -8.5h-745l227 1434h1167l-65 -410h-623zM594 356h74q68 0 107.5 20.5t49.5 84.5q7 45 -21.5 70.5t-80.5 25.5h-98z" />
<glyph unicode="&#x412;" horiz-adv-x="1449" d="M219 1434h760q240 0 366.5 -100.5t96.5 -295.5q-16 -99 -71.5 -168t-172.5 -116q114 -37 166.5 -134.5t30.5 -236.5q-14 -90 -54 -158t-96.5 -110.5t-135.5 -68.5t-162.5 -36t-186.5 -10h-768zM870 489q6 32 -13 58t-69 26h-159l-29 -184h145q51 0 84 27.5t41 72.5z M920 971q4 28 -14.5 53t-65.5 25h-135l-29 -172h123q48 0 81.5 26.5t39.5 67.5z" />
<glyph unicode="&#x413;" horiz-adv-x="1212" d="M537 0h-545l227 1434h1106l-74 -471h-561z" />
<glyph unicode="&#x414;" horiz-adv-x="1771" d="M389 -264h-491l112 715h152q159 226 237.5 458.5t122.5 524.5h1157l-155 -983h188l-113 -715h-491l41 264h-719zM961 983q-75 -325 -220 -532h250l84 532h-114z" />
<glyph unicode="&#x415;" d="M219 1434h1127l-66 -410h-582l-18 -123h500l-58 -364h-499l-21 -123h594l-66 -414h-1138z" />
<glyph unicode="&#x416;" horiz-adv-x="2189" d="M1739 1434h606l-477 -789l211 -645h-559l-125 481h-49l-76 -481h-545l76 481h-45l-273 -481h-585l458 725l-243 709h559l151 -482h54l75 482h545l-76 -482h52z" />
<glyph unicode="&#x417;" horiz-adv-x="1296" d="M1225 362q-15 -94 -59.5 -165.5t-106 -114.5t-147 -70t-172 -37t-191.5 -10q-302 0 -576 103l72 452q92 -49 214 -75.5t237 -26.5q202 0 211 76q3 23 -14.5 36t-51.5 13h-346l57 356h281q82 0 90 49q3 28 -28 46t-95 18q-223 0 -469 -109l76 479q253 86 489 86 q297 0 453.5 -114t122.5 -330q-13 -93 -76.5 -168t-185.5 -115q261 -99 215 -379z" />
<glyph unicode="&#x418;" horiz-adv-x="1540" d="M1587 1434l-227 -1434h-545l47 293q24 154 58 250l-492 -543h-436l227 1434h545l-47 -293q-24 -154 -58 -250l492 543h436z" />
<glyph unicode="&#x419;" horiz-adv-x="1540" d="M1587 1434l-227 -1434h-545l47 293q24 154 58 250l-492 -543h-436l227 1434h545l-47 -293q-24 -154 -58 -250l492 543h436zM1323 1634q-174 -112 -393 -112q-110 0 -217.5 29t-180.5 83l52 320q149 -101 368 -101q242 0 422 101z" />
<glyph unicode="&#x41a;" horiz-adv-x="1527" d="M1087 1434h617l-553 -719l307 -715h-569l-199 481h-78l-75 -481h-545l227 1434h545l-76 -482h72z" />
<glyph unicode="&#x41b;" horiz-adv-x="1556" d="M410 1434h1194l-228 -1434h-545l152 963h-131q-25 -127 -43 -208.5t-45.5 -187t-55.5 -172t-66.5 -143t-85 -122.5t-105.5 -86.5t-133 -58.5t-162 -18q-152 0 -252 47l73 461q56 -29 129 -10q31 8 58.5 34t50.5 70t42.5 92t36.5 117.5t30 126.5t26.5 138.5t21.5 135.5 l20 135t18 120z" />
<glyph unicode="&#x41c;" horiz-adv-x="1851" d="M1397 1434h501l-227 -1434h-524l94 592l-221 -301h-275l-135 301l-94 -592h-524l227 1434h453l274 -613z" />
<glyph unicode="&#x41d;" horiz-adv-x="1540" d="M1042 1434h545l-227 -1434h-545l76 481h-279l-75 -481h-545l227 1434h545l-76 -482h279z" />
<glyph unicode="&#x41e;" horiz-adv-x="1638" d="M1614 684q-24 -154 -93 -284t-177.5 -227.5t-264 -152.5t-342.5 -55t-330.5 61t-227.5 167.5t-116 249t-6 307.5q24 154 92.5 284t176.5 227t263.5 152t342.5 55t331 -61t228.5 -167t116.5 -248.5t6 -307.5zM610 684q-10 -114 36.5 -170.5t141.5 -56.5q111 0 186 77.5 t87 215.5q10 114 -37 170.5t-143 56.5q-110 0 -184 -77.5t-87 -215.5z" />
<glyph unicode="&#x41f;" horiz-adv-x="1558" d="M535 0h-543l227 1434h1387l-228 -1434h-544l153 963h-299z" />
<glyph unicode="&#x420;" horiz-adv-x="1443" d="M219 1434h660q90 0 169.5 -13.5t151.5 -42.5t124.5 -75.5t89.5 -112.5t46 -152.5t-6 -195.5q-19 -120 -62.5 -210.5t-106.5 -150.5t-150.5 -97.5t-186.5 -53t-221 -15.5h-139l-51 -315h-545zM932 883q8 48 -23 80t-96 32h-119l-39 -241h95q163 0 182 129z" />
<glyph unicode="&#x421;" horiz-adv-x="1312" d="M57 739q24 153 89 278.5t153 207.5t198 138t221.5 80.5t225.5 24.5q239 0 422 -94l-72 -448q-44 30 -122 50.5t-162 20.5q-72 0 -134.5 -15t-118 -46.5t-94 -88t-51.5 -132.5q-15 -85 20 -148.5t97.5 -93t140.5 -29.5q206 0 371 86l-78 -489q-173 -76 -397 -76 q-126 0 -239 27.5t-211 88.5t-164 149.5t-93 219.5t-2 289z" />
<glyph unicode="&#x422;" horiz-adv-x="1325" d="M154 1434h1282l-74 -471h-369l-153 -963h-545l154 963h-369z" />
<glyph unicode="&#x423;" horiz-adv-x="1488" d="M946 315q-110 -178 -256.5 -264t-310.5 -86q-174 0 -301 51l67 424q60 -28 152 -28q110 0 164 57l37 39l-381 926h532l162 -504l254 504h569z" />
<glyph unicode="&#x424;" horiz-adv-x="1839" d="M1044 -106h-475l33 194q-138 12 -253.5 63.5t-195.5 134.5t-115 203t-13 261q41 263 243 419.5t533 182.5l30 188h476l-31 -188q139 -15 254 -67.5t195 -136t115 -203.5t13 -261q-41 -261 -246 -416.5t-532 -183.5zM547 709q-7 -30 -2.5 -63.5t16.5 -62.5t42 -51.5 t75 -29.5l65 420q-81 -13 -131.5 -69.5t-64.5 -143.5zM1200 930l-67 -422q83 17 133.5 75.5t64.5 145.5q7 30 2.5 63t-16 61t-42 49.5t-75.5 27.5z" />
<glyph unicode="&#x425;" horiz-adv-x="1556" d="M504 0h-654l615 733l-359 701h617l119 -332l231 332h653l-585 -701l370 -733h-616l-135 342z" />
<glyph unicode="&#x426;" horiz-adv-x="1669" d="M1491 -264h-471l41 264h-1069l227 1434h545l-152 -963h283l152 963h544l-151 -963h168z" />
<glyph unicode="&#x427;" horiz-adv-x="1454" d="M1274 0h-545l68 422q-106 -33 -244 -33q-110 0 -201.5 33t-156.5 94.5t-93.5 157.5t-9.5 215l86 545h545l-78 -494q-7 -48 20.5 -68t73.5 -20q73 0 129 31l88 551h545z" />
<glyph unicode="&#x428;" horiz-adv-x="2109" d="M1929 0h-1937l227 1434h545l-152 -963h152l151 963h545l-151 -963h151l152 963h545z" />
<glyph unicode="&#x429;" horiz-adv-x="2234" d="M2056 -264h-471l41 264h-1634l227 1434h545l-152 -963h152l151 963h545l-151 -963h151l152 963h545l-152 -963h168z" />
<glyph unicode="&#x42a;" horiz-adv-x="1630" d="M911 0h-684l154 963h-299l74 471h843l-59 -377h115q93 0 175 -16t159.5 -56t128.5 -101.5t73 -161t2 -226.5q-18 -118 -66 -207t-111 -143t-149 -88t-171 -46t-185 -12zM870 618l-28 -180h94q122 0 137 94q5 34 -17.5 60t-66.5 26h-119z" />
<glyph unicode="&#x42b;" horiz-adv-x="2084" d="M676 0h-684l227 1434h545l-59 -377h114q65 0 125 -8t121 -26.5t110 -48.5t91.5 -73.5t66 -102t33 -133.5t-7.5 -169q-18 -118 -66 -207t-111 -143t-149 -88t-171 -46t-185 -12zM635 618l-29 -180h94q123 0 138 94q5 34 -17.5 60t-66.5 26h-119zM1905 0h-545l227 1434h545 z" />
<glyph unicode="&#x42c;" horiz-adv-x="1394" d="M676 0h-684l227 1434h545l-59 -377h114q65 0 125 -8t121 -26.5t110 -48.5t91.5 -73.5t66 -102t33 -133.5t-7.5 -169q-18 -118 -66 -207t-111 -143t-149 -88t-171 -46t-185 -12zM635 618l-29 -180h94q123 0 138 94q5 34 -17.5 60t-66.5 26h-119z" />
<glyph unicode="&#x42d;" horiz-adv-x="1316" d="M188 1391q187 77 416 77q120 0 229 -28.5t206.5 -89t161.5 -154t92 -224t-1 -298.5q-23 -150 -83 -270t-144.5 -201t-193.5 -135.5t-227.5 -78.5t-250.5 -24q-230 0 -416 92l66 418q123 -72 328 -72q245 0 348 121h-467l61 389h475q-57 125 -284 125q-104 0 -206.5 -26.5 t-178.5 -63.5z" />
<glyph unicode="&#x42e;" horiz-adv-x="2301" d="M2279 684q-24 -154 -92.5 -284t-177 -227.5t-264 -152.5t-342.5 -55q-290 0 -460.5 140t-203.5 376h-127l-75 -481h-545l227 1434h545l-76 -482h111q94 248 301.5 382t496.5 134q187 0 331 -61t228.5 -167t116.5 -248.5t6 -307.5zM1276 684q-10 -114 36.5 -170.5 t141.5 -56.5q111 0 185.5 77.5t86.5 215.5q10 114 -37 170.5t-143 56.5q-110 0 -183.5 -77.5t-86.5 -215.5z" />
<glyph unicode="&#x42f;" horiz-adv-x="1517" d="M500 0h-621l426 514q-206 148 -160 430q18 111 66 197.5t113.5 141t152 89t175 48.5t188.5 14h725l-228 -1434h-544l61 389h-45zM678 895q-7 -40 18.5 -76.5t81.5 -36.5h140l34 222h-125q-61 0 -101.5 -28.5t-47.5 -80.5z" />
<glyph unicode="&#x430;" d="M696 86q-108 -121 -307 -121q-86 0 -155 29.5t-114 81t-73 122.5t-32 153t8 173q16 103 53 190t96 156t146.5 108.5t193.5 39.5q100 0 181 -47t124 -121l21 133h436l-156 -983h-436zM524 485q-7 -61 15.5 -94t62.5 -35q43 0 82 33l33 205q-17 31 -62 31q-50 0 -87 -39.5 t-44 -100.5z" />
<glyph unicode="&#x431;" horiz-adv-x="1185" d="M1137 383q-18 -111 -74 -194.5t-138 -131t-174.5 -70t-195.5 -22.5q-55 0 -104.5 7t-101 22.5t-94 41t-82 62.5t-66 87t-46 115t-21.5 145.5t7 179.5q27 228 129 392.5t256 252.5q88 51 187 81t181 40.5t157.5 18t138.5 23.5t102 46l-55 -455q-39 -34 -109 -53 t-163.5 -32.5t-135.5 -25.5q-67 -18 -126.5 -71.5t-78.5 -120.5q112 125 279 125q79 0 145 -28.5t114 -84t67.5 -146t1.5 -204.5zM500 430q-3 -44 16 -67t55 -23q44 0 73.5 30.5t35.5 84.5q3 44 -17 67t-57 23q-42 0 -71 -30.5t-35 -84.5z" />
<glyph unicode="&#x432;" horiz-adv-x="1153" d="M680 0h-707l156 983h655q74 0 132 -14.5t92.5 -38t59.5 -54.5t32.5 -64t11 -65.5t-3.5 -60.5q-23 -136 -195 -205q93 -31 136 -97.5t28 -162.5q-4 -28 -16 -55t-40.5 -58t-70.5 -54t-112 -38.5t-158 -15.5zM483 377l-16 -111h80q38 0 60.5 15.5t25.5 42.5q9 53 -51 53 h-99zM537 713l-19 -111h70q84 0 92 57q3 22 -10 38t-45 16h-88z" />
<glyph unicode="&#x433;" horiz-adv-x="897" d="M469 0h-496l156 983h803l-62 -389h-307z" />
<glyph unicode="&#x434;" horiz-adv-x="1398" d="M334 -248h-440l90 586h127q188 274 227 645h942l-104 -645h153l-90 -586h-440l39 248h-465zM696 641q-38 -196 -125 -303h174l54 303h-103z" />
<glyph unicode="&#x435;" horiz-adv-x="1118" d="M23 535q15 100 59.5 183t105.5 137.5t135 92t146.5 54t142.5 16.5q129 0 225.5 -39.5t148.5 -103.5t75.5 -145.5t16.5 -166.5t-38 -166h-581q28 -102 241 -102q163 0 304 41l-52 -328q-147 -43 -350 -43q-89 0 -174 17t-168 59t-141 105t-86 163.5t-10 225.5zM692 590 q13 53 -9.5 86t-70.5 33q-60 0 -96 -38t-41 -81h217z" />
<glyph unicode="&#x436;" horiz-adv-x="1841" d="M420 0h-520l319 528l-123 455h484l69 -303h56l47 303h471l-47 -303h57l160 303h510l-312 -526l129 -457h-483l-68 291h-57l-45 -291h-471l45 291h-59z" />
<glyph unicode="&#x437;" horiz-adv-x="1046" d="M958 240q-8 -45 -24.5 -81t-56.5 -73.5t-100 -63t-159 -41.5t-229 -16q-254 0 -434 82l47 301q57 -28 144.5 -46.5t175.5 -18.5q133 0 141 51q3 18 -8.5 28.5t-40.5 10.5h-232l39 245h182q84 0 89 39q3 22 -20.5 31.5t-65.5 9.5q-85 0 -177.5 -19.5t-156.5 -47.5l51 325 q73 27 195 44.5t260 17.5q131 0 225 -30.5t139 -79.5t61 -102t7 -108q-11 -73 -60 -125.5t-133 -78.5q82 -29 118.5 -97t22.5 -157z" />
<glyph unicode="&#x438;" horiz-adv-x="1255" d="M340 0h-367l156 983h451l-52 -326l357 326h366l-155 -983h-451l51 326z" />
<glyph unicode="&#x439;" horiz-adv-x="1255" d="M1081 1163q-142 -92 -352 -92q-83 0 -184.5 24t-171.5 68l47 299q140 -80 328 -80q111 0 199.5 18t180.5 62zM340 0h-367l156 983h451l-52 -326l357 326h366l-155 -983h-451l51 326z" />
<glyph unicode="&#x43a;" horiz-adv-x="1277" d="M469 0h-496l156 983h496l-47 -293h55l190 293h541l-381 -522l201 -461h-512l-99 301h-57z" />
<glyph unicode="&#x43b;" horiz-adv-x="1306" d="M674 594q-74 -329 -197.5 -477t-314.5 -148q-138 0 -242 49l62 388q38 -15 86 -15q31 0 55.5 23.5t44 69.5t35.5 110.5t32.5 150t34.5 185.5q6 35 9 53h1024l-156 -983h-496l94 594h-71z" />
<glyph unicode="&#x43c;" horiz-adv-x="1394" d="M403 0h-430l156 983h369l188 -393l320 393h385l-156 -983h-430l59 352l-157 -194h-148l-96 200z" />
<glyph unicode="&#x43d;" horiz-adv-x="1241" d="M469 0h-496l156 983h496l-50 -307h117l49 307h496l-156 -983h-495l49 307h-117z" />
<glyph unicode="&#x43e;" horiz-adv-x="1216" d="M1163 459q-27 -167 -116.5 -279.5t-220 -163.5t-298.5 -51q-93 0 -176.5 21.5t-152 67.5t-114.5 111t-64 157.5t-1 201.5q26 167 114.5 279.5t218.5 163.5t298 51q117 0 218 -35.5t175 -102.5t107 -176t12 -245zM481 475q-4 -53 18 -79.5t66 -26.5q54 0 88.5 36.5 t40.5 102.5q9 106 -86 106q-52 0 -86.5 -36.5t-40.5 -102.5z" />
<glyph unicode="&#x43f;" horiz-adv-x="1228" d="M469 0h-496l156 983h1096l-156 -983h-496l95 594h-105z" />
<glyph unicode="&#x440;" horiz-adv-x="1282" d="M549 879q65 63 146.5 101t162.5 38q142 0 235 -78t125.5 -203.5t8.5 -277.5q-17 -104 -53 -190.5t-93.5 -156t-143.5 -108.5t-192 -39q-79 0 -149.5 30.5t-116.5 72.5l-82 -519h-495l227 1434h436zM723 494q9 52 -9.5 91.5t-68.5 39.5q-41 0 -82 -33l-33 -207 q21 -27 64 -27q46 0 82 39t47 97z" />
<glyph unicode="&#x441;" horiz-adv-x="991" d="M14 492q12 108 57 197t109.5 149t146.5 101.5t168.5 60t176.5 18.5q167 0 313 -60l-59 -378q-76 36 -176 36q-54 0 -99 -9.5t-83 -39.5t-46 -78q-9 -59 37.5 -88.5t128.5 -29.5q116 0 221 43l-63 -404q-158 -45 -293 -45q-174 0 -301.5 60t-192.5 180.5t-45 286.5z" />
<glyph unicode="&#x442;" horiz-adv-x="1003" d="M655 0h-495l94 594h-227l61 389h950l-61 -389h-227z" />
<glyph unicode="&#x443;" horiz-adv-x="1282" d="M641 487l184 496h516l-507 -1022q-222 -444 -631 -444q-146 0 -262 43l61 389q64 -21 131 -21q123 0 201 97l-285 958h490z" />
<glyph unicode="&#x444;" horiz-adv-x="1693" d="M907 -451h-454l65 416q-118 7 -217.5 49t-169.5 112t-101 173.5t-12 224.5q34 219 215.5 347.5t450.5 142.5l68 420h454l-67 -416q121 -7 221.5 -49t170 -112.5t100 -173.5t11.5 -224q-37 -224 -211.5 -352t-457.5 -142zM479 485q-8 -53 20 -95t89 -52l47 295 q-71 -11 -108.5 -45t-47.5 -103zM1069 641l-45 -291q72 11 109 43t49 103q8 54 -21 94.5t-92 50.5z" />
<glyph unicode="&#x445;" horiz-adv-x="1198" d="M397 0h-518l397 489l-223 494h484l81 -219l144 219h516l-387 -494l233 -489h-518l-59 203z" />
<glyph unicode="&#x446;" horiz-adv-x="1339" d="M1163 -248h-420l39 248h-809l156 983h496l-95 -594h105l94 594h496l-95 -594h134z" />
<glyph unicode="&#x447;" horiz-adv-x="1200" d="M1040 0h-495l39 248q-92 -27 -201 -27q-54 0 -107 13.5t-101.5 43.5t-83 72.5t-49.5 106t-3 139.5l61 387h496l-53 -340q-7 -39 39 -39q34 0 61 17l57 362h496z" />
<glyph unicode="&#x448;" horiz-adv-x="1824" d="M1665 0h-1692l156 983h496l-95 -594h103l94 594h496l-95 -594h103l94 594h496z" />
<glyph unicode="&#x449;" horiz-adv-x="1935" d="M1759 -248h-420l39 248h-1405l156 983h496l-95 -594h103l94 594h496l-95 -594h103l94 594h496l-95 -594h134z" />
<glyph unicode="&#x44a;" horiz-adv-x="1386" d="M856 0h-700l98 618h-227l57 365h723l-35 -225h180q197 0 299 -117t74 -293q-25 -157 -143.5 -252.5t-325.5 -95.5zM727 475l-27 -172h62q39 0 66 23.5t34 70.5q4 29 -9 53.5t-44 24.5h-82z" />
<glyph unicode="&#x44b;" horiz-adv-x="1820" d="M674 0h-701l156 983h496l-35 -225h180q197 0 299 -117t74 -293q-25 -157 -143.5 -252.5t-325.5 -95.5zM545 475l-27 -172h62q39 0 66 23.5t34 70.5q4 29 -9 53.5t-44 24.5h-82zM1661 0h-496l156 983h496z" />
<glyph unicode="&#x44c;" horiz-adv-x="1204" d="M674 0h-701l156 983h496l-35 -225h180q197 0 299 -117t74 -293q-25 -157 -143.5 -252.5t-325.5 -95.5zM545 475l-27 -172h62q39 0 66 23.5t34 70.5q4 29 -9 53.5t-44 24.5h-82z" />
<glyph unicode="&#x44d;" horiz-adv-x="1030" d="M975 434q-19 -121 -80 -214t-148 -147t-183.5 -81t-198.5 -27q-125 0 -215.5 21t-186.5 71l49 312q134 -72 285 -72q155 0 240 74h-342l41 241h339q-16 30 -70.5 53t-119.5 23q-186 0 -324 -78l54 334q93 40 168.5 57t173.5 17q91 0 173.5 -21t154 -67t120.5 -113 t68.5 -165.5t1.5 -217.5z" />
<glyph unicode="&#x44e;" horiz-adv-x="1765" d="M1712 459q-27 -167 -116.5 -279.5t-220 -163.5t-298.5 -51q-178 0 -313 88.5t-172 253.5h-78l-49 -307h-492l156 983h492l-50 -307h58q68 171 218 256.5t351 85.5q176 0 302 -69.5t182 -197t30 -292.5zM1030 475q-4 -53 18 -79.5t66 -26.5q54 0 88.5 36.5t40.5 102.5 q9 106 -86 106q-52 0 -86.5 -36.5t-40.5 -102.5z" />
<glyph unicode="&#x44f;" horiz-adv-x="1210" d="M420 0h-508l262 330q-153 103 -117 315q10 62 40.5 119.5t83 107.5t136 80.5t187.5 30.5h702l-155 -983h-451l39 242h-31zM516 594q-4 -28 11.5 -50t54.5 -22h102l23 144h-86q-93 0 -105 -72z" />
<glyph unicode="&#x451;" horiz-adv-x="1118" d="M1116 1262q-7 -100 -70.5 -157.5t-158.5 -57.5t-151.5 57.5t-49.5 157.5t70.5 157.5t158.5 57.5t151.5 -57.5t49.5 -157.5zM629 1262q-7 -100 -71 -157.5t-159 -57.5t-151 57.5t-49 157.5t70.5 157.5t158.5 57.5t151.5 -57.5t49.5 -157.5zM23 535q15 100 59.5 183 t105.5 137.5t135 92t146.5 54t142.5 16.5q129 0 225.5 -39.5t148.5 -103.5t75.5 -145.5t16.5 -166.5t-38 -166h-581q28 -102 241 -102q163 0 304 41l-52 -328q-147 -43 -350 -43q-89 0 -174 17t-168 59t-141 105t-86 163.5t-10 225.5zM692 590q13 53 -9.5 86t-70.5 33 q-60 0 -96 -38t-41 -81h217z" />
<glyph unicode="&#x2000;" horiz-adv-x="1025" />
<glyph unicode="&#x2001;" horiz-adv-x="2050" />
<glyph unicode="&#x2002;" horiz-adv-x="1025" />
<glyph unicode="&#x2003;" horiz-adv-x="2050" />
<glyph unicode="&#x2004;" horiz-adv-x="683" />
<glyph unicode="&#x2005;" horiz-adv-x="512" />
<glyph unicode="&#x2006;" horiz-adv-x="341" />
<glyph unicode="&#x2007;" horiz-adv-x="341" />
<glyph unicode="&#x2008;" horiz-adv-x="256" />
<glyph unicode="&#x2009;" horiz-adv-x="410" />
<glyph unicode="&#x200a;" horiz-adv-x="113" />
<glyph unicode="&#x2010;" horiz-adv-x="974" d="M92 676h815l-57 -369h-815z" />
<glyph unicode="&#x2011;" horiz-adv-x="974" d="M92 676h815l-57 -369h-815z" />
<glyph unicode="&#x2012;" horiz-adv-x="974" d="M92 676h815l-57 -369h-815z" />
<glyph unicode="&#x2013;" horiz-adv-x="1198" d="M1073 307h-1038l57 369h1038z" />
<glyph unicode="&#x2014;" horiz-adv-x="1628" d="M1503 307h-1468l57 369h1469z" />
<glyph unicode="&#x2018;" horiz-adv-x="630" d="M496 778h-457l350 656h361z" />
<glyph unicode="&#x2019;" horiz-adv-x="624" d="M418 778h-361l254 656h457z" />
<glyph unicode="&#x201a;" horiz-adv-x="602" d="M186 -293h-360l254 655h457z" />
<glyph unicode="&#x201c;" horiz-adv-x="1142" d="M1008 778h-457l350 656h361zM496 778h-457l350 656h361z" />
<glyph unicode="&#x201d;" horiz-adv-x="1136" d="M930 778h-361l254 656h457zM418 778h-361l254 656h457z" />
<glyph unicode="&#x201e;" horiz-adv-x="1114" d="M698 -293h-360l254 655h457zM186 -293h-360l254 655h457z" />
<glyph unicode="&#x2026;" horiz-adv-x="1908" d="M1810 186q-18 -111 -95 -166t-183 -55q-119 0 -189.5 76t-48.5 211q18 111 94 166t181 55q120 0 191 -76t50 -211zM500 186q-18 -111 -95.5 -166t-183.5 -55q-119 0 -189 76t-48 211q18 111 94 166t180 55q121 0 192 -76t50 -211zM1155 186q-18 -111 -95 -166t-183 -55 q-119 0 -189.5 76t-48.5 211q18 111 94 166t180 55q121 0 192 -76t50 -211z" />
<glyph unicode="&#x202f;" horiz-adv-x="410" />
<glyph unicode="&#x2039;" horiz-adv-x="864" d="M737 53h-487l-221 396l14 98l338 383h504l-381 -438z" />
<glyph unicode="&#x203a;" horiz-adv-x="862" d="M453 53h-506l383 439l-236 438h490l219 -395l-17 -99z" />
<glyph unicode="&#x205f;" horiz-adv-x="512" />
<glyph unicode="&#x20ac;" horiz-adv-x="1462" d="M1491 1341l-70 -432q-113 68 -295 68q-177 0 -276 -86h350l-26 -164h-418q-11 -33 -11 -61h420l-26 -164h-344q69 -78 206 -78q204 0 357 80l-74 -465q-177 -74 -399 -74q-134 0 -251.5 33t-213 97.5t-157 168.5t-75.5 238h-155l26 164h129q0 20 9 61h-129l26 164h144 q39 113 106.5 204.5t148.5 152.5t177 102t192 59t195 18q239 0 434 -86z" />
<glyph unicode="&#x2122;" horiz-adv-x="1497" d="M918 891h-261l86 543h263l92 -224l162 224h282l-86 -543h-260l37 229l-92 -127h-127l-58 140zM494 891h-269l49 305h-124l36 238h521l-37 -238h-127z" />
<glyph unicode="&#x25fc;" horiz-adv-x="983" d="M0 983h983v-983h-983v983z" />
</font>
</defs>
</svg>
