<?xml version="1.0" standalone="no"?>
<!DOCTYPE svg PUBLIC "-//W3C//DTD SVG 1.1//EN" "http://www.w3.org/Graphics/SVG/1.1/DTD/svg11.dtd" >
<svg xmlns="http://www.w3.org/2000/svg" xmlns:xlink="http://www.w3.org/1999/xlink" version="1.1">
<metadata></metadata>
<defs>
<font id="mullerregular_italic" horiz-adv-x="1267" >
<font-face units-per-em="2048" ascent="1597" descent="-451" />
<missing-glyph horiz-adv-x="514" />
<glyph horiz-adv-x="0" />
<glyph horiz-adv-x="682" />
<glyph unicode=" "  horiz-adv-x="514" />
<glyph unicode="&#x09;" horiz-adv-x="514" />
<glyph unicode="&#xa0;" horiz-adv-x="514" />
<glyph unicode="!" horiz-adv-x="473" d="M281 416h-144l148 1018h172zM260 72q-7 -45 -38 -68.5t-72 -23.5q-47 0 -75.5 30t-21.5 82q7 45 38.5 68.5t72.5 23.5q47 0 75 -30t21 -82z" />
<glyph unicode="&#x22;" horiz-adv-x="653" d="M580 1065h-115l59 369h156zM313 1065h-114l59 369h156z" />
<glyph unicode="#" horiz-adv-x="1341" d="M227 0h-164l138 350h-162l22 144h197l162 407h-191l23 143h223l137 349h164l-135 -349h371l137 349h164l-137 -349h157l-22 -143h-193l-162 -407h187l-23 -144h-219l-139 -350h-164l137 350h-368zM584 901l-162 -407h371l161 407h-370z" />
<glyph unicode="$" horiz-adv-x="1204" d="M543 -266h-144l39 246q-243 22 -405 120l26 168q95 -66 219 -97.5t252 -31.5q73 0 135 10.5t117.5 33.5t91.5 66t46 103q8 54 -14.5 97t-68 73t-106.5 55.5t-129 49.5t-135.5 50.5t-126.5 62.5t-102 81t-62 111t-6 147q18 104 94 180.5t178.5 113.5t221.5 42l38 244h144 l-39 -246q196 -22 326 -104l-25 -162q-74 52 -183.5 79t-234.5 27q-86 0 -157 -17.5t-124.5 -61.5t-64.5 -109q-10 -57 12 -103t66.5 -78t105 -59t128.5 -51.5t135.5 -50.5t127.5 -60t103.5 -76.5t63.5 -104.5t8 -138q-15 -94 -64 -166t-121 -114t-153.5 -63.5t-173.5 -25.5 z" />
<glyph unicode="%" horiz-adv-x="1839" d="M471 -123h-168l1104 1679h168zM823 1126q-15 -98 -72.5 -170t-135.5 -106.5t-166 -34.5q-65 0 -123 22.5t-100.5 64t-62 105.5t-7.5 140q24 146 132.5 228.5t246.5 82.5q64 0 121.5 -22.5t99.5 -64t61 -105.5t6 -140zM307 1137q-11 -74 27 -126.5t121 -52.5 q88 0 146.5 50.5t70.5 128.5q11 74 -26 126t-118 52q-91 0 -150 -50t-71 -128zM1720 287q-15 -98 -72.5 -170t-135.5 -107t-166 -35q-65 0 -123 22.5t-100.5 64t-62 105.5t-7.5 140q24 146 132.5 228.5t246.5 82.5q136 0 224.5 -90.5t63.5 -240.5zM1204 297q-11 -74 27 -126 t121 -52q88 0 146.5 50t70.5 128q11 74 -26 126t-118 52q-91 0 -150 -50t-71 -128z" />
<glyph unicode="&#x26;" horiz-adv-x="1425" d="M1112 246l227 -246h-198l-133 143q-212 -168 -504 -168q-223 0 -345.5 112.5t-95.5 277.5q11 70 49 132.5t96.5 112t109 82t114.5 66.5q-67 75 -102 167t-19 191q23 147 159 244.5t316 97.5q160 0 270.5 -95.5t88.5 -236.5q-9 -59 -44 -114.5t-77.5 -95t-107 -80.5 t-110.5 -64.5t-111 -54.5q-9 -4 -13 -6l322 -349q108 135 129 308h170q-36 -240 -191 -424zM780 1303q-136 0 -215 -61t-92 -157q-17 -114 102 -262q379 164 404 318q11 73 -51.5 117.5t-147.5 44.5zM233 352q-17 -100 66 -160.5t236 -60.5q208 0 364 127l-360 385 q-44 -21 -78 -39.5t-76.5 -47t-71.5 -57.5t-51.5 -67.5t-28.5 -79.5z" />
<glyph unicode="'" horiz-adv-x="387" d="M313 1065h-114l59 369h156z" />
<glyph unicode="(" horiz-adv-x="589" d="M553 1657h162q-160 -197 -272.5 -450.5t-151.5 -499.5q-40 -235 -7.5 -488t130.5 -442h-156q-106 201 -146.5 452t-2.5 498q40 243 158 490t286 440z" />
<glyph unicode=")" horiz-adv-x="591" d="M217 1657h154q106 -202 147 -453t2 -497q-38 -242 -156 -489t-286 -441h-164q160 197 272.5 450.5t151.5 499.5q40 235 8 488t-129 442z" />
<glyph unicode="*" horiz-adv-x="909" d="M522 1008l-192 -246l-115 86l209 217l-252 65l74 144l239 -100l25 260h152l-60 -260l270 100l31 -144l-280 -65l147 -217l-135 -86z" />
<glyph unicode="+" horiz-adv-x="1089" d="M653 795h379l-24 -156h-381l-60 -379h-155l59 379h-377l25 156h379l59 379h156z" />
<glyph unicode="," horiz-adv-x="462" d="M41 -307h-135l188 471h176z" />
<glyph unicode="-" horiz-adv-x="991" d="M127 586h731l-24 -156h-732z" />
<glyph unicode="." horiz-adv-x="438" d="M252 76q-7 -47 -38.5 -70.5t-74.5 -23.5q-48 0 -77.5 30.5t-20.5 83.5q6 45 39 68.5t76 23.5q48 0 76.5 -30t19.5 -82z" />
<glyph unicode="/" horiz-adv-x="876" d="M82 -119h-127l874 1671h127z" />
<glyph unicode="0" horiz-adv-x="1435" d="M121 707q24 155 81 283t145 224.5t214 149.5t279 53q199 0 326.5 -97t171 -260t10.5 -374q-24 -156 -81 -284t-145 -224t-214.5 -149.5t-280.5 -53.5q-198 0 -325 97t-170.5 260.5t-10.5 374.5zM1178 696q41 266 -44 411.5t-305 145.5q-226 0 -361 -144t-177 -413 q-41 -266 43.5 -411.5t302.5 -145.5q228 0 363.5 144t177.5 413z" />
<glyph unicode="1" horiz-adv-x="876" d="M575 1393h127l-194 -1229h260l-27 -164h-727l27 164h295l166 1046l-312 -110l27 164z" />
<glyph unicode="2" horiz-adv-x="1177" d="M248 1284q216 133 465 133q208 0 329 -103.5t93 -279.5q-11 -68 -40.5 -128t-68 -106t-98.5 -92t-117.5 -81t-138.5 -78q-20 -11 -69.5 -37t-71 -37.5t-64 -36t-63.5 -39.5t-54.5 -39t-51 -44t-37.5 -45t-31.5 -51.5t-16.5 -55.5h795l-27 -164h-981l14 88 q11 71 34.5 133.5t51 110t72.5 93t82.5 76.5t98.5 67.5t103.5 58.5t112.5 57q71 35 112.5 57t98.5 59t90 70.5t61 81.5t36 101q15 99 -57.5 151.5t-221.5 52.5q-220 0 -469 -155z" />
<glyph unicode="3" horiz-adv-x="1202" d="M1114 1028q-17 -105 -85.5 -187t-166.5 -114q45 -14 84 -41t72 -69t47 -106.5t2 -141.5q-16 -97 -69 -173.5t-131 -124t-171 -72t-194 -24.5q-275 0 -473 95l24 159q173 -94 445 -94q77 0 143.5 15t122.5 46t93 82t48 119q8 54 -2.5 96t-36 69t-66 44t-88 24t-106.5 7 h-217l27 160h190q146 -1 236 65.5t106 171.5q17 105 -57 164t-229 59q-211 0 -447 -106l27 170q206 96 452 96q133 0 235 -49t152 -138.5t33 -201.5z" />
<glyph unicode="4" horiz-adv-x="1320" d="M938 1393h190l-147 -924h260l-24 -160h-261l-49 -309h-172l49 309h-776l23 152zM809 469l111 690l-674 -690h563z" />
<glyph unicode="5" horiz-adv-x="1185" d="M317 1393h834l-25 -164h-673l-91 -391q106 28 238 28q77 0 148.5 -15.5t136.5 -51.5t110 -88t65 -132t5 -178q-16 -102 -71.5 -184t-137.5 -134t-182.5 -80t-210.5 -28q-252 0 -434 97l24 155q74 -43 181.5 -67.5t218.5 -24.5q176 0 297.5 74t142.5 213 q13 80 -10.5 138.5t-77 90t-121 46t-152.5 14.5q-177 0 -374 -68z" />
<glyph unicode="6" horiz-adv-x="1269" d="M303 741q215 127 447 127q69 0 134.5 -17.5t122.5 -54.5t97 -89t57.5 -126t3.5 -159q-23 -142 -107 -245t-201.5 -152.5t-254.5 -49.5q-286 0 -411 189.5t-72 519.5q29 186 99 328t169.5 229.5t218.5 131.5t254 44q180 0 328 -82l-25 -155q-129 73 -309 73 q-72 0 -138.5 -16.5t-131 -55t-117.5 -97t-96 -146t-68 -197.5zM600 135q99 0 179 29t138.5 98t75.5 172q10 63 -1 111t-37.5 78.5t-67.5 50t-87 27.5t-102 8q-108 0 -218.5 -38.5t-205.5 -113.5q-15 -214 70 -318t256 -104z" />
<glyph unicode="7" horiz-adv-x="1103" d="M176 1393h1006l-25 -156l-778 -1237h-189l775 1229h-815z" />
<glyph unicode="8" horiz-adv-x="1323" d="M1182 328q-25 -152 -175 -252.5t-413 -100.5q-139 0 -248 35t-172.5 94t-90.5 135.5t-13 161.5q14 98 88.5 195t206.5 168q-172 115 -140 303q11 67 48.5 127.5t102 111.5t165.5 81t225 30q114 0 209.5 -35t155.5 -92.5t89 -131t19 -150.5q-22 -195 -242 -332 q98 -50 151 -139t34 -209zM242 401q-20 -126 79 -196t293 -70q161 0 271 59.5t125 157.5q7 49 -6.5 88t-35 63.5t-70.5 49t-81.5 36t-99.5 32.5q-17 5 -25 8q-97 25 -188 59q-114 -53 -181 -128t-81 -159zM692 784q60 -14 164 -45q186 113 211 267q16 105 -67 178t-242 73 q-151 0 -249 -56t-112 -144q-7 -48 6 -87.5t37 -64.5t66.5 -48t77 -36t86.5 -30q15 -5 22 -7z" />
<glyph unicode="9" d="M135 971q17 107 70 193t129 140.5t169 83.5t195 29q287 0 412 -189t72 -519q-23 -149 -73.5 -271t-120 -207.5t-157.5 -143.5t-185.5 -85t-205.5 -27q-179 0 -327 82l24 158q126 -76 309 -76q72 0 138.5 16.5t131 55t117.5 97t96 146t68 197.5q-215 -127 -446 -127 q-69 0 -134.5 18t-122.5 55t-97.5 89t-58 126t-3.5 159zM700 1257q-154 0 -261 -72t-132 -224q-12 -78 6.5 -133.5t63 -86t100 -44t125.5 -13.5q108 0 218.5 38.5t205.5 113.5q15 213 -69.5 317t-256.5 104z" />
<glyph unicode=":" horiz-adv-x="473" d="M375 788q-7 -47 -39 -70.5t-76 -23.5q-47 0 -76 31t-20 84q7 47 38.5 70.5t73.5 23.5q50 0 79 -31t20 -84zM262 76q-7 -47 -39 -70.5t-76 -23.5q-47 0 -76 30.5t-20 83.5q6 44 38.5 68t74.5 24q49 0 78 -30t20 -82z" />
<glyph unicode=";" horiz-adv-x="581" d="M98 -307h-135l189 471h176zM434 862q-7 -47 -39 -70.5t-76 -23.5q-47 0 -76 31t-22 84q7 46 40 70t75 24q49 0 78 -31t20 -84z" />
<glyph unicode="&#x3c;" horiz-adv-x="1026" d="M842 481l-25 -159l-721 313l27 164l819 313l-24 -160l-642 -235z" />
<glyph unicode="=" horiz-adv-x="1142" d="M1040 825h-866l25 156h866zM981 453h-866l24 155h867z" />
<glyph unicode="&#x3e;" horiz-adv-x="1028" d="M942 635l-819 -313l24 159l644 236l-568 235l25 160l721 -313z" />
<glyph unicode="?" horiz-adv-x="1007" d="M526 426h-166q8 60 37 117.5t69.5 105t88 93t94.5 89.5t87.5 86.5t69 91.5t36.5 97q16 102 -57 145t-222 43q-193 0 -397 -116l27 170q188 110 407 110q93 0 173.5 -23t139.5 -66t87 -112t14 -155q-12 -79 -64.5 -156t-119 -139t-132.5 -121.5t-115 -127t-57 -132.5z M496 76q-7 -47 -38.5 -70.5t-74.5 -23.5q-48 0 -77.5 30.5t-20.5 83.5q6 45 38.5 68.5t75.5 23.5q48 0 77 -30t20 -82z" />
<glyph unicode="@" horiz-adv-x="2154" d="M78 522q29 186 123.5 354t239 298t348.5 207t436 77q180 0 329.5 -55t248 -146t162.5 -207.5t85 -242t2 -246.5q-43 -269 -172.5 -407t-310.5 -138q-123 0 -199.5 56t-91.5 157q-61 -85 -147.5 -127.5t-182.5 -42.5q-107 0 -192 57t-127 158t-23 222q29 181 160 300 t301 119q95 0 167 -47.5t105 -119.5l23 147h160l-86 -543q-14 -96 17.5 -144t123.5 -48q118 0 197 116.5t108 305.5q16 100 -1 201t-69.5 193t-133 163t-201 113t-263.5 42q-157 0 -299 -41.5t-253.5 -115t-199 -172.5t-142 -217t-74.5 -246q-29 -186 19.5 -342 t155.5 -257.5t257.5 -157.5t325.5 -56q240 0 466 75l-26 -170q-203 -69 -455 -69q-164 0 -313 42t-271 126.5t-205.5 202.5t-117 279.5t-4.5 346.5zM1311 565q-8 83 -69 141t-163 58q-112 0 -201.5 -76.5t-109.5 -200.5q-18 -120 42.5 -198t164.5 -78q107 0 192.5 62 t118.5 145z" />
<glyph unicode="A" horiz-adv-x="1470" d="M1360 0h-178l-92 346h-775l-200 -346h-193l850 1434h193zM815 1198l-407 -692h639l-187 696q-9 30 -12 60q-14 -33 -33 -64z" />
<glyph unicode="B" horiz-adv-x="1419" d="M324 1434h583q135 0 238 -42t158 -129t36 -206q-20 -124 -97.5 -200.5t-180.5 -104.5q47 -14 88.5 -39t80.5 -67.5t56 -110.5t4 -152q-12 -78 -45 -140t-81 -102.5t-103 -69.5t-119 -43.5t-120.5 -21t-116.5 -6.5h-609zM1122 422q10 63 -6.5 108.5t-46 69.5t-77.5 38 t-86 17.5t-85 3.5h-448l-78 -495h393q50 0 89 2.5t89.5 10.5t88.5 26t74 45t60 71.5t33 102.5zM1165 1057q19 117 -57.5 165t-233.5 48h-405l-70 -447h445q128 0 215 57t106 177z" />
<glyph unicode="C" horiz-adv-x="1323" d="M117 758q18 110 64 208.5t111 174.5t146 136.5t170.5 100t182 60t182.5 20.5q224 0 381 -98l-25 -166q-126 100 -338 100q-116 0 -229 -35.5t-212 -102.5t-170 -175.5t-93 -243.5q-20 -121 1 -223t71 -169.5t122.5 -115t153 -69t164.5 -21.5q222 0 389 107l-29 -187 q-169 -84 -407 -84q-105 0 -206.5 31.5t-190.5 94t-150.5 156.5t-87.5 219t0 282z" />
<glyph unicode="D" horiz-adv-x="1513" d="M324 1434h467q178 0 314.5 -55t216.5 -152t110.5 -230t5.5 -290t-90.5 -284t-171 -222.5t-260 -148t-345.5 -52.5h-475zM1266 727q42 259 -83 401t-411 142h-303l-174 -1106h295q286 0 460 149t216 414z" />
<glyph unicode="E" horiz-adv-x="1271" d="M324 1434h966l-26 -164h-795l-74 -465h733l-24 -164h-733l-76 -477h807l-27 -164h-979z" />
<glyph unicode="F" horiz-adv-x="1243" d="M324 1434h970l-26 -164h-799l-78 -494h739l-26 -164h-739l-97 -612h-172z" />
<glyph unicode="G" horiz-adv-x="1447" d="M113 748q23 142 86.5 261t151 200.5t195 138.5t218 83.5t219.5 26.5q236 0 418 -98l-25 -164q-137 98 -379 98q-92 0 -181 -18.5t-177.5 -62t-159.5 -107.5t-123 -161.5t-71 -217.5q-20 -124 1.5 -225t72 -167.5t124 -111.5t154 -64.5t166.5 -19.5q155 0 280 56l91 567 h176l-109 -692q-223 -95 -461 -95q-110 0 -214.5 27.5t-198.5 88.5t-159 149t-92.5 219t-2.5 289z" />
<glyph unicode="H" horiz-adv-x="1574" d="M1346 1434h172l-228 -1434h-172l101 637h-850l-101 -637h-172l228 1434h172l-101 -633h850z" />
<glyph unicode="I" horiz-adv-x="552" d="M324 1434h172l-228 -1434h-172z" />
<glyph unicode="J" horiz-adv-x="1046" d="M410 1434h594l-160 -1014q-19 -117 -68 -204t-121.5 -137.5t-158 -74.5t-185.5 -24q-229 0 -358 90l27 168q121 -95 309 -95q76 0 137 14.5t113.5 47.5t87 91.5t47.5 141.5l131 832h-422z" />
<glyph unicode="K" horiz-adv-x="1355" d="M1247 1434h197l-590 -705l403 -729h-182l-366 649h-338l-103 -649h-172l228 1434h172l-99 -621h326z" />
<glyph unicode="L" horiz-adv-x="1179" d="M324 1434h172l-201 -1270h795l-27 -164h-967z" />
<glyph unicode="M" horiz-adv-x="1855" d="M1620 1434h178l-227 -1434h-172l180 1128l-635 -790h-110l-385 790l-181 -1128h-172l228 1434h153l432 -887z" />
<glyph unicode="N" horiz-adv-x="1574" d="M268 0h-172l228 1434h145l696 -1160q1 6 19 144l162 1016h172l-228 -1434h-145l-696 1161q-2 -23 -19 -143z" />
<glyph unicode="O" horiz-adv-x="1677" d="M1606 707q-18 -113 -61.5 -217.5t-117.5 -198.5t-170 -164t-227 -111t-282 -41q-98 0 -185 22t-155 61.5t-125 94.5t-93.5 120.5t-61 140t-27 153.5t7.5 160q18 112 63.5 217t121 198.5t172.5 163.5t226.5 111t274.5 41q98 0 185 -22t155 -61.5t125 -94t93.5 -120.5 t61 -140.5t27 -153t-7.5 -159.5zM281 717q-7 -58 -7 -117t15.5 -116t40 -108t65.5 -94.5t92.5 -75t121 -49.5t149.5 -18q142 0 263.5 48t205 129.5t136.5 184t71 216.5q7 58 7 117t-16 115.5t-40 108t-65.5 94.5t-93 74.5t-121 49.5t-149.5 18q-143 0 -264 -47.5t-204 -129 t-136 -184t-71 -216.5z" />
<glyph unicode="P" horiz-adv-x="1357" d="M324 1434h505q91 0 170 -14t152 -48.5t121 -87t69.5 -135.5t4.5 -188q-70 -453 -676 -453h-322l-80 -508h-172zM1176 981q11 69 -4.5 122t-49 84t-85 50t-104 26t-114.5 7h-350l-94 -598h321q98 0 174 14t142 47.5t108 96t56 151.5z" />
<glyph unicode="Q" horiz-adv-x="1677" d="M1491 -16l-121 -105l-176 209q-199 -113 -446 -113q-98 0 -185 22t-155 61.5t-125 94.5t-93.5 120.5t-61 140t-27 153.5t7.5 160q18 112 63.5 217t121 198.5t172.5 163.5t226.5 111t274.5 41q98 0 185 -22t155 -61.5t125 -94t93.5 -120.5t61 -140.5t27 -153t-7.5 -159.5 q-24 -151 -96 -288.5t-187 -238.5zM281 717q-7 -58 -7 -117t15.5 -116t40 -108t65.5 -94.5t92.5 -75t121 -49.5t149.5 -18q181 0 327 78l-211 250l119 102l224 -262q87 78 142.5 184.5t74.5 225.5q7 58 7 117t-16 115.5t-40 108t-65.5 94.5t-93 74.5t-121 49.5t-149.5 18 q-143 0 -264 -47.5t-204 -129t-136 -184t-71 -216.5z" />
<glyph unicode="R" horiz-adv-x="1427" d="M268 0h-172l228 1434h557q81 0 153.5 -14t138 -47.5t110 -83t64.5 -127t5 -173.5q-15 -94 -56.5 -167.5t-104 -121t-133 -76.5t-153.5 -44l389 -580h-202l-379 565h-355zM469 1270l-84 -541h393q73 0 135.5 14t119.5 44.5t95.5 87.5t51.5 135q13 76 -8.5 129t-70 80.5 t-104.5 39t-127 11.5h-401z" />
<glyph unicode="S" horiz-adv-x="1191" d="M184 1100q14 91 66 161.5t128 112.5t164 63t183 21q119 0 230.5 -31.5t187.5 -85.5l-25 -163q-74 57 -177.5 87.5t-213.5 28.5q-335 0 -371 -209q-9 -56 12.5 -100.5t65.5 -76t102.5 -58.5t124.5 -52t132 -52t123.5 -63.5t99.5 -81t60.5 -110.5t6.5 -147 q-15 -101 -69.5 -175.5t-134.5 -115t-168.5 -59.5t-188.5 -19q-141 0 -270 33t-225 92l26 166q189 -127 467 -127q80 0 143 10t116.5 33.5t86.5 66.5t43 103q10 59 -11 106.5t-64.5 80.5t-102 61.5t-124 54.5t-131.5 53t-123.5 63t-99.5 79.5t-61.5 107.5t-7.5 142z" />
<glyph unicode="T" horiz-adv-x="1234" d="M160 1434h1179l-26 -164h-504l-201 -1270h-172l201 1270h-504z" />
<glyph unicode="U" horiz-adv-x="1546" d="M1333 1434h172l-145 -916q-19 -120 -64.5 -213.5t-107.5 -155t-142.5 -101t-166 -56.5t-183.5 -17q-101 0 -186.5 18.5t-160 59t-120 105t-66.5 157t1 215.5l143 904h172l-143 -908q-63 -387 358 -387q433 0 498 400z" />
<glyph unicode="V" horiz-adv-x="1411" d="M700 0h-178l-366 1434h178l301 -1241l696 1241h191z" />
<glyph unicode="W" horiz-adv-x="2070" d="M1987 1434h182l-666 -1434h-196l-181 1122l-534 -1122h-205l-223 1434h174l186 -1217l580 1217h139l193 -1194z" />
<glyph unicode="X" horiz-adv-x="1320" d="M123 0h-217l678 745l-408 689h191l333 -562l510 562h217l-643 -707l433 -727h-191l-356 600z" />
<glyph unicode="Y" horiz-adv-x="1343" d="M662 0h-173l89 543l-422 891h180l344 -727l580 727h194l-704 -891z" />
<glyph unicode="Z" horiz-adv-x="1200" d="M1040 0h-1063l23 156l993 1114h-794l26 164h1010l-25 -156l-993 -1114h850z" />
<glyph unicode="[" horiz-adv-x="583" d="M395 -225h-383l299 1884h381l-24 -164h-211l-248 -1556h211z" />
<glyph unicode="\" horiz-adv-x="864" d="M684 -119h-119l-346 1671h119z" />
<glyph unicode="]" horiz-adv-x="585" d="M313 -225h-383l25 164h213l246 1556h-211l24 164h383z" />
<glyph unicode="^" horiz-adv-x="1091" d="M317 778h-190l483 656h144l278 -656h-176l-194 473z" />
<glyph unicode="_" horiz-adv-x="929" d="M786 -305h-929l24 155h930z" />
<glyph unicode="`" horiz-adv-x="378" d="M565 1577h-174l-166 301h201z" />
<glyph unicode="a" d="M903 168q-174 -193 -420 -193q-213 0 -331.5 151t-83.5 376q34 218 195 362t368 144q239 0 375 -195l26 170h148l-156 -983h-147zM227 492q-26 -162 57 -263.5t226 -101.5q127 0 236.5 71.5t171.5 174.5l38 245q-25 100 -108.5 169t-206.5 69q-151 0 -269 -98.5 t-145 -265.5z" />
<glyph unicode="b" d="M283 1434h163l-98 -603q169 177 404 177q213 0 331.5 -151t83.5 -376q-34 -221 -189.5 -363.5t-373.5 -142.5q-234 0 -373 193l-28 -168h-148zM1008 492q26 162 -57 263t-226 101q-132 0 -238.5 -70.5t-169.5 -175.5l-43 -245q30 -102 114 -170t206 -68q162 0 274.5 97.5 t139.5 267.5z" />
<glyph unicode="c" horiz-adv-x="1013" d="M70 508q16 104 60 189t104 142t134.5 96t151 56t154.5 17q169 0 303 -90l-27 -154q-100 92 -264 92q-61 0 -118.5 -12t-114 -40t-101.5 -69t-78 -103.5t-45 -139.5q-14 -92 6 -163t67.5 -114.5t113 -65.5t145.5 -22q144 0 313 88l-26 -170q-156 -70 -324 -70 q-82 0 -156.5 21t-136.5 63.5t-103.5 106.5t-58 149.5t0.5 192.5z" />
<glyph unicode="d" horiz-adv-x="1269" d="M1087 1434h164l-227 -1434h-145l26 174q-163 -199 -422 -199q-213 0 -331.5 151t-83.5 376q34 219 190.5 362.5t362.5 143.5q134 0 226.5 -53t141.5 -132zM958 618q-26 102 -110 170t-207 68q-151 0 -269 -98.5t-145 -265.5q-26 -162 57 -263.5t226 -101.5 q127 0 236.5 71.5t171.5 174.5z" />
<glyph unicode="e" horiz-adv-x="1122" d="M68 498q15 99 56 183.5t97.5 143.5t125 101t141.5 62t145 20q109 0 192.5 -34.5t131 -93.5t70 -135.5t16 -161t-38.5 -169.5h-783q-3 -61 15.5 -110t53 -81.5t81.5 -54.5t97.5 -31.5t104.5 -9.5q193 0 351 84l-27 -166q-149 -70 -352 -70q-78 0 -153 20t-141 62.5 t-112.5 103t-66.5 148t-4 189.5zM883 557q8 30 9 61.5t-5 66t-24.5 64.5t-47 54.5t-75 38.5t-105.5 14q-137 0 -248.5 -81t-142.5 -218h639z" />
<glyph unicode="f" horiz-adv-x="782" d="M313 1128q15 91 56.5 158t100 103t120 52.5t129.5 16.5q129 0 229 -47l-24 -147q-77 43 -187 43q-50 0 -88.5 -7.5t-76 -27.5t-62.5 -61t-35 -101l-20 -127h368l-24 -152h-369l-131 -831h-164l131 831h-184l24 152h185z" />
<glyph unicode="g" horiz-adv-x="1271" d="M1026 -6q-19 -122 -75.5 -215t-137.5 -147t-175 -80.5t-198 -26.5q-252 0 -407 102l24 156q144 -107 371 -107q82 0 153 19t129.5 58t98.5 103.5t53 149.5l23 139q-166 -170 -402 -170q-213 0 -331.5 151t-83.5 376q34 218 195 362t368 144q246 0 370 -203l29 178h152z M227 492q-26 -162 57 -263.5t226 -101.5q127 0 236.5 67t171.5 164l43 263q-28 101 -112 168t-208 67q-151 0 -269 -98.5t-145 -265.5z" />
<glyph unicode="h" horiz-adv-x="1200" d="M283 1434h163l-94 -586q76 71 173.5 115.5t197.5 44.5q181 0 274.5 -113.5t65.5 -294.5l-94 -600h-166l94 592q21 132 -39 198t-176 66q-98 0 -195 -59.5t-165 -143.5l-103 -653h-164z" />
<glyph unicode="i" horiz-adv-x="475" d="M225 0h-164l156 983h164zM455 1286q-9 -47 -40 -70.5t-75 -23.5q-48 0 -76.5 31t-21.5 84q7 45 39.5 69.5t76.5 24.5q48 0 76 -31.5t21 -83.5z" />
<glyph unicode="j" horiz-adv-x="477" d="M197 -188q-13 -79 -46 -137.5t-79.5 -89.5t-94.5 -45.5t-100 -14.5q-87 0 -158 33l23 143q48 -25 106 -25q164 0 191 172l180 1135h164zM457 1286q-9 -47 -40 -70.5t-75 -23.5q-48 0 -76.5 31t-21.5 84q7 45 39.5 69.5t76.5 24.5q48 0 76 -31.5t21 -83.5z" />
<glyph unicode="k" horiz-adv-x="1060" d="M883 983h194l-448 -479l329 -504h-184l-289 442h-196l-70 -442h-164l228 1434h163l-133 -840h207z" />
<glyph unicode="l" horiz-adv-x="475" d="M299 1495h164l-238 -1495h-164z" />
<glyph unicode="m" horiz-adv-x="1822" d="M985 844q186 164 381 164q180 0 263.5 -115t56.5 -293l-97 -600h-164l99 616q17 113 -32 176.5t-153 63.5q-163 0 -321 -168q0 -42 -6 -88l-97 -600h-163l98 616q17 113 -31.5 176.5t-152.5 63.5q-164 0 -336 -182l-109 -674h-164l156 983h145l-22 -137q62 64 155.5 113 t200.5 49t182 -43.5t111 -120.5z" />
<glyph unicode="n" horiz-adv-x="1202" d="M334 829q79 79 180.5 129t212.5 50q179 0 272.5 -113.5t65.5 -294.5l-96 -600h-164l94 592q21 132 -39 198t-176 66q-97 0 -194.5 -59t-165.5 -142l-103 -655h-164l156 983h145z" />
<glyph unicode="o" horiz-adv-x="1212" d="M1112 481q-15 -97 -56.5 -180t-100.5 -142t-132 -101t-152 -62.5t-159 -20.5q-99 0 -186.5 35.5t-152.5 100t-94.5 166.5t-10.5 225q19 120 79 218.5t143 160t180.5 94.5t197.5 33t188 -35.5t153 -100t94 -166.5t9 -225zM227 481q-17 -108 17.5 -188.5t107.5 -121 t172 -40.5q158 0 279.5 101t148.5 270q17 108 -17.5 188.5t-107.5 121t-172 40.5q-158 0 -279.5 -101t-148.5 -270z" />
<glyph unicode="p" horiz-adv-x="1269" d="M332 809q171 199 422 199q213 0 331.5 -151t83.5 -376q-34 -218 -195 -362t-368 -144q-250 0 -358 197l-98 -623h-164l227 1434h147zM1010 492q26 162 -57 263t-226 101q-130 0 -238 -71t-172 -177l-38 -246q28 -101 111.5 -168t205.5 -67q151 0 269 99t145 266z" />
<glyph unicode="q" d="M68 502q34 218 195 362t368 144q129 0 222.5 -55.5t150.5 -147.5l28 178h148l-228 -1434h-164l97 605q-71 -79 -172.5 -129t-229.5 -50q-213 0 -331.5 151t-83.5 376zM958 623q-26 99 -110 166t-207 67q-151 0 -269 -98.5t-145 -265.5q-26 -162 57 -263.5t226 -101.5 q127 0 236.5 71.5t171.5 174.5z" />
<glyph unicode="r" horiz-adv-x="751" d="M334 815q149 214 450 189l-26 -168q-137 24 -257.5 -40.5t-183.5 -187.5l-96 -608h-164l156 983h147z" />
<glyph unicode="s" horiz-adv-x="954" d="M109 739q10 70 50.5 123.5t100.5 84.5t128 46t140 15q191 0 338 -86l-24 -152q-60 41 -144.5 65.5t-173.5 24.5q-64 0 -117 -13t-91 -44.5t-44 -77.5q-5 -42 26 -73t84 -51t118 -39t128 -44t113.5 -58.5t76 -89t13.5 -128.5q-12 -72 -53.5 -126t-104 -83.5t-132.5 -43.5 t-150 -14q-224 0 -366 103l24 160q67 -52 159.5 -81.5t188.5 -29.5q252 0 273 131q6 36 -17 65t-64.5 47t-95 37t-110 35.5t-109.5 43t-93 58t-60 82t-12 113.5z" />
<glyph unicode="t" horiz-adv-x="831" d="M322 1284l170 47l-56 -348h395l-24 -152h-395l-82 -514q-18 -110 24.5 -150t147.5 -40q118 0 229 57l-24 -159q-115 -50 -258 -50q-144 0 -226 85t-57 241l84 530h-184l24 152h184z" />
<glyph unicode="u" horiz-adv-x="1198" d="M946 983h164l-156 -983h-145l25 154q-65 -77 -167 -128t-210 -51q-186 0 -284 114.5t-69 297.5l95 596h163l-94 -592q-21 -134 36.5 -199t178.5 -65q109 0 200.5 56t158.5 145z" />
<glyph unicode="v" horiz-adv-x="1093" d="M948 983h180l-589 -983h-172l-279 983h172l215 -797z" />
<glyph unicode="w" horiz-adv-x="1622" d="M1470 983h177l-488 -983h-174l-143 756l-389 -756h-179l-180 983h166l135 -778l402 778h147l150 -776z" />
<glyph unicode="x" horiz-adv-x="999" d="M121 0h-193l465 506l-284 477h184l207 -365l327 365h193l-445 -481l306 -502h-185l-225 389z" />
<glyph unicode="y" horiz-adv-x="1101" d="M489 174l465 809h179l-662 -1135q-189 -323 -418 -323q-56 0 -112 16l22 137q31 -10 76 -10q84 0 156 60.5t143 183.5l53 90l-309 981h164z" />
<glyph unicode="z" horiz-adv-x="952" d="M160 983h755l-24 -147l-690 -693h610l-23 -143h-808l22 147l692 693h-557z" />
<glyph unicode="{" horiz-adv-x="622" d="M432 -82l-22 -145q-159 -33 -233 35.5t-52 207.5l76 476q14 90 -21 120.5t-117 30.5l25 150q78 0 125 37.5t61 130.5l76 475q22 138 113 196t246 25l-23 -141q-81 12 -121 -27.5t-57 -145.5l-68 -432q-13 -86 -48.5 -132.5t-100.5 -63.5q51 -8 76.5 -59t9.5 -148 l-70 -432q-14 -94 12 -132t113 -26z" />
<glyph unicode="|" horiz-adv-x="458" d="M188 -205h-172l295 1864h172z" />
<glyph unicode="}" horiz-adv-x="620" d="M311 2q-23 -142 -110.5 -202.5t-247.5 -22.5l24 151q78 -20 118.5 13.5t54.5 124.5l75 475q26 170 166 186q-61 11 -90 63.5t-14 141.5l69 436q16 96 -11 132.5t-116 21.5l23 139q157 33 231 -36t52 -208l-74 -471q-25 -162 133 -162l-23 -143q-160 0 -186 -168z" />
<glyph unicode="~" horiz-adv-x="1202" d="M1096 788q-4 -116 -74 -180.5t-174 -64.5q-77 0 -232.5 56t-222.5 56q-45 0 -73.5 -24t-28.5 -68h-154q6 119 76 182.5t170 63.5q67 0 150.5 -27.5t164.5 -55.5t142 -28q46 0 74 22.5t28 67.5h154z" />
<glyph unicode="&#xa1;" horiz-adv-x="444" d="M143 -446h-172l174 1017h144zM373 895q-7 -45 -38.5 -68.5t-72.5 -23.5q-47 0 -75 30t-19 82q7 45 38.5 69t72.5 24q47 0 75 -30.5t19 -82.5z" />
<glyph unicode="&#xa2;" horiz-adv-x="1044" d="M987 918l-26 -154q-96 86 -238 92l-115 -727q124 8 277 86l-27 -170q-131 -59 -274 -68l-35 -223h-143l36 228q-89 14 -161.5 54t-125 103.5t-73.5 158.5t-2 210q14 94 51 172.5t88 133.5t115 95.5t131 63t139 31.5l35 225h143l-34 -225q130 -12 239 -86zM578 844 q-129 -29 -221 -115.5t-117 -236.5q-24 -149 39.5 -239t187.5 -116z" />
<glyph unicode="&#xa3;" horiz-adv-x="1234" d="M1063 0h-1075l26 164h72q64 0 111.5 50.5t58.5 125.5l43 266h-174l25 160h174l28 180q16 102 54.5 183.5t90 134.5t118 88t134.5 50t142 15q166 0 301 -80l-25 -159q-120 82 -284 82q-50 0 -95.5 -10.5t-89 -35t-78 -62t-60.5 -94t-38 -128.5l-26 -164h454l-24 -160h-455 l-45 -278q-10 -67 -32.5 -107t-69.5 -61l766 4z" />
<glyph unicode="&#xa4;" horiz-adv-x="1181" d="M342 383l-156 -133l-98 115l148 129q-55 96 -35 233q21 131 102 221l-102 121l131 115l108 -129q100 53 224 53q122 0 215 -57l155 133l99 -115l-148 -129q53 -98 33 -233q-21 -128 -103 -222l105 -120l-131 -115l-111 129q-97 -53 -223 -53q-120 0 -213 57zM362 707 q-17 -108 38 -169t163 -61q115 0 194.5 67.5t98.5 182.5q18 107 -37 168t-164 61q-115 0 -194.5 -67t-98.5 -182z" />
<glyph unicode="&#xa5;" horiz-adv-x="1382" d="M1243 1393h193l-574 -725h266l-22 -144h-344l-21 -114h346l-22 -144h-346l-43 -266h-172l43 266h-342l22 144h342l21 114h-344l22 144h269l-347 725h185l321 -699z" />
<glyph unicode="&#xa6;" horiz-adv-x="491" d="M385 928h-172l115 731h172zM205 -205h-172l117 731h172z" />
<glyph unicode="&#xa7;" horiz-adv-x="1024" d="M831 197q-11 -73 -51.5 -126t-101.5 -83t-132 -44t-153 -14q-93 0 -190 27.5t-160 71.5l25 151q65 -49 155.5 -77.5t167.5 -28.5q120 0 194 31t87 108q3 18 0 33t-13.5 28.5t-20.5 24t-32 21.5t-36.5 18t-45.5 17.5t-47 15.5t-53 16q-59 17 -96.5 30.5t-84 39.5t-71 55.5 t-38 76t-3.5 103.5q22 146 205 264q-131 76 -107 230q11 71 52.5 125.5t102 85.5t127.5 46t138 15q83 0 167.5 -24t150.5 -62l-23 -149q-53 41 -130 66.5t-161 25.5q-99 0 -174.5 -37.5t-85.5 -108.5q-5 -29 6.5 -52.5t30 -39.5t56.5 -32t67 -25.5t82 -24.5q9 -3 14 -4 q59 -17 96.5 -30.5t84 -39.5t71 -55.5t38 -76t3.5 -103.5q-22 -144 -205 -264q118 -77 94 -225zM481 522q21 -7 61.5 -17t57.5 -16q73 30 123.5 85.5t58.5 107.5q12 78 -70 125q-33 18 -120 49q-23 8 -69 20.5t-48 12.5q-74 -28 -125 -84t-59 -109q-12 -78 70 -125 q33 -18 120 -49z" />
<glyph unicode="&#xa8;" horiz-adv-x="616" d="M858 1704q-7 -43 -42.5 -72.5t-78.5 -29.5q-49 0 -79.5 36t-22.5 86q8 42 43.5 72.5t77.5 30.5q49 0 79.5 -37.5t22.5 -85.5zM444 1704q-7 -43 -42 -72.5t-78 -29.5q-49 0 -80 36t-23 86q8 42 43.5 72.5t77.5 30.5q49 0 79.5 -37.5t22.5 -85.5z" />
<glyph unicode="&#xa9;" horiz-adv-x="1736" d="M1659 707q-23 -142 -86 -263.5t-151 -206t-196 -145t-221.5 -89t-226.5 -28.5q-109 0 -213.5 30t-196 92t-155.5 149.5t-91.5 212t-4.5 268.5q23 142 86 263t150.5 206t195.5 145t221.5 88.5t226.5 28.5q109 0 214 -29.5t196.5 -92t155.5 -149.5t91.5 -211.5t4.5 -268.5z M1145 371q-139 -68 -287 -68q-59 0 -115.5 15t-106 48t-84 79.5t-49 115.5t-1.5 150q17 107 68 190.5t121.5 132t148 72.5t157.5 24q149 0 248 -71l-10 -121q-94 66 -219 66q-50 0 -97 -9.5t-94 -32.5t-83.5 -57.5t-64 -88t-38.5 -120.5q-12 -74 4.5 -128t55.5 -83t87.5 -42 t108.5 -13q126 0 262 68zM178 727q-21 -130 1.5 -243.5t79 -194t137.5 -138.5t177 -86t199 -28q106 0 212 25.5t207.5 79.5t183.5 131t141.5 189t80.5 245q21 130 -1.5 243.5t-78.5 194t-137.5 138.5t-177 86t-198.5 28q-106 0 -212 -25.5t-207.5 -79.5t-184 -131t-142 -189 t-80.5 -245z" />
<glyph unicode="&#xab;" horiz-adv-x="1009" d="M823 119h-172l-194 356l6 39l303 350h180l-323 -372zM440 119h-172l-194 356l6 39l303 350h180l-325 -372z" />
<glyph unicode="&#xac;" horiz-adv-x="1173" d="M1020 555h-164l43 272h-749l24 156h913z" />
<glyph unicode="&#xad;" horiz-adv-x="991" d="M127 586h731l-24 -156h-732z" />
<glyph unicode="&#xae;" horiz-adv-x="1736" d="M1659 707q-23 -142 -86 -263.5t-151 -206t-196 -145t-221.5 -89t-226.5 -28.5q-109 0 -213.5 30t-196 92t-155.5 149.5t-91.5 212t-4.5 268.5q23 142 86 263t150.5 206t195.5 145t221.5 88.5t226.5 28.5q109 0 214 -29.5t196.5 -92t155.5 -149.5t91.5 -211.5t4.5 -268.5z M178 727q-21 -130 1.5 -243.5t79 -194t137.5 -138.5t177 -86t199 -28q106 0 212 25.5t207.5 79.5t183.5 131t141.5 189t80.5 245q21 130 -1.5 243.5t-78.5 194t-137.5 138.5t-177 86t-198.5 28q-106 0 -212 -25.5t-207.5 -79.5t-184 -131t-142 -189t-80.5 -245zM657 315 h-122l127 805h342q42 0 81 -7t78.5 -25.5t66.5 -47t39.5 -75.5t2.5 -107q-25 -171 -209 -225l172 -318h-137l-160 301h-27h-206zM766 1001l-43 -266h207q38 0 66 3.5t65 16.5t61.5 44.5t32.5 79.5q5 35 -3.5 59.5t-22.5 36.5t-42.5 18.5t-45.5 7t-49 0.5h-11h-215z" />
<glyph unicode="&#xaf;" horiz-adv-x="737" d="M297 1755h614l-24 -149h-615z" />
<glyph unicode="&#xb0;" horiz-adv-x="804" d="M803 1141q-22 -140 -124.5 -220.5t-232.5 -80.5q-61 0 -116 22t-95 62t-58.5 102t-6.5 135q15 91 70 159.5t130.5 103t157.5 34.5q62 0 117 -22t94.5 -62t57.5 -101t6 -132zM289 1151q-12 -85 32.5 -137.5t127.5 -52.5q92 0 157 50.5t78 139.5q12 83 -31.5 134.5 t-126.5 51.5q-92 0 -157 -49.5t-80 -136.5z" />
<glyph unicode="&#xb1;" horiz-adv-x="1175" d="M772 1243l-59 -379h379l-25 -155h-379l-59 -379h-156l59 379h-378l24 155h379l59 379h156zM954 0h-913l25 156h913z" />
<glyph unicode="&#xb4;" horiz-adv-x="378" d="M438 1577h-182l233 301h209z" />
<glyph unicode="&#xb6;" horiz-adv-x="1308" d="M526 -451h-170l164 1024q-214 0 -318.5 118t-70.5 323q31 199 167.5 309.5t350.5 110.5h623l-299 -1885h-172l272 1721h-274z" />
<glyph unicode="&#xb7;" horiz-adv-x="477" d="M328 479q-7 -47 -38.5 -70.5t-74.5 -23.5q-48 0 -77.5 31t-20.5 84q7 47 39 70.5t75 23.5q48 0 77 -31t20 -84z" />
<glyph unicode="&#xb8;" horiz-adv-x="440" d="M94 0h139l-49 -119q96 3 149.5 -42.5t43.5 -127.5q-13 -93 -89 -139.5t-194 -46.5q-112 0 -215 41l23 133q80 -41 180 -41q71 0 112 17.5t46 48.5q7 45 -65 59.5t-163 -4.5z" />
<glyph unicode="&#xbb;" horiz-adv-x="1007" d="M592 119h-178l323 373l-200 372h170l196 -356l-6 -39zM209 119h-178l323 373l-200 372h170l196 -356l-6 -39z" />
<glyph unicode="&#xbc;" horiz-adv-x="1927" d="M1597 836h154l-84 -531h143l-20 -133h-143l-27 -172h-139l26 172h-450l20 131zM1528 305l53 336l-328 -336h275zM408 -27h-76l1173 1485h76zM444 1393h107l-111 -701h142l-21 -135h-459l21 135h176l88 553l-180 -67l22 137z" />
<glyph unicode="&#xbd;" horiz-adv-x="1841" d="M397 -27h-75l1173 1485h76zM1214 772q130 80 281 80q78 0 142.5 -28t100 -85.5t21.5 -132.5q-31 -166 -272 -289q-136 -70 -177 -102q-50 -39 -59 -80h439l-23 -135h-604l10 72q6 42 20.5 79.5t30.5 65.5t44.5 55.5t49.5 45t59 39.5t59 33t63 32q200 96 219 201 q8 50 -28.5 73t-100.5 23q-148 0 -297 -96zM434 1393h107l-111 -701h141l-20 -135h-459l21 135h176l88 553l-180 -67l22 137z" />
<glyph unicode="&#xbe;" horiz-adv-x="2037" d="M539 -27h-76l1173 1485h76zM1708 836h154l-84 -531h143l-20 -133h-144l-26 -172h-140l27 172h-451l21 131zM1638 305l54 336l-328 -336h274zM766 1176q-9 -61 -47.5 -107t-97.5 -68q57 -21 93.5 -74t22.5 -141q-12 -79 -64.5 -133.5t-125 -79t-158.5 -24.5 q-163 0 -287 59l23 140q110 -64 256 -64q205 0 223 131q11 65 -28.5 89t-122.5 24h-138l21 135h115q76 0 123.5 32t56.5 89q8 51 -35 74.5t-117 23.5q-132 0 -266 -70l23 146q121 59 266 59q122 0 201.5 -69t62.5 -172z" />
<glyph unicode="&#xbf;" horiz-adv-x="995" d="M776 -369q-200 -106 -407 -106q-94 0 -175 23t-140 66t-86.5 112t-14.5 155q11 67 50 134.5t90 120t109 109t108 103.5t87 102.5t45 106.5h162q-12 -76 -62 -151.5t-114 -138.5t-128 -124.5t-113 -130.5t-60 -135q-16 -102 57 -145t222 -43q205 0 399 121zM684 893 q-7 -45 -39.5 -68.5t-75.5 -23.5q-48 0 -76.5 30t-19.5 82q7 47 38.5 71t74.5 24q48 0 77.5 -31t20.5 -84z" />
<glyph unicode="&#xc0;" horiz-adv-x="1470" d="M1360 0h-178l-92 346h-775l-200 -346h-193l850 1434h193zM815 1198l-407 -692h639l-187 696q-9 30 -12 60q-14 -33 -33 -64zM1016 1577h-174l-166 301h201z" />
<glyph unicode="&#xc1;" horiz-adv-x="1470" d="M1360 0h-178l-92 346h-775l-200 -346h-193l850 1434h193zM815 1198l-407 -692h639l-187 696q-9 30 -12 60q-14 -33 -33 -64zM954 1577h-182l234 301h208z" />
<glyph unicode="&#xc2;" horiz-adv-x="1470" d="M1360 0h-178l-92 346h-775l-200 -346h-193l850 1434h193zM815 1198l-407 -692h639l-187 696q-9 30 -12 60q-14 -33 -33 -64zM854 1878h147l224 -299h-176l-134 176l-186 -176h-192z" />
<glyph unicode="&#xc3;" horiz-adv-x="1470" d="M1360 0h-178l-92 346h-775l-200 -346h-193l850 1434h193zM815 1198l-407 -692h639l-187 696q-9 30 -12 60q-14 -33 -33 -64zM1243 1780q-1 -108 -57.5 -162.5t-134.5 -54.5q-55 0 -112.5 21.5t-105.5 43t-79 21.5q-38 0 -57 -20t-17 -54h-141q1 106 57 161.5t133 55.5 q54 0 112 -21.5t106.5 -43t80.5 -21.5q77 0 74 74h141z" />
<glyph unicode="&#xc4;" horiz-adv-x="1470" d="M1360 0h-178l-92 346h-775l-200 -346h-193l850 1434h193zM815 1198l-407 -692h639l-187 696q-9 30 -12 60q-14 -33 -33 -64zM1217 1704q-7 -43 -42.5 -72.5t-78.5 -29.5q-49 0 -80 36t-23 86q8 42 43.5 72.5t77.5 30.5q49 0 80 -37.5t23 -85.5zM803 1704 q-7 -43 -42.5 -72.5t-78.5 -29.5q-49 0 -79.5 36t-22.5 86q8 42 43 72.5t77 30.5q49 0 80 -37.5t23 -85.5z" />
<glyph unicode="&#xc5;" horiz-adv-x="1470" d="M1360 0h-178l-92 346h-775l-200 -346h-193l850 1434h193zM815 1198l-407 -692h639l-187 696q-9 30 -12 60q-14 -33 -33 -64zM1157 1741q-17 -99 -92.5 -158t-169.5 -59q-98 0 -162 66t-47 171q17 96 93 154.5t171 58.5q97 0 160.5 -65.5t46.5 -167.5zM809 1749 q-9 -49 18 -81t70 -32q51 0 90.5 29.5t48.5 83.5q7 48 -19.5 80.5t-68.5 32.5q-51 0 -91.5 -30t-47.5 -83z" />
<glyph unicode="&#xc6;" horiz-adv-x="2060" d="M2077 1434l-25 -164h-731l-74 -465h670l-27 -164h-669l-76 -477h745l-26 -164h-918l55 350h-620l-295 -350h-207l1219 1434h979zM512 506h514l119 751z" />
<glyph unicode="&#xc7;" horiz-adv-x="1323" d="M1329 1194q-126 100 -338 100q-116 0 -229 -35.5t-212 -102.5t-170 -175.5t-93 -243.5q-20 -121 1 -223t71 -169.5t122.5 -115t153 -69t164.5 -21.5q222 0 389 107l-29 -187q-148 -74 -364 -84l-39 -94q95 3 148.5 -42.5t43.5 -127.5q-13 -93 -88.5 -139.5t-193.5 -46.5 q-112 0 -215 41l22 133q80 -41 180 -41q71 0 112 17.5t46 48.5q7 45 -64.5 59.5t-162.5 -4.5l75 203q-97 13 -185 51.5t-164.5 103.5t-126.5 155t-70 207t4 259q18 110 64 208.5t111 174.5t146 136.5t170.5 100t182 60t182.5 20.5q224 0 381 -98z" />
<glyph unicode="&#xc8;" horiz-adv-x="1271" d="M324 1434h966l-26 -164h-795l-74 -465h733l-24 -164h-733l-76 -477h807l-27 -164h-979zM958 1577h-174l-166 301h201z" />
<glyph unicode="&#xc9;" horiz-adv-x="1271" d="M324 1434h966l-26 -164h-795l-74 -465h733l-24 -164h-733l-76 -477h807l-27 -164h-979zM897 1577h-182l233 301h209z" />
<glyph unicode="&#xca;" horiz-adv-x="1271" d="M324 1434h966l-26 -164h-795l-74 -465h733l-24 -164h-733l-76 -477h807l-27 -164h-979zM797 1878h147l223 -299h-176l-133 176l-186 -176h-193z" />
<glyph unicode="&#xcb;" horiz-adv-x="1271" d="M324 1434h966l-26 -164h-795l-74 -465h733l-24 -164h-733l-76 -477h807l-27 -164h-979zM1159 1704q-7 -43 -42.5 -72.5t-78.5 -29.5q-49 0 -79.5 36t-22.5 86q8 42 43.5 72.5t77.5 30.5q49 0 79.5 -37.5t22.5 -85.5zM745 1704q-7 -43 -42 -72.5t-78 -29.5q-49 0 -80 36 t-23 86q8 42 43.5 72.5t77.5 30.5q49 0 79.5 -37.5t22.5 -85.5z" />
<glyph unicode="&#xcc;" horiz-adv-x="552" d="M324 1434h172l-228 -1434h-172zM561 1577h-174l-166 301h201z" />
<glyph unicode="&#xcd;" horiz-adv-x="552" d="M324 1434h172l-228 -1434h-172zM500 1577h-183l234 301h209z" />
<glyph unicode="&#xce;" horiz-adv-x="552" d="M324 1434h172l-228 -1434h-172zM399 1878h148l223 -299h-176l-133 176l-187 -176h-192z" />
<glyph unicode="&#xcf;" horiz-adv-x="552" d="M324 1434h172l-228 -1434h-172zM762 1704q-7 -43 -42.5 -72.5t-78.5 -29.5q-49 0 -79.5 36t-22.5 86q8 42 43 72.5t77 30.5q49 0 80 -37.5t23 -85.5zM348 1704q-7 -43 -42.5 -72.5t-78.5 -29.5q-49 0 -79.5 36t-22.5 86q8 42 43.5 72.5t77.5 30.5q49 0 79.5 -37.5 t22.5 -85.5z" />
<glyph unicode="&#xd0;" horiz-adv-x="1521" d="M332 1434h467q178 0 314.5 -55t216.5 -152t110.5 -230t5.5 -290t-90.5 -284t-170.5 -222.5t-259.5 -148t-345.5 -52.5h-476l101 637h-166l24 156h166zM598 164q286 0 460 149t216 414q42 259 -83 401t-411 142h-303l-76 -477h435l-25 -156h-434l-74 -473h295z" />
<glyph unicode="&#xd1;" horiz-adv-x="1574" d="M268 0h-172l228 1434h145l696 -1160q1 6 19 144l162 1016h172l-228 -1434h-145l-696 1161q-2 -23 -19 -143zM1300 1780q-1 -108 -57.5 -162.5t-134.5 -54.5q-55 0 -112.5 21.5t-105.5 43t-79 21.5q-38 0 -57 -20t-17 -54h-141q1 106 57 161.5t133 55.5q54 0 112 -21.5 t106.5 -43t80.5 -21.5q77 0 74 74h141z" />
<glyph unicode="&#xd2;" horiz-adv-x="1677" d="M1606 707q-18 -113 -61.5 -217.5t-117.5 -198.5t-170 -164t-227 -111t-282 -41q-98 0 -185 22t-155 61.5t-125 94.5t-93.5 120.5t-61 140t-27 153.5t7.5 160q18 112 63.5 217t121 198.5t172.5 163.5t226.5 111t274.5 41q98 0 185 -22t155 -61.5t125 -94t93.5 -120.5 t61 -140.5t27 -153t-7.5 -159.5zM281 717q-7 -58 -7 -117t15.5 -116t40 -108t65.5 -94.5t92.5 -75t121 -49.5t149.5 -18q142 0 263.5 48t205 129.5t136.5 184t71 216.5q7 58 7 117t-16 115.5t-40 108t-65.5 94.5t-93 74.5t-121 49.5t-149.5 18q-143 0 -264 -47.5t-204 -129 t-136 -184t-71 -216.5zM1120 1577h-174l-166 301h201z" />
<glyph unicode="&#xd3;" horiz-adv-x="1677" d="M1606 707q-18 -113 -61.5 -217.5t-117.5 -198.5t-170 -164t-227 -111t-282 -41q-98 0 -185 22t-155 61.5t-125 94.5t-93.5 120.5t-61 140t-27 153.5t7.5 160q18 112 63.5 217t121 198.5t172.5 163.5t226.5 111t274.5 41q98 0 185 -22t155 -61.5t125 -94t93.5 -120.5 t61 -140.5t27 -153t-7.5 -159.5zM281 717q-7 -58 -7 -117t15.5 -116t40 -108t65.5 -94.5t92.5 -75t121 -49.5t149.5 -18q142 0 263.5 48t205 129.5t136.5 184t71 216.5q7 58 7 117t-16 115.5t-40 108t-65.5 94.5t-93 74.5t-121 49.5t-149.5 18q-143 0 -264 -47.5t-204 -129 t-136 -184t-71 -216.5zM1059 1577h-182l233 301h209z" />
<glyph unicode="&#xd4;" horiz-adv-x="1677" d="M1606 707q-18 -113 -61.5 -217.5t-117.5 -198.5t-170 -164t-227 -111t-282 -41q-98 0 -185 22t-155 61.5t-125 94.5t-93.5 120.5t-61 140t-27 153.5t7.5 160q18 112 63.5 217t121 198.5t172.5 163.5t226.5 111t274.5 41q98 0 185 -22t155 -61.5t125 -94t93.5 -120.5 t61 -140.5t27 -153t-7.5 -159.5zM281 717q-7 -58 -7 -117t15.5 -116t40 -108t65.5 -94.5t92.5 -75t121 -49.5t149.5 -18q142 0 263.5 48t205 129.5t136.5 184t71 216.5q7 58 7 117t-16 115.5t-40 108t-65.5 94.5t-93 74.5t-121 49.5t-149.5 18q-143 0 -264 -47.5t-204 -129 t-136 -184t-71 -216.5zM958 1878h148l223 -299h-176l-133 176l-186 -176h-193z" />
<glyph unicode="&#xd5;" horiz-adv-x="1677" d="M1606 707q-18 -113 -61.5 -217.5t-117.5 -198.5t-170 -164t-227 -111t-282 -41q-98 0 -185 22t-155 61.5t-125 94.5t-93.5 120.5t-61 140t-27 153.5t7.5 160q18 112 63.5 217t121 198.5t172.5 163.5t226.5 111t274.5 41q98 0 185 -22t155 -61.5t125 -94t93.5 -120.5 t61 -140.5t27 -153t-7.5 -159.5zM281 717q-7 -58 -7 -117t15.5 -116t40 -108t65.5 -94.5t92.5 -75t121 -49.5t149.5 -18q142 0 263.5 48t205 129.5t136.5 184t71 216.5q7 58 7 117t-16 115.5t-40 108t-65.5 94.5t-93 74.5t-121 49.5t-149.5 18q-143 0 -264 -47.5t-204 -129 t-136 -184t-71 -216.5zM1348 1780q-1 -108 -58 -162.5t-135 -54.5q-55 0 -112.5 21.5t-105.5 43t-79 21.5q-38 0 -57 -20t-17 -54h-141q1 106 57.5 161.5t133.5 55.5q54 0 112 -21.5t106.5 -43t80.5 -21.5q76 0 73 74h142z" />
<glyph unicode="&#xd6;" horiz-adv-x="1677" d="M1606 707q-18 -113 -61.5 -217.5t-117.5 -198.5t-170 -164t-227 -111t-282 -41q-98 0 -185 22t-155 61.5t-125 94.5t-93.5 120.5t-61 140t-27 153.5t7.5 160q18 112 63.5 217t121 198.5t172.5 163.5t226.5 111t274.5 41q98 0 185 -22t155 -61.5t125 -94t93.5 -120.5 t61 -140.5t27 -153t-7.5 -159.5zM281 717q-7 -58 -7 -117t15.5 -116t40 -108t65.5 -94.5t92.5 -75t121 -49.5t149.5 -18q142 0 263.5 48t205 129.5t136.5 184t71 216.5q7 58 7 117t-16 115.5t-40 108t-65.5 94.5t-93 74.5t-121 49.5t-149.5 18q-143 0 -264 -47.5t-204 -129 t-136 -184t-71 -216.5zM1321 1704q-7 -43 -42.5 -72.5t-78.5 -29.5q-49 0 -79.5 36t-22.5 86q8 42 43.5 72.5t77.5 30.5q49 0 79.5 -37.5t22.5 -85.5zM907 1704q-7 -43 -42.5 -72.5t-78.5 -29.5q-49 0 -79.5 36t-22.5 86q8 42 43.5 72.5t77.5 30.5q49 0 79.5 -37.5 t22.5 -85.5z" />
<glyph unicode="&#xd7;" horiz-adv-x="960" d="M485 616l-303 -262l-90 105l303 262l-221 260l119 104l219 -260l303 260l90 -104l-303 -260l221 -262l-118 -105z" />
<glyph unicode="&#xd8;" horiz-adv-x="1677" d="M219 -98h-168l228 256q-106 108 -150.5 258t-19.5 311q18 112 63.5 217t121 198.5t172.5 163.5t226.5 111t274.5 41q210 0 372 -102l156 176h168l-227 -256q106 -108 150.5 -258t19.5 -311q-18 -113 -61.5 -217.5t-117.5 -198.5t-170 -164t-227 -111t-282 -41 q-210 0 -373 103zM281 717q-19 -119 8.5 -233.5t101.5 -198.5l836 944q-114 65 -271 65q-143 0 -264 -47.5t-204 -129t-136 -184t-71 -216.5zM487 205q116 -66 271 -66q142 0 263.5 48t205 129.5t136.5 184t71 216.5q19 119 -8.5 233.5t-102.5 198.5z" />
<glyph unicode="&#xd9;" horiz-adv-x="1546" d="M1333 1434h172l-145 -916q-19 -120 -64.5 -213.5t-107.5 -155t-142.5 -101t-166 -56.5t-183.5 -17q-101 0 -186.5 18.5t-160 59t-120 105t-66.5 157t1 215.5l143 904h172l-143 -908q-63 -387 358 -387q433 0 498 400zM1038 1577h-174l-166 301h201z" />
<glyph unicode="&#xda;" horiz-adv-x="1546" d="M1333 1434h172l-145 -916q-19 -120 -64.5 -213.5t-107.5 -155t-142.5 -101t-166 -56.5t-183.5 -17q-101 0 -186.5 18.5t-160 59t-120 105t-66.5 157t1 215.5l143 904h172l-143 -908q-63 -387 358 -387q433 0 498 400zM977 1577h-182l233 301h209z" />
<glyph unicode="&#xdb;" horiz-adv-x="1546" d="M1333 1434h172l-145 -916q-19 -120 -64.5 -213.5t-107.5 -155t-142.5 -101t-166 -56.5t-183.5 -17q-101 0 -186.5 18.5t-160 59t-120 105t-66.5 157t1 215.5l143 904h172l-143 -908q-63 -387 358 -387q433 0 498 400zM877 1878h147l223 -299h-176l-133 176l-186 -176 h-193z" />
<glyph unicode="&#xdc;" horiz-adv-x="1546" d="M1333 1434h172l-145 -916q-19 -120 -64.5 -213.5t-107.5 -155t-142.5 -101t-166 -56.5t-183.5 -17q-101 0 -186.5 18.5t-160 59t-120 105t-66.5 157t1 215.5l143 904h172l-143 -908q-63 -387 358 -387q433 0 498 400zM1239 1704q-7 -43 -42.5 -72.5t-78.5 -29.5 q-49 0 -79.5 36t-22.5 86q8 42 43.5 72.5t77.5 30.5q49 0 79.5 -37.5t22.5 -85.5zM825 1704q-7 -43 -42 -72.5t-78 -29.5q-49 0 -80 36t-23 86q8 42 43.5 72.5t77.5 30.5q49 0 79.5 -37.5t22.5 -85.5z" />
<glyph unicode="&#xdd;" horiz-adv-x="1343" d="M662 0h-173l89 543l-422 891h180l344 -727l580 727h194l-704 -891zM872 1577h-182l234 301h209z" />
<glyph unicode="&#xde;" horiz-adv-x="1347" d="M455 1180h323q95 0 176.5 -14t155.5 -48.5t122.5 -87t70 -135.5t4.5 -188q-73 -453 -676 -453h-322l-41 -254h-172l228 1434h172zM334 418h321q98 0 174 14t142 47.5t108 96t56 151.5q11 70 -4 122t-48 83.5t-85.5 50.5t-106.5 26t-121 7h-340z" />
<glyph unicode="&#xdf;" horiz-adv-x="1216" d="M1100 291q-13 -80 -58 -142.5t-109 -99.5t-136.5 -55.5t-149.5 -18.5q-131 0 -252 52l23 141q91 -49 205 -49q78 0 142 18.5t113 66t60 118.5q8 51 -15.5 102t-62 93.5t-77.5 83.5t-63.5 86t-17.5 87q8 45 38.5 92.5t63.5 82.5t64.5 89t40.5 111q11 74 -42 120t-158 46 q-129 0 -215.5 -73t-106.5 -202l-166 -1040h-164l162 1024q33 209 161.5 320.5t328.5 113.5q101 1 178 -27.5t118.5 -74.5t59 -100t8.5 -109q-10 -59 -42.5 -116t-66.5 -93.5t-64.5 -80t-35.5 -79.5q-6 -35 19.5 -74.5t65.5 -79.5t79 -86t61 -110.5t11 -136.5z" />
<glyph unicode="&#xe0;" d="M903 168q-174 -193 -420 -193q-213 0 -331.5 151t-83.5 376q34 218 195 362t368 144q239 0 375 -195l26 170h148l-156 -983h-147zM227 492q-26 -162 57 -263.5t226 -101.5q127 0 236.5 71.5t171.5 174.5l38 245q-25 100 -108.5 169t-206.5 69q-151 0 -269 -98.5 t-145 -265.5zM821 1126h-174l-166 301h201z" />
<glyph unicode="&#xe1;" d="M903 168q-174 -193 -420 -193q-213 0 -331.5 151t-83.5 376q34 218 195 362t368 144q239 0 375 -195l26 170h148l-156 -983h-147zM227 492q-26 -162 57 -263.5t226 -101.5q127 0 236.5 71.5t171.5 174.5l38 245q-25 100 -108.5 169t-206.5 69q-151 0 -269 -98.5 t-145 -265.5zM760 1126h-182l233 301h209z" />
<glyph unicode="&#xe2;" d="M903 168q-174 -193 -420 -193q-213 0 -331.5 151t-83.5 376q34 218 195 362t368 144q239 0 375 -195l26 170h148l-156 -983h-147zM227 492q-26 -162 57 -263.5t226 -101.5q127 0 236.5 71.5t171.5 174.5l38 245q-25 100 -108.5 169t-206.5 69q-151 0 -269 -98.5 t-145 -265.5zM659 1427h148l223 -299h-176l-133 177l-186 -177h-193z" />
<glyph unicode="&#xe3;" d="M903 168q-174 -193 -420 -193q-213 0 -331.5 151t-83.5 376q34 218 195 362t368 144q239 0 375 -195l26 170h148l-156 -983h-147zM227 492q-26 -162 57 -263.5t226 -101.5q127 0 236.5 71.5t171.5 174.5l38 245q-25 100 -108.5 169t-206.5 69q-151 0 -269 -98.5 t-145 -265.5zM1049 1329q-1 -108 -58 -162.5t-135 -54.5q-55 0 -112.5 21.5t-105.5 43t-79 21.5q-38 0 -57 -20t-17 -54h-141q1 106 57.5 161.5t133.5 55.5q54 0 112 -21.5t106.5 -43t80.5 -21.5q76 0 73 74h142z" />
<glyph unicode="&#xe4;" d="M903 168q-174 -193 -420 -193q-213 0 -331.5 151t-83.5 376q34 218 195 362t368 144q239 0 375 -195l26 170h148l-156 -983h-147zM227 492q-26 -162 57 -263.5t226 -101.5q127 0 236.5 71.5t171.5 174.5l38 245q-25 100 -108.5 169t-206.5 69q-151 0 -269 -98.5 t-145 -265.5zM1022 1253q-7 -43 -42.5 -72.5t-78.5 -29.5q-49 0 -79.5 36.5t-22.5 86.5q8 42 43.5 72t77.5 30q49 0 79.5 -37.5t22.5 -85.5zM608 1253q-7 -43 -42.5 -72.5t-78.5 -29.5q-49 0 -79.5 36.5t-22.5 86.5q8 42 43.5 72t77.5 30q49 0 79.5 -37.5t22.5 -85.5z" />
<glyph unicode="&#xe5;" d="M903 168q-174 -193 -420 -193q-213 0 -331.5 151t-83.5 376q34 218 195 362t368 144q239 0 375 -195l26 170h148l-156 -983h-147zM227 492q-26 -162 57 -263.5t226 -101.5q127 0 236.5 71.5t171.5 174.5l38 245q-25 100 -108.5 169t-206.5 69q-151 0 -269 -98.5 t-145 -265.5zM963 1290q-17 -99 -93 -158t-170 -59q-98 0 -161.5 66.5t-46.5 171.5q17 96 93 154.5t171 58.5q97 0 160.5 -66t46.5 -168zM614 1298q-9 -49 18 -80.5t70 -31.5q51 0 91 29t49 83q7 48 -19.5 80.5t-68.5 32.5q-51 0 -92 -30t-48 -83z" />
<glyph unicode="&#xe6;" horiz-adv-x="2011" d="M903 168q-174 -193 -420 -193q-213 0 -331.5 151t-83.5 376q34 218 195 362t368 144q239 0 375 -195l26 170h148l-27 -162q74 92 175 139.5t214 47.5q109 0 190 -35t126 -93.5t64 -135t10.5 -161t-40.5 -169.5h-782q-3 -61 15.5 -110t53 -81.5t81.5 -54.5t97.5 -31.5 t104.5 -9.5q182 0 340 84l-26 -166q-149 -70 -346 -70q-114 0 -222 55t-155 154l-29 -184h-147zM227 492q-26 -162 57 -263.5t226 -101.5q127 0 236.5 71.5t171.5 174.5l38 245q-25 100 -108.5 169t-206.5 69q-151 0 -269 -98.5t-145 -265.5zM1524 856q-137 0 -248.5 -81 t-142.5 -218h639q8 30 9 61.5t-5 66t-24.5 64.5t-47 54.5t-75 38.5t-105.5 14z" />
<glyph unicode="&#xe7;" horiz-adv-x="1013" d="M950 764q-100 92 -264 92q-61 0 -118.5 -12t-114 -40t-101.5 -69t-78 -103.5t-45 -139.5q-14 -92 6 -163t67.5 -114.5t113 -65.5t145.5 -22q144 0 313 88l-26 -170q-135 -61 -285 -70l-39 -94q96 3 149.5 -42.5t43.5 -127.5q-13 -93 -89 -139.5t-194 -46.5 q-112 0 -215 41l23 133q80 -41 180 -41q71 0 112 17.5t46 48.5q7 45 -65 59.5t-163 -4.5l76 205q-87 14 -159 54t-124 103.5t-72.5 158t-2.5 208.5q16 104 60 189t104 142t134.5 96t151 56t154.5 17q169 0 303 -90z" />
<glyph unicode="&#xe8;" horiz-adv-x="1122" d="M68 498q15 99 56 183.5t97.5 143.5t125 101t141.5 62t145 20q109 0 192.5 -34.5t131 -93.5t70 -135.5t16 -161t-38.5 -169.5h-783q-3 -61 15.5 -110t53 -81.5t81.5 -54.5t97.5 -31.5t104.5 -9.5q193 0 351 84l-27 -166q-149 -70 -352 -70q-78 0 -153 20t-141 62.5 t-112.5 103t-66.5 148t-4 189.5zM883 557q8 30 9 61.5t-5 66t-24.5 64.5t-47 54.5t-75 38.5t-105.5 14q-137 0 -248.5 -81t-142.5 -218h639zM778 1126h-174l-166 301h201z" />
<glyph unicode="&#xe9;" horiz-adv-x="1122" d="M68 498q15 99 56 183.5t97.5 143.5t125 101t141.5 62t145 20q109 0 192.5 -34.5t131 -93.5t70 -135.5t16 -161t-38.5 -169.5h-783q-3 -61 15.5 -110t53 -81.5t81.5 -54.5t97.5 -31.5t104.5 -9.5q193 0 351 84l-27 -166q-149 -70 -352 -70q-78 0 -153 20t-141 62.5 t-112.5 103t-66.5 148t-4 189.5zM883 557q8 30 9 61.5t-5 66t-24.5 64.5t-47 54.5t-75 38.5t-105.5 14q-137 0 -248.5 -81t-142.5 -218h639zM717 1126h-182l233 301h209z" />
<glyph unicode="&#xea;" horiz-adv-x="1122" d="M68 498q15 99 56 183.5t97.5 143.5t125 101t141.5 62t145 20q109 0 192.5 -34.5t131 -93.5t70 -135.5t16 -161t-38.5 -169.5h-783q-3 -61 15.5 -110t53 -81.5t81.5 -54.5t97.5 -31.5t104.5 -9.5q193 0 351 84l-27 -166q-149 -70 -352 -70q-78 0 -153 20t-141 62.5 t-112.5 103t-66.5 148t-4 189.5zM883 557q8 30 9 61.5t-5 66t-24.5 64.5t-47 54.5t-75 38.5t-105.5 14q-137 0 -248.5 -81t-142.5 -218h639zM616 1427h148l223 -299h-176l-133 177l-186 -177h-193z" />
<glyph unicode="&#xeb;" horiz-adv-x="1122" d="M68 498q15 99 56 183.5t97.5 143.5t125 101t141.5 62t145 20q109 0 192.5 -34.5t131 -93.5t70 -135.5t16 -161t-38.5 -169.5h-783q-3 -61 15.5 -110t53 -81.5t81.5 -54.5t97.5 -31.5t104.5 -9.5q193 0 351 84l-27 -166q-149 -70 -352 -70q-78 0 -153 20t-141 62.5 t-112.5 103t-66.5 148t-4 189.5zM883 557q8 30 9 61.5t-5 66t-24.5 64.5t-47 54.5t-75 38.5t-105.5 14q-137 0 -248.5 -81t-142.5 -218h639zM979 1253q-7 -43 -42.5 -72.5t-78.5 -29.5q-49 0 -79.5 36.5t-22.5 86.5q8 42 43.5 72t77.5 30q49 0 79.5 -37.5t22.5 -85.5z M565 1253q-7 -43 -42.5 -72.5t-78.5 -29.5q-49 0 -79.5 36.5t-22.5 86.5q8 42 43.5 72t77.5 30q49 0 79.5 -37.5t22.5 -85.5z" />
<glyph unicode="&#xec;" horiz-adv-x="475" d="M430 1126h-164l-114 301h200zM225 0h-164l156 983h164z" />
<glyph unicode="&#xed;" horiz-adv-x="475" d="M225 0h-164l156 983h164zM389 1126h-182l233 301h209z" />
<glyph unicode="&#xee;" horiz-adv-x="475" d="M225 0h-164l156 983h164zM205 1128h-193l277 299h147l182 -299h-176l-92 177z" />
<glyph unicode="&#xef;" horiz-adv-x="475" d="M225 0h-164l156 983h164zM268 1253q-6 -38 -38 -65t-72 -27q-44 0 -71.5 33.5t-20.5 79.5q8 38 39.5 65t70.5 27q44 0 72 -34.5t20 -78.5zM600 1253q-6 -38 -38.5 -65t-72.5 -27q-44 0 -71.5 33.5t-20.5 79.5q8 37 40 64.5t71 27.5q44 0 72 -34.5t20 -78.5z" />
<glyph unicode="&#xf0;" horiz-adv-x="1210" d="M1100 545q-43 -277 -204.5 -423.5t-391.5 -146.5q-109 0 -199 35.5t-149.5 98.5t-84.5 154.5t-8 199.5q20 128 99 231t192 159t236 56q142 0 247 -60.5t140 -154.5q1 11 2 28t2 28q-14 325 -272 456l-222 -192l-81 94l169 143q-108 27 -256 27l17 156q199 0 366 -66 l209 178l80 -94l-168 -145q63 -38 112.5 -86.5t91 -116t62.5 -149t26.5 -185.5t-15.5 -225zM223 442q-22 -142 56 -226.5t233 -84.5q152 0 251.5 81t141.5 218q20 145 -62 236.5t-233 91.5q-148 0 -256 -88.5t-131 -227.5z" />
<glyph unicode="&#xf1;" horiz-adv-x="1202" d="M334 829q79 79 180.5 129t212.5 50q179 0 272.5 -113.5t65.5 -294.5l-96 -600h-164l94 592q21 132 -39 198t-176 66q-97 0 -194.5 -59t-165.5 -142l-103 -655h-164l156 983h145zM1059 1329q-1 -108 -58 -162.5t-135 -54.5q-55 0 -112.5 21.5t-105.5 43t-79 21.5 q-37 0 -56 -19.5t-17 -54.5h-142q1 106 57.5 161.5t133.5 55.5q54 0 112 -21.5t106.5 -43t80.5 -21.5q77 0 74 74h141z" />
<glyph unicode="&#xf2;" horiz-adv-x="1212" d="M1112 481q-15 -97 -56.5 -180t-100.5 -142t-132 -101t-152 -62.5t-159 -20.5q-99 0 -186.5 35.5t-152.5 100t-94.5 166.5t-10.5 225q19 120 79 218.5t143 160t180.5 94.5t197.5 33t188 -35.5t153 -100t94 -166.5t9 -225zM227 481q-17 -108 17.5 -188.5t107.5 -121 t172 -40.5q158 0 279.5 101t148.5 270q17 108 -17.5 188.5t-107.5 121t-172 40.5q-158 0 -279.5 -101t-148.5 -270zM805 1126h-174l-166 301h201z" />
<glyph unicode="&#xf3;" horiz-adv-x="1212" d="M1112 481q-15 -97 -56.5 -180t-100.5 -142t-132 -101t-152 -62.5t-159 -20.5q-99 0 -186.5 35.5t-152.5 100t-94.5 166.5t-10.5 225q19 120 79 218.5t143 160t180.5 94.5t197.5 33t188 -35.5t153 -100t94 -166.5t9 -225zM227 481q-17 -108 17.5 -188.5t107.5 -121 t172 -40.5q158 0 279.5 101t148.5 270q17 108 -17.5 188.5t-107.5 121t-172 40.5q-158 0 -279.5 -101t-148.5 -270zM743 1126h-182l234 301h209z" />
<glyph unicode="&#xf4;" horiz-adv-x="1212" d="M1112 481q-15 -97 -56.5 -180t-100.5 -142t-132 -101t-152 -62.5t-159 -20.5q-99 0 -186.5 35.5t-152.5 100t-94.5 166.5t-10.5 225q19 120 79 218.5t143 160t180.5 94.5t197.5 33t188 -35.5t153 -100t94 -166.5t9 -225zM227 481q-17 -108 17.5 -188.5t107.5 -121 t172 -40.5q158 0 279.5 101t148.5 270q17 108 -17.5 188.5t-107.5 121t-172 40.5q-158 0 -279.5 -101t-148.5 -270zM643 1427h148l223 -299h-176l-133 177l-187 -177h-192z" />
<glyph unicode="&#xf5;" horiz-adv-x="1212" d="M1112 481q-15 -97 -56.5 -180t-100.5 -142t-132 -101t-152 -62.5t-159 -20.5q-99 0 -186.5 35.5t-152.5 100t-94.5 166.5t-10.5 225q19 120 79 218.5t143 160t180.5 94.5t197.5 33t188 -35.5t153 -100t94 -166.5t9 -225zM227 481q-17 -108 17.5 -188.5t107.5 -121 t172 -40.5q158 0 279.5 101t148.5 270q17 108 -17.5 188.5t-107.5 121t-172 40.5q-158 0 -279.5 -101t-148.5 -270zM1032 1329q-1 -108 -57.5 -162.5t-134.5 -54.5q-55 0 -112.5 21.5t-105.5 43t-79 21.5q-38 0 -57 -20t-17 -54h-141q1 106 57 161.5t133 55.5 q54 0 112 -21.5t106.5 -43t80.5 -21.5q77 0 74 74h141z" />
<glyph unicode="&#xf6;" horiz-adv-x="1212" d="M1112 481q-15 -97 -56.5 -180t-100.5 -142t-132 -101t-152 -62.5t-159 -20.5q-99 0 -186.5 35.5t-152.5 100t-94.5 166.5t-10.5 225q19 120 79 218.5t143 160t180.5 94.5t197.5 33t188 -35.5t153 -100t94 -166.5t9 -225zM227 481q-17 -108 17.5 -188.5t107.5 -121 t172 -40.5q158 0 279.5 101t148.5 270q17 108 -17.5 188.5t-107.5 121t-172 40.5q-158 0 -279.5 -101t-148.5 -270zM1006 1253q-7 -43 -42.5 -72.5t-78.5 -29.5q-49 0 -80 36.5t-23 86.5q8 42 43.5 72t77.5 30q49 0 80 -37.5t23 -85.5zM592 1253q-7 -43 -42.5 -72.5 t-78.5 -29.5q-49 0 -79.5 36.5t-22.5 86.5q8 42 43 72t77 30q49 0 80 -37.5t23 -85.5z" />
<glyph unicode="&#xf7;" horiz-adv-x="1255" d="M1126 639h-983l25 156h983zM678 248q-7 -47 -38 -70.5t-75 -23.5q-48 0 -76.5 30.5t-19.5 83.5q7 47 38.5 69.5t74.5 22.5q50 0 77.5 -29.5t18.5 -82.5zM823 1163q-7 -47 -37.5 -70.5t-74.5 -23.5q-48 0 -77 31t-20 84q7 47 38.5 69.5t74.5 22.5q49 0 77 -30t19 -83z" />
<glyph unicode="&#xf8;" horiz-adv-x="1212" d="M1174 1112l-183 -221q162 -152 121 -410q-15 -97 -56.5 -180t-100.5 -142t-132 -101t-152 -62.5t-159 -20.5q-125 0 -231 56l-125 -154h-148l180 219q-75 69 -108 172.5t-12 233.5q19 120 79 218.5t143 160t180.5 94.5t197.5 33q121 0 229 -54l129 158h148zM655 852 q-158 0 -279.5 -101t-148.5 -270q-26 -163 64 -260l502 606q-64 25 -138 25zM524 131q158 0 279.5 101t148.5 270q26 168 -65 262l-502 -608q64 -25 139 -25z" />
<glyph unicode="&#xf9;" horiz-adv-x="1198" d="M946 983h164l-156 -983h-145l25 154q-65 -77 -167 -128t-210 -51q-186 0 -284 114.5t-69 297.5l95 596h163l-94 -592q-21 -134 36.5 -199t178.5 -65q109 0 200.5 56t158.5 145zM788 1126h-174l-165 301h200z" />
<glyph unicode="&#xfa;" horiz-adv-x="1198" d="M946 983h164l-156 -983h-145l25 154q-65 -77 -167 -128t-210 -51q-186 0 -284 114.5t-69 297.5l95 596h163l-94 -592q-21 -134 36.5 -199t178.5 -65q109 0 200.5 56t158.5 145zM727 1126h-182l233 301h209z" />
<glyph unicode="&#xfb;" horiz-adv-x="1198" d="M946 983h164l-156 -983h-145l25 154q-65 -77 -167 -128t-210 -51q-186 0 -284 114.5t-69 297.5l95 596h163l-94 -592q-21 -134 36.5 -199t178.5 -65q109 0 200.5 56t158.5 145zM627 1427h147l223 -299h-176l-133 177l-186 -177h-193z" />
<glyph unicode="&#xfc;" horiz-adv-x="1198" d="M946 983h164l-156 -983h-145l25 154q-65 -77 -167 -128t-210 -51q-186 0 -284 114.5t-69 297.5l95 596h163l-94 -592q-21 -134 36.5 -199t178.5 -65q109 0 200.5 56t158.5 145zM989 1253q-7 -43 -42.5 -72.5t-78.5 -29.5q-49 0 -79.5 36.5t-22.5 86.5q8 42 43.5 72 t77.5 30q49 0 79.5 -37.5t22.5 -85.5zM575 1253q-7 -43 -42 -72.5t-78 -29.5q-49 0 -80 36.5t-23 86.5q8 42 43.5 72t77.5 30q49 0 79.5 -37.5t22.5 -85.5z" />
<glyph unicode="&#xfd;" horiz-adv-x="1101" d="M489 174l465 809h179l-662 -1135q-189 -323 -418 -323q-56 0 -112 16l22 137q31 -10 76 -10q84 0 156 60.5t143 183.5l53 90l-309 981h164zM670 1126h-183l234 301h209z" />
<glyph unicode="&#xfe;" horiz-adv-x="1269" d="M150 -451h-164l299 1885h164l-99 -611q167 185 404 185q213 0 331.5 -151t83.5 -376q-34 -218 -195 -362t-368 -144q-250 0 -358 197zM279 362q28 -101 111.5 -168t205.5 -67q151 0 269 99t145 266q26 162 -57 263t-226 101q-130 0 -238 -71t-172 -177z" />
<glyph unicode="&#xff;" horiz-adv-x="1101" d="M489 174l465 809h179l-662 -1135q-189 -323 -418 -323q-56 0 -112 16l22 137q31 -10 76 -10q84 0 156 60.5t143 183.5l53 90l-309 981h164zM932 1253q-7 -43 -42.5 -72.5t-78.5 -29.5q-49 0 -79.5 36.5t-22.5 86.5q8 42 43 72t77 30q49 0 80 -37.5t23 -85.5zM518 1253 q-7 -43 -42.5 -72.5t-78.5 -29.5q-49 0 -79.5 36.5t-22.5 86.5q8 42 43.5 72t77.5 30q49 0 79.5 -37.5t22.5 -85.5z" />
<glyph unicode="&#x100;" horiz-adv-x="1470" d="M1360 0h-178l-92 346h-775l-200 -346h-193l850 1434h193zM815 1198l-407 -692h639l-187 696q-9 30 -12 60q-14 -33 -33 -64zM618 1755h615l-25 -149h-614z" />
<glyph unicode="&#x101;" d="M903 168q-174 -193 -420 -193q-213 0 -331.5 151t-83.5 376q34 218 195 362t368 144q239 0 375 -195l26 170h148l-156 -983h-147zM227 492q-26 -162 57 -263.5t226 -101.5q127 0 236.5 71.5t171.5 174.5l38 245q-25 100 -108.5 169t-206.5 69q-151 0 -269 -98.5 t-145 -265.5zM424 1305h614l-24 -150h-615z" />
<glyph unicode="&#x102;" horiz-adv-x="1470" d="M1360 0h-178l-92 346h-775l-200 -346h-193l850 1434h193zM815 1198l-407 -692h639l-187 696q-9 30 -12 60q-14 -33 -33 -64zM1192 1671q-133 -86 -297 -86q-170 0 -277 86l25 160q67 -50 129 -70t139 -20q156 0 306 90z" />
<glyph unicode="&#x103;" d="M903 168q-174 -193 -420 -193q-213 0 -331.5 151t-83.5 376q34 218 195 362t368 144q239 0 375 -195l26 170h148l-156 -983h-147zM227 492q-26 -162 57 -263.5t226 -101.5q127 0 236.5 71.5t171.5 174.5l38 245q-25 100 -108.5 169t-206.5 69q-151 0 -269 -98.5 t-145 -265.5zM997 1221q-133 -86 -297 -86q-169 0 -276 86l25 159q67 -50 129 -70t139 -20q155 0 305 90z" />
<glyph unicode="&#x104;" horiz-adv-x="1470" d="M1360 0q-95 -58 -159.5 -132.5t-72.5 -133.5q-6 -34 12 -54t58 -20q53 0 111 35l-21 -139q-65 -29 -137 -29q-100 0 -146.5 54t-33.5 138q11 68 65 146t142 149l-88 332h-775l-200 -346h-193l850 1434h193zM815 1198l-407 -692h639l-187 696q-9 30 -12 60 q-14 -33 -33 -64z" />
<glyph unicode="&#x105;" d="M1180 983l-156 -983q-95 -58 -159 -132.5t-72 -133.5q-6 -35 11.5 -55.5t57.5 -20.5q56 0 113 23l-23 -136q-62 -20 -133 -20q-101 0 -149 54.5t-35 137.5q24 152 248 322l20 129q-174 -193 -420 -193q-213 0 -331.5 151t-83.5 376q34 218 195 362t368 144 q239 0 375 -195l26 170h148zM227 492q-26 -162 57 -263.5t226 -101.5q127 0 236.5 71.5t171.5 174.5l38 245q-25 100 -108.5 169t-206.5 69q-151 0 -269 -98.5t-145 -265.5z" />
<glyph unicode="&#x106;" horiz-adv-x="1323" d="M117 758q18 110 64 208.5t111 174.5t146 136.5t170.5 100t182 60t182.5 20.5q224 0 381 -98l-25 -166q-126 100 -338 100q-116 0 -229 -35.5t-212 -102.5t-170 -175.5t-93 -243.5q-20 -121 1 -223t71 -169.5t122.5 -115t153 -69t164.5 -21.5q222 0 389 107l-29 -187 q-169 -84 -407 -84q-105 0 -206.5 31.5t-190.5 94t-150.5 156.5t-87.5 219t0 282zM1073 1577h-182l233 301h209z" />
<glyph unicode="&#x107;" horiz-adv-x="1013" d="M70 508q16 104 60 189t104 142t134.5 96t151 56t154.5 17q169 0 303 -90l-27 -154q-100 92 -264 92q-61 0 -118.5 -12t-114 -40t-101.5 -69t-78 -103.5t-45 -139.5q-14 -92 6 -163t67.5 -114.5t113 -65.5t145.5 -22q144 0 313 88l-26 -170q-156 -70 -324 -70 q-82 0 -156.5 21t-136.5 63.5t-103.5 106.5t-58 149.5t0.5 192.5zM745 1126h-182l234 301h209z" />
<glyph unicode="&#x10a;" horiz-adv-x="1323" d="M117 758q18 110 64 208.5t111 174.5t146 136.5t170.5 100t182 60t182.5 20.5q224 0 381 -98l-25 -166q-126 100 -338 100q-116 0 -229 -35.5t-212 -102.5t-170 -175.5t-93 -243.5q-20 -121 1 -223t71 -169.5t122.5 -115t153 -69t164.5 -21.5q222 0 389 107l-29 -187 q-169 -84 -407 -84q-105 0 -206.5 31.5t-190.5 94t-150.5 156.5t-87.5 219t0 282zM1130 1683q-9 -54 -45 -82t-86 -28q-55 0 -87.5 35t-22.5 96q9 53 45.5 80.5t85.5 27.5q56 0 88 -35t22 -94z" />
<glyph unicode="&#x10b;" horiz-adv-x="1013" d="M70 508q16 104 60 189t104 142t134.5 96t151 56t154.5 17q169 0 303 -90l-27 -154q-100 92 -264 92q-61 0 -118.5 -12t-114 -40t-101.5 -69t-78 -103.5t-45 -139.5q-14 -92 6 -163t67.5 -114.5t113 -65.5t145.5 -22q144 0 313 88l-26 -170q-156 -70 -324 -70 q-82 0 -156.5 21t-136.5 63.5t-103.5 106.5t-58 149.5t0.5 192.5zM803 1233q-9 -55 -45 -83t-86 -28q-55 0 -88 35.5t-23 95.5q9 53 45.5 81t85.5 28q56 0 88.5 -35t22.5 -94z" />
<glyph unicode="&#x10c;" horiz-adv-x="1323" d="M117 758q18 110 64 208.5t111 174.5t146 136.5t170.5 100t182 60t182.5 20.5q224 0 381 -98l-25 -166q-126 100 -338 100q-116 0 -229 -35.5t-212 -102.5t-170 -175.5t-93 -243.5q-20 -121 1 -223t71 -169.5t122.5 -115t153 -69t164.5 -21.5q222 0 389 107l-29 -187 q-169 -84 -407 -84q-105 0 -206.5 31.5t-190.5 94t-150.5 156.5t-87.5 219t0 282zM1386 1858l-317 -299h-147l-224 299h181l129 -177l182 177h196z" />
<glyph unicode="&#x10d;" horiz-adv-x="1013" d="M70 508q16 104 60 189t104 142t134.5 96t151 56t154.5 17q169 0 303 -90l-27 -154q-100 92 -264 92q-61 0 -118.5 -12t-114 -40t-101.5 -69t-78 -103.5t-45 -139.5q-14 -92 6 -163t67.5 -114.5t113 -65.5t145.5 -22q144 0 313 88l-26 -170q-156 -70 -324 -70 q-82 0 -156.5 21t-136.5 63.5t-103.5 106.5t-58 149.5t0.5 192.5zM1059 1407l-318 -299h-147l-223 299h180l129 -176l182 176h197z" />
<glyph unicode="&#x10e;" horiz-adv-x="1513" d="M324 1434h467q178 0 314.5 -55t216.5 -152t110.5 -230t5.5 -290t-90.5 -284t-171 -222.5t-260 -148t-345.5 -52.5h-475zM1266 727q42 259 -83 401t-411 142h-303l-174 -1106h295q286 0 460 149t216 414zM1206 1858l-317 -299h-148l-223 299h180l129 -177l183 177h196z " />
<glyph unicode="&#x10f;" horiz-adv-x="1269" d="M1403 1434h164l-117 -377h-143zM1087 1434h164l-227 -1434h-145l26 174q-163 -199 -422 -199q-213 0 -331.5 151t-83.5 376q34 219 190.5 362.5t362.5 143.5q134 0 226.5 -53t141.5 -132zM958 618q-26 102 -110 170t-207 68q-151 0 -269 -98.5t-145 -265.5 q-26 -162 57 -263.5t226 -101.5q127 0 236.5 71.5t171.5 174.5z" />
<glyph unicode="&#x110;" horiz-adv-x="1521" d="M332 1434h467q178 0 314.5 -55t216.5 -152t110.5 -230t5.5 -290t-90.5 -284t-170.5 -222.5t-259.5 -148t-345.5 -52.5h-476l101 637h-166l24 156h166zM598 164q286 0 460 149t216 414q42 259 -83 401t-411 142h-303l-76 -477h435l-25 -156h-434l-74 -473h295z" />
<glyph unicode="&#x111;" horiz-adv-x="1269" d="M1225 1272h123l-19 -123h-123l-182 -1149h-145l26 174q-163 -199 -422 -199q-213 0 -331.5 151t-83.5 376q34 219 190.5 362.5t362.5 143.5q134 0 226.5 -53t141.5 -132l53 326h-364l18 123h365l26 162h164zM510 127q127 0 236.5 71.5t171.5 174.5l40 245 q-26 102 -110 170t-207 68q-151 0 -269 -98.5t-145 -265.5q-26 -162 57 -263.5t226 -101.5z" />
<glyph unicode="&#x112;" horiz-adv-x="1271" d="M324 1434h966l-26 -164h-795l-74 -465h733l-24 -164h-733l-76 -477h807l-27 -164h-979zM561 1755h615l-25 -149h-614z" />
<glyph unicode="&#x113;" horiz-adv-x="1122" d="M68 498q15 99 56 183.5t97.5 143.5t125 101t141.5 62t145 20q109 0 192.5 -34.5t131 -93.5t70 -135.5t16 -161t-38.5 -169.5h-783q-3 -61 15.5 -110t53 -81.5t81.5 -54.5t97.5 -31.5t104.5 -9.5q193 0 351 84l-27 -166q-149 -70 -352 -70q-78 0 -153 20t-141 62.5 t-112.5 103t-66.5 148t-4 189.5zM883 557q8 30 9 61.5t-5 66t-24.5 64.5t-47 54.5t-75 38.5t-105.5 14q-137 0 -248.5 -81t-142.5 -218h639zM381 1305h614l-24 -150h-615z" />
<glyph unicode="&#x116;" horiz-adv-x="1271" d="M324 1434h966l-26 -164h-795l-74 -465h733l-24 -164h-733l-76 -477h807l-27 -164h-979zM954 1683q-9 -54 -45 -82t-86 -28q-55 0 -87.5 35t-22.5 96q9 53 45.5 80.5t85.5 27.5q56 0 88 -35t22 -94z" />
<glyph unicode="&#x117;" horiz-adv-x="1122" d="M68 498q15 99 56 183.5t97.5 143.5t125 101t141.5 62t145 20q109 0 192.5 -34.5t131 -93.5t70 -135.5t16 -161t-38.5 -169.5h-783q-3 -61 15.5 -110t53 -81.5t81.5 -54.5t97.5 -31.5t104.5 -9.5q193 0 351 84l-27 -166q-149 -70 -352 -70q-78 0 -153 20t-141 62.5 t-112.5 103t-66.5 148t-4 189.5zM883 557q8 30 9 61.5t-5 66t-24.5 64.5t-47 54.5t-75 38.5t-105.5 14q-137 0 -248.5 -81t-142.5 -218h639zM774 1233q-9 -55 -45 -83t-86 -28q-55 0 -88 35.5t-23 95.5q9 53 46 81t86 28q56 0 88 -35t22 -94z" />
<glyph unicode="&#x118;" horiz-adv-x="1271" d="M1022 -322l-25 -137q-50 -18 -131 -18q-100 0 -146.5 54t-33.5 138q11 70 66.5 147t146.5 138h-803l228 1434h966l-26 -164h-795l-74 -465h733l-24 -164h-733l-76 -477h807l-27 -164q-96 -61 -160 -132.5t-71 -129.5q-6 -35 11.5 -58.5t57.5 -23.5q54 0 109 22z" />
<glyph unicode="&#x119;" horiz-adv-x="1122" d="M803 -432q-71 -43 -166 -43q-100 -1 -146.5 52.5t-33.5 137.5q9 62 56 132.5t124 134.5q-54 -7 -92 -7q-78 0 -153 20t-141 62.5t-112.5 103t-66.5 148t-4 189.5q15 99 56 183.5t97.5 143.5t125 101t141.5 62t145 20q109 0 192.5 -34.5t131 -93.5t70 -135.5t16 -161 t-38.5 -169.5h-783q-3 -61 15.5 -110t53 -81.5t81.5 -54.5t97.5 -31.5t104.5 -9.5q193 0 351 84l-27 -166q-263 -186 -283 -313q-5 -34 12.5 -54.5t57.5 -19.5q75 3 141 51zM635 856q-137 0 -248.5 -81t-142.5 -218h639q8 30 9 61.5t-5 66t-24.5 64.5t-47 54.5t-75 38.5 t-105.5 14z" />
<glyph unicode="&#x11a;" horiz-adv-x="1271" d="M324 1434h966l-26 -164h-795l-74 -465h733l-24 -164h-733l-76 -477h807l-27 -164h-979zM1210 1858l-317 -299h-148l-223 299h180l129 -177l183 177h196z" />
<glyph unicode="&#x11b;" horiz-adv-x="1122" d="M68 498q15 99 56 183.5t97.5 143.5t125 101t141.5 62t145 20q109 0 192.5 -34.5t131 -93.5t70 -135.5t16 -161t-38.5 -169.5h-783q-3 -61 15.5 -110t53 -81.5t81.5 -54.5t97.5 -31.5t104.5 -9.5q193 0 351 84l-27 -166q-149 -70 -352 -70q-78 0 -153 20t-141 62.5 t-112.5 103t-66.5 148t-4 189.5zM883 557q8 30 9 61.5t-5 66t-24.5 64.5t-47 54.5t-75 38.5t-105.5 14q-137 0 -248.5 -81t-142.5 -218h639zM1030 1407l-317 -299h-148l-223 299h180l129 -176l183 176h196z" />
<glyph unicode="&#x11e;" horiz-adv-x="1447" d="M113 748q23 142 86.5 261t151 200.5t195 138.5t218 83.5t219.5 26.5q236 0 418 -98l-25 -164q-137 98 -379 98q-92 0 -181 -18.5t-177.5 -62t-159.5 -107.5t-123 -161.5t-71 -217.5q-20 -124 1.5 -225t72 -167.5t124 -111.5t154 -64.5t166.5 -19.5q155 0 280 56l91 567 h176l-109 -692q-223 -95 -461 -95q-110 0 -214.5 27.5t-198.5 88.5t-159 149t-92.5 219t-2.5 289zM1270 1671q-133 -86 -297 -86q-170 0 -277 86l25 160q67 -50 129 -70t139 -20q155 0 305 90z" />
<glyph unicode="&#x11f;" horiz-adv-x="1271" d="M1026 -6q-19 -122 -75.5 -215t-137.5 -147t-175 -80.5t-198 -26.5q-252 0 -407 102l24 156q144 -107 371 -107q82 0 153 19t129.5 58t98.5 103.5t53 149.5l23 139q-166 -170 -402 -170q-213 0 -331.5 151t-83.5 376q34 218 195 362t368 144q246 0 370 -203l29 178h152z M227 492q-26 -162 57 -263.5t226 -101.5q127 0 236.5 67t171.5 164l43 263q-28 101 -112 168t-208 67q-151 0 -269 -98.5t-145 -265.5zM967 1221q-133 -86 -297 -86q-170 0 -277 86l25 159q67 -50 129 -70t139 -20q155 0 305 90z" />
<glyph unicode="&#x120;" horiz-adv-x="1447" d="M113 748q23 142 86.5 261t151 200.5t195 138.5t218 83.5t219.5 26.5q236 0 418 -98l-25 -164q-137 98 -379 98q-92 0 -181 -18.5t-177.5 -62t-159.5 -107.5t-123 -161.5t-71 -217.5q-20 -124 1.5 -225t72 -167.5t124 -111.5t154 -64.5t166.5 -19.5q155 0 280 56l91 567 h176l-109 -692q-223 -95 -461 -95q-110 0 -214.5 27.5t-198.5 88.5t-159 149t-92.5 219t-2.5 289zM1090 1683q-9 -54 -45.5 -82t-86.5 -28q-55 0 -87.5 35t-22.5 96q9 53 45.5 80.5t85.5 27.5q56 0 88.5 -35t22.5 -94z" />
<glyph unicode="&#x121;" horiz-adv-x="1271" d="M1026 -6q-19 -122 -75.5 -215t-137.5 -147t-175 -80.5t-198 -26.5q-252 0 -407 102l24 156q144 -107 371 -107q82 0 153 19t129.5 58t98.5 103.5t53 149.5l23 139q-166 -170 -402 -170q-213 0 -331.5 151t-83.5 376q34 218 195 362t368 144q246 0 370 -203l29 178h152z M227 492q-26 -162 57 -263.5t226 -101.5q127 0 236.5 67t171.5 164l43 263q-28 101 -112 168t-208 67q-151 0 -269 -98.5t-145 -265.5zM786 1233q-9 -55 -45 -83t-86 -28q-55 0 -87.5 35t-22.5 96q9 53 45.5 81t85.5 28q56 0 88 -35t22 -94z" />
<glyph unicode="&#x122;" horiz-adv-x="1447" d="M113 748q23 142 86.5 261t151 200.5t195 138.5t218 83.5t219.5 26.5q236 0 418 -98l-25 -164q-137 98 -379 98q-92 0 -181 -18.5t-177.5 -62t-159.5 -107.5t-123 -161.5t-71 -217.5q-20 -124 1.5 -225t72 -167.5t124 -111.5t154 -64.5t166.5 -19.5q155 0 280 56l91 567 h176l-109 -692q-223 -95 -461 -95q-110 0 -214.5 27.5t-198.5 88.5t-159 149t-92.5 219t-2.5 289zM711 -494h-144l113 390h164z" />
<glyph unicode="&#x123;" horiz-adv-x="1271" d="M735 1118h-164l121 336h144zM1026 -6q-19 -122 -75.5 -215t-137.5 -147t-175 -80.5t-198 -26.5q-252 0 -407 102l24 156q144 -107 371 -107q82 0 153 19t129.5 58t98.5 103.5t53 149.5l23 139q-166 -170 -402 -170q-213 0 -331.5 151t-83.5 376q34 218 195 362t368 144 q246 0 370 -203l29 178h152zM227 492q-26 -162 57 -263.5t226 -101.5q127 0 236.5 67t171.5 164l43 263q-28 101 -112 168t-208 67q-151 0 -269 -98.5t-145 -265.5z" />
<glyph unicode="&#x126;" horiz-adv-x="1585" d="M272 0h-172l164 1028h-151l22 143h152l41 263h172l-41 -263h850l41 263h172l-41 -263h151l-22 -143h-152l-164 -1028h-172l101 637h-850zM436 1028l-37 -227h850l37 227h-850z" />
<glyph unicode="&#x127;" horiz-adv-x="1200" d="M352 848q76 71 173.5 115.5t197.5 44.5q181 0 274.5 -113.5t65.5 -294.5l-94 -600h-166l94 592q21 132 -39 198t-176 66q-98 0 -195 -59.5t-165 -143.5l-103 -653h-164l183 1149h-121l18 123h121l27 162h163l-26 -162h364l-18 -123h-365z" />
<glyph unicode="&#x12a;" horiz-adv-x="552" d="M324 1434h172l-228 -1434h-172zM164 1755h614l-24 -149h-615z" />
<glyph unicode="&#x12b;" horiz-adv-x="475" d="M555 1176h-451l25 153h451zM225 0h-164l156 983h164z" />
<glyph unicode="&#x12e;" horiz-adv-x="552" d="M268 0q-166 -157 -180 -264q-6 -35 12 -58t58 -22q69 3 141 49l-23 -139q-67 -41 -165 -41q-95 0 -144 54.5t-37 135.5q22 141 168 297l226 1422h172z" />
<glyph unicode="&#x12f;" horiz-adv-x="477" d="M244 1307q7 45 39.5 69.5t76.5 24.5q48 0 76 -31.5t21 -83.5q-9 -47 -40 -70.5t-75 -23.5q-48 0 -76.5 31t-21.5 84zM383 983l-156 -983q-158 -158 -174 -258q-6 -36 12.5 -60t57.5 -24q63 0 125 39l-23 -141q-63 -31 -147 -31q-98 0 -144 61t-34 140q11 69 57.5 145.5 t108.5 140.5l153 971h164z" />
<glyph unicode="&#x130;" horiz-adv-x="552" d="M324 1434h172l-228 -1434h-172zM557 1683q-9 -54 -45 -82t-86 -28q-55 0 -88 35.5t-23 95.5q9 53 45.5 80.5t85.5 27.5q56 0 88.5 -35t22.5 -94z" />
<glyph unicode="&#x131;" horiz-adv-x="475" d="M225 0h-164l156 983h164z" />
<glyph unicode="&#x132;" horiz-adv-x="1599" d="M324 1434h172l-228 -1434h-172zM963 1434h593l-159 -1014q-19 -117 -68 -204t-121.5 -137.5t-158 -74.5t-185.5 -24q-229 0 -358 90l26 168q121 -95 310 -95q76 0 137 14.5t113.5 47.5t87 91.5t47.5 141.5l131 832h-422z" />
<glyph unicode="&#x133;" horiz-adv-x="952" d="M225 0h-164l156 983h164zM455 1286q-9 -47 -40 -70.5t-75 -23.5q-48 0 -76.5 31t-21.5 84q7 45 39.5 69.5t76.5 24.5q48 0 76 -31.5t21 -83.5zM672 -188q-13 -79 -46 -137.5t-79.5 -89.5t-94.5 -45.5t-100 -14.5q-86 0 -157 33l22 143q48 -25 107 -25q163 0 190 172 l180 1135h164zM932 1286q-9 -47 -40 -70.5t-75 -23.5q-48 0 -76.5 31t-21.5 84q7 45 40 69.5t77 24.5q47 0 75 -31.5t21 -83.5z" />
<glyph unicode="&#x136;" horiz-adv-x="1355" d="M1247 1434h197l-590 -705l403 -729h-182l-366 649h-338l-103 -649h-172l228 1434h172l-99 -621h326zM598 -473h-143l112 389h164z" />
<glyph unicode="&#x137;" horiz-adv-x="1060" d="M883 983h194l-448 -479l329 -504h-184l-289 442h-196l-70 -442h-164l228 1434h163l-133 -840h207zM446 -473h-143l113 389h164z" />
<glyph unicode="&#x139;" horiz-adv-x="1179" d="M324 1434h172l-201 -1270h795l-27 -164h-967zM526 1577h-182l234 301h208z" />
<glyph unicode="&#x13a;" horiz-adv-x="475" d="M299 1495h164l-238 -1495h-164zM483 1577h-182l234 301h208z" />
<glyph unicode="&#x13b;" horiz-adv-x="1179" d="M324 1434h172l-201 -1270h795l-27 -164h-967zM557 -473h-143l112 389h164z" />
<glyph unicode="&#x13c;" horiz-adv-x="475" d="M299 1495h164l-238 -1495h-164zM84 -473h-143l112 389h164z" />
<glyph unicode="&#x13d;" horiz-adv-x="1181" d="M895 1434h164l-117 -377h-143zM324 1434h172l-201 -1270h795l-27 -164h-967z" />
<glyph unicode="&#x13e;" horiz-adv-x="477" d="M616 1495h164l-116 -377h-144zM299 1495h164l-238 -1495h-164z" />
<glyph unicode="&#x13f;" horiz-adv-x="1187" d="M866 707q-7 -47 -38 -71t-74 -24q-48 0 -78 31t-21 84q7 47 39.5 70.5t75.5 23.5q48 0 76.5 -30.5t19.5 -83.5zM324 1434h172l-201 -1270h795l-27 -164h-967z" />
<glyph unicode="&#x140;" horiz-adv-x="647" d="M299 1495h164l-238 -1495h-164zM686 707q-7 -47 -38.5 -71t-74.5 -24q-48 0 -77.5 31t-20.5 84q7 47 39.5 70.5t75.5 23.5q48 0 76.5 -30.5t19.5 -83.5z" />
<glyph unicode="&#x141;" horiz-adv-x="1189" d="M1073 0h-967l89 553l-175 -68l23 144l174 67l117 738h172l-107 -672l459 180l-22 -143l-459 -181l-72 -454h795z" />
<glyph unicode="&#x142;" horiz-adv-x="602" d="M362 1495h164l-100 -625l184 72l-22 -143l-185 -74l-114 -725h-164l104 662l-182 -72l23 143l184 74z" />
<glyph unicode="&#x143;" horiz-adv-x="1574" d="M268 0h-172l228 1434h145l696 -1160q1 6 19 144l162 1016h172l-228 -1434h-145l-696 1161q-2 -23 -19 -143zM1012 1577h-183l234 301h209z" />
<glyph unicode="&#x144;" horiz-adv-x="1202" d="M334 829q79 79 180.5 129t212.5 50q179 0 272.5 -113.5t65.5 -294.5l-96 -600h-164l94 592q21 132 -39 198t-176 66q-97 0 -194.5 -59t-165.5 -142l-103 -655h-164l156 983h145zM770 1126h-182l233 301h209z" />
<glyph unicode="&#x145;" horiz-adv-x="1574" d="M268 0h-172l228 1434h145l696 -1160q1 6 19 144l162 1016h172l-228 -1434h-145l-696 1161q-2 -23 -19 -143zM674 -473h-144l113 389h164z" />
<glyph unicode="&#x146;" horiz-adv-x="1202" d="M334 829q79 79 180.5 129t212.5 50q179 0 272.5 -113.5t65.5 -294.5l-96 -600h-164l94 592q21 132 -39 198t-176 66q-97 0 -194.5 -59t-165.5 -142l-103 -655h-164l156 983h145zM479 -473h-143l113 389h163z" />
<glyph unicode="&#x147;" horiz-adv-x="1574" d="M268 0h-172l228 1434h145l696 -1160q1 6 19 144l162 1016h172l-228 -1434h-145l-696 1161q-2 -23 -19 -143zM1325 1858l-317 -299h-148l-223 299h180l129 -177l182 177h197z" />
<glyph unicode="&#x148;" horiz-adv-x="1202" d="M334 829q79 79 180.5 129t212.5 50q179 0 272.5 -113.5t65.5 -294.5l-96 -600h-164l94 592q21 132 -39 198t-176 66q-97 0 -194.5 -59t-165.5 -142l-103 -655h-164l156 983h145zM1083 1407l-317 -299h-148l-223 299h180l130 -176l182 176h196z" />
<glyph unicode="&#x14a;" horiz-adv-x="1574" d="M1264 -172q-25 -153 -115 -228t-217 -75q-79 0 -158 26l25 156q46 -18 102 -18q78 0 129.5 42t65.5 130l28 172l-675 1128q-2 -23 -19 -143l-162 -1018h-172l228 1434h145l696 -1160q1 6 19 144l162 1016h172z" />
<glyph unicode="&#x14b;" horiz-adv-x="1202" d="M940 -188q-11 -68 -36 -120t-56 -83t-72 -50.5t-78.5 -26.5t-79.5 -7q-86 0 -157 31l22 145q52 -25 119 -25q150 0 178 172l119 744q21 132 -39 198t-176 66q-97 0 -194.5 -59t-165.5 -142l-103 -655h-164l156 983h145l-24 -154q79 79 180.5 129t212.5 50 q180 0 273.5 -114t64.5 -294z" />
<glyph unicode="&#x14c;" horiz-adv-x="1677" d="M1606 707q-18 -113 -61.5 -217.5t-117.5 -198.5t-170 -164t-227 -111t-282 -41q-98 0 -185 22t-155 61.5t-125 94.5t-93.5 120.5t-61 140t-27 153.5t7.5 160q18 112 63.5 217t121 198.5t172.5 163.5t226.5 111t274.5 41q98 0 185 -22t155 -61.5t125 -94t93.5 -120.5 t61 -140.5t27 -153t-7.5 -159.5zM281 717q-7 -58 -7 -117t15.5 -116t40 -108t65.5 -94.5t92.5 -75t121 -49.5t149.5 -18q142 0 263.5 48t205 129.5t136.5 184t71 216.5q7 58 7 117t-16 115.5t-40 108t-65.5 94.5t-93 74.5t-121 49.5t-149.5 18q-143 0 -264 -47.5t-204 -129 t-136 -184t-71 -216.5zM723 1755h614l-24 -149h-615z" />
<glyph unicode="&#x14d;" horiz-adv-x="1212" d="M1112 481q-15 -97 -56.5 -180t-100.5 -142t-132 -101t-152 -62.5t-159 -20.5q-99 0 -186.5 35.5t-152.5 100t-94.5 166.5t-10.5 225q19 120 79 218.5t143 160t180.5 94.5t197.5 33t188 -35.5t153 -100t94 -166.5t9 -225zM227 481q-17 -108 17.5 -188.5t107.5 -121 t172 -40.5q158 0 279.5 101t148.5 270q17 108 -17.5 188.5t-107.5 121t-172 40.5q-158 0 -279.5 -101t-148.5 -270zM408 1305h614l-25 -150h-614z" />
<glyph unicode="&#x150;" horiz-adv-x="1677" d="M1606 707q-18 -113 -61.5 -217.5t-117.5 -198.5t-170 -164t-227 -111t-282 -41q-98 0 -185 22t-155 61.5t-125 94.5t-93.5 120.5t-61 140t-27 153.5t7.5 160q18 112 63.5 217t121 198.5t172.5 163.5t226.5 111t274.5 41q98 0 185 -22t155 -61.5t125 -94t93.5 -120.5 t61 -140.5t27 -153t-7.5 -159.5zM281 717q-7 -58 -7 -117t15.5 -116t40 -108t65.5 -94.5t92.5 -75t121 -49.5t149.5 -18q142 0 263.5 48t205 129.5t136.5 184t71 216.5q7 58 7 117t-16 115.5t-40 108t-65.5 94.5t-93 74.5t-121 49.5t-149.5 18q-143 0 -264 -47.5t-204 -129 t-136 -184t-71 -216.5zM1245 1597h-178l188 301h189zM928 1597h-178l188 301h188z" />
<glyph unicode="&#x151;" horiz-adv-x="1212" d="M1112 481q-15 -97 -56.5 -180t-100.5 -142t-132 -101t-152 -62.5t-159 -20.5q-99 0 -186.5 35.5t-152.5 100t-94.5 166.5t-10.5 225q19 120 79 218.5t143 160t180.5 94.5t197.5 33t188 -35.5t153 -100t94 -166.5t9 -225zM227 481q-17 -108 17.5 -188.5t107.5 -121 t172 -40.5q158 0 279.5 101t148.5 270q17 108 -17.5 188.5t-107.5 121t-172 40.5q-158 0 -279.5 -101t-148.5 -270zM930 1147h-178l188 301h188zM612 1147h-178l189 301h188z" />
<glyph unicode="&#x152;" horiz-adv-x="2099" d="M989 -2q-103 -23 -205 -23q-177 0 -318.5 67t-225 178.5t-116.5 256.5t-5 301q18 104 64.5 202.5t120.5 185.5t168 152t215.5 102.5t254.5 37.5q145 0 236 -26l940 2l-27 -164h-731l-74 -465h672l-27 -164h-671l-76 -477h745l-26 -164zM289 758q-17 -83 -10 -161t29 -147 t66.5 -126t104 -98t140.5 -64t176 -23q104 0 213 33l172 1085q-81 37 -248 37q-128 0 -241 -44.5t-194 -119t-135 -170.5t-73 -202z" />
<glyph unicode="&#x153;" horiz-adv-x="2002" d="M991 225q-81 -122 -208 -186t-271 -64q-99 0 -186.5 35.5t-152.5 100t-94.5 166.5t-10.5 225q19 120 79 218.5t143 160t180.5 94.5t197.5 33q136 0 243 -64t156 -182q77 120 196 183t250 63q109 0 192.5 -34.5t131 -93.5t70 -135.5t16 -161t-38.5 -169.5h-782 q-3 -61 15.5 -110t53 -81.5t81.5 -54.5t97.5 -31.5t104.5 -9.5q185 0 350 84l-26 -166q-156 -70 -361 -70q-146 0 -261.5 63.5t-164.5 186.5zM227 481q-17 -108 17.5 -188.5t107.5 -121t172 -40.5q158 0 279.5 101t148.5 270q17 108 -17.5 188.5t-107.5 121t-172 40.5 q-158 0 -279.5 -101t-148.5 -270zM1516 856q-137 0 -249 -81t-143 -218h639q8 30 9.5 61.5t-4.5 66t-24.5 64.5t-47 54.5t-75 38.5t-105.5 14z" />
<glyph unicode="&#x154;" horiz-adv-x="1427" d="M268 0h-172l228 1434h557q81 0 153.5 -14t138 -47.5t110 -83t64.5 -127t5 -173.5q-15 -94 -56.5 -167.5t-104 -121t-133 -76.5t-153.5 -44l389 -580h-202l-379 565h-355zM469 1270l-84 -541h393q73 0 135.5 14t119.5 44.5t95.5 87.5t51.5 135q13 76 -8.5 129t-70 80.5 t-104.5 39t-127 11.5h-401zM909 1577h-182l234 301h208z" />
<glyph unicode="&#x155;" horiz-adv-x="751" d="M334 815q149 214 450 189l-26 -168q-137 24 -257.5 -40.5t-183.5 -187.5l-96 -608h-164l156 983h147zM606 1126h-182l233 301h209z" />
<glyph unicode="&#x156;" horiz-adv-x="1427" d="M268 0h-172l228 1434h557q81 0 153.5 -14t138 -47.5t110 -83t64.5 -127t5 -173.5q-15 -94 -56.5 -167.5t-104 -121t-133 -76.5t-153.5 -44l389 -580h-202l-379 565h-355zM469 1270l-84 -541h393q73 0 135.5 14t119.5 44.5t95.5 87.5t51.5 135q13 76 -8.5 129t-70 80.5 t-104.5 39t-127 11.5h-401zM635 -473h-143l112 389h164z" />
<glyph unicode="&#x157;" horiz-adv-x="751" d="M334 815q149 214 450 189l-26 -168q-137 24 -257.5 -40.5t-183.5 -187.5l-96 -608h-164l156 983h147zM80 -473h-143l112 389h164z" />
<glyph unicode="&#x158;" horiz-adv-x="1427" d="M268 0h-172l228 1434h557q81 0 153.5 -14t138 -47.5t110 -83t64.5 -127t5 -173.5q-15 -94 -56.5 -167.5t-104 -121t-133 -76.5t-153.5 -44l389 -580h-202l-379 565h-355zM469 1270l-84 -541h393q73 0 135.5 14t119.5 44.5t95.5 87.5t51.5 135q13 76 -8.5 129t-70 80.5 t-104.5 39t-127 11.5h-401zM1223 1858l-318 -299h-147l-223 299h180l129 -177l182 177h197z" />
<glyph unicode="&#x159;" horiz-adv-x="751" d="M334 815q149 214 450 189l-26 -168q-137 24 -257.5 -40.5t-183.5 -187.5l-96 -608h-164l156 983h147zM920 1407l-318 -299h-147l-224 299h181l129 -176l182 176h197z" />
<glyph unicode="&#x15a;" horiz-adv-x="1191" d="M184 1100q14 91 66 161.5t128 112.5t164 63t183 21q119 0 230.5 -31.5t187.5 -85.5l-25 -163q-74 57 -177.5 87.5t-213.5 28.5q-335 0 -371 -209q-9 -56 12.5 -100.5t65.5 -76t102.5 -58.5t124.5 -52t132 -52t123.5 -63.5t99.5 -81t60.5 -110.5t6.5 -147 q-15 -101 -69.5 -175.5t-134.5 -115t-168.5 -59.5t-188.5 -19q-141 0 -270 33t-225 92l26 166q189 -127 467 -127q80 0 143 10t116.5 33.5t86.5 66.5t43 103q10 59 -11 106.5t-64.5 80.5t-102 61.5t-124 54.5t-131.5 53t-123.5 63t-99.5 79.5t-61.5 107.5t-7.5 142z M791 1577h-183l234 301h209z" />
<glyph unicode="&#x15b;" horiz-adv-x="954" d="M109 739q10 70 50.5 123.5t100.5 84.5t128 46t140 15q191 0 338 -86l-24 -152q-60 41 -144.5 65.5t-173.5 24.5q-64 0 -117 -13t-91 -44.5t-44 -77.5q-5 -42 26 -73t84 -51t118 -39t128 -44t113.5 -58.5t76 -89t13.5 -128.5q-12 -72 -53.5 -126t-104 -83.5t-132.5 -43.5 t-150 -14q-224 0 -366 103l24 160q67 -52 159.5 -81.5t188.5 -29.5q252 0 273 131q6 36 -17 65t-64.5 47t-95 37t-110 35.5t-109.5 43t-93 58t-60 82t-12 113.5zM602 1126h-182l233 301h209z" />
<glyph unicode="&#x15e;" horiz-adv-x="1191" d="M748 -289q-13 -93 -89 -139.5t-194 -46.5q-112 0 -215 41l22 133q80 -41 181 -41q147 0 157 66q7 45 -64.5 59.5t-162.5 -4.5l74 198q-256 15 -430 123l26 166q189 -127 467 -127q80 0 143 10t116.5 33.5t86.5 66.5t43 103q10 59 -11 106.5t-64.5 80.5t-102 61.5 t-124 54.5t-131.5 53t-123.5 63t-99.5 79.5t-61.5 107.5t-7.5 142q14 91 66 161.5t128 112.5t164 63t183 21q119 0 230.5 -31.5t187.5 -85.5l-25 -163q-74 57 -177.5 87.5t-213.5 28.5q-335 0 -371 -209q-9 -56 12.5 -100.5t65.5 -76t102.5 -58.5t124.5 -52t132 -52 t123.5 -63.5t99.5 -81t60.5 -110.5t6.5 -147q-11 -74 -44 -134t-79 -100.5t-106.5 -69.5t-124 -43.5t-133.5 -19.5l-41 -96q96 3 149.5 -42.5t43.5 -127.5z" />
<glyph unicode="&#x15f;" horiz-adv-x="954" d="M614 -289q-13 -93 -88.5 -139.5t-193.5 -46.5q-112 0 -215 41l22 133q80 -41 180 -41q71 0 112 17.5t46 48.5q7 45 -64.5 59.5t-162.5 -4.5l74 198q-177 14 -299 101l24 160q67 -52 159.5 -81.5t188.5 -29.5q252 0 273 131q6 36 -17 65t-64.5 47t-95 37t-110 35.5 t-109.5 43t-93 58t-60 82t-12 113.5q10 70 50.5 123.5t100.5 84.5t128 46t140 15q191 0 338 -86l-24 -152q-60 41 -144.5 65.5t-173.5 24.5q-64 0 -117 -13t-91 -44.5t-44 -77.5q-5 -42 26 -73t84 -51t118 -39t128 -44t113.5 -58.5t76 -89t13.5 -128.5q-11 -64 -44.5 -113.5 t-84.5 -80.5t-110.5 -48.5t-128.5 -22.5l-41 -96q95 3 148.5 -42.5t43.5 -127.5z" />
<glyph unicode="&#x160;" horiz-adv-x="1191" d="M184 1100q14 91 66 161.5t128 112.5t164 63t183 21q119 0 230.5 -31.5t187.5 -85.5l-25 -163q-74 57 -177.5 87.5t-213.5 28.5q-335 0 -371 -209q-9 -56 12.5 -100.5t65.5 -76t102.5 -58.5t124.5 -52t132 -52t123.5 -63.5t99.5 -81t60.5 -110.5t6.5 -147 q-15 -101 -69.5 -175.5t-134.5 -115t-168.5 -59.5t-188.5 -19q-141 0 -270 33t-225 92l26 166q189 -127 467 -127q80 0 143 10t116.5 33.5t86.5 66.5t43 103q10 59 -11 106.5t-64.5 80.5t-102 61.5t-124 54.5t-131.5 53t-123.5 63t-99.5 79.5t-61.5 107.5t-7.5 142z M1104 1858l-318 -299h-147l-223 299h180l129 -177l182 177h197z" />
<glyph unicode="&#x161;" horiz-adv-x="954" d="M109 739q10 70 50.5 123.5t100.5 84.5t128 46t140 15q191 0 338 -86l-24 -152q-60 41 -144.5 65.5t-173.5 24.5q-64 0 -117 -13t-91 -44.5t-44 -77.5q-5 -42 26 -73t84 -51t118 -39t128 -44t113.5 -58.5t76 -89t13.5 -128.5q-12 -72 -53.5 -126t-104 -83.5t-132.5 -43.5 t-150 -14q-224 0 -366 103l24 160q67 -52 159.5 -81.5t188.5 -29.5q252 0 273 131q6 36 -17 65t-64.5 47t-95 37t-110 35.5t-109.5 43t-93 58t-60 82t-12 113.5zM915 1407l-317 -299h-147l-224 299h181l129 -176l182 176h196z" />
<glyph unicode="&#x162;" horiz-adv-x="1234" d="M160 1434h1179l-26 -164h-504l-201 -1270h-172l201 1270h-504zM461 -473h-144l113 389h164z" />
<glyph unicode="&#x163;" horiz-adv-x="831" d="M322 1284l170 47l-56 -348h395l-24 -152h-395l-82 -514q-18 -110 24.5 -150t147.5 -40q118 0 229 57l-24 -159q-115 -50 -258 -50q-144 0 -226 85t-57 241l84 530h-184l24 152h184zM410 -473h-144l113 389h164z" />
<glyph unicode="&#x164;" horiz-adv-x="1234" d="M160 1434h1179l-26 -164h-504l-201 -1270h-172l201 1270h-504zM1157 1858l-317 -299h-148l-223 299h180l129 -177l183 177h196z" />
<glyph unicode="&#x165;" horiz-adv-x="831" d="M702 1475h164l-114 -357h-144zM322 1284l170 47l-56 -348h395l-24 -152h-395l-82 -514q-18 -110 24.5 -150t147.5 -40q118 0 229 57l-24 -159q-115 -50 -258 -50q-144 0 -226 85t-57 241l84 530h-184l24 152h184z" />
<glyph unicode="&#x166;" horiz-adv-x="1253" d="M616 0h-172l103 641h-244l23 143h243l76 486h-504l27 164h1180l-27 -164h-504l-76 -486h244l-22 -143h-244z" />
<glyph unicode="&#x167;" horiz-adv-x="831" d="M831 983l-24 -152h-395l-33 -200h323l-22 -144h-324l-26 -170q-18 -110 24.5 -150t147.5 -40q118 0 229 57l-24 -159q-115 -50 -258 -50q-144 0 -226 85t-57 241l29 186h-93l23 144h92l33 200h-184l24 152h184l48 301l170 47l-56 -348h395z" />
<glyph unicode="&#x16a;" horiz-adv-x="1546" d="M1333 1434h172l-145 -916q-19 -120 -64.5 -213.5t-107.5 -155t-142.5 -101t-166 -56.5t-183.5 -17q-101 0 -186.5 18.5t-160 59t-120 105t-66.5 157t1 215.5l143 904h172l-143 -908q-63 -387 358 -387q433 0 498 400zM641 1755h614l-24 -149h-615z" />
<glyph unicode="&#x16b;" horiz-adv-x="1198" d="M946 983h164l-156 -983h-145l25 154q-65 -77 -167 -128t-210 -51q-186 0 -284 114.5t-69 297.5l95 596h163l-94 -592q-21 -134 36.5 -199t178.5 -65q109 0 200.5 56t158.5 145zM391 1305h615l-25 -150h-614z" />
<glyph unicode="&#x16e;" horiz-adv-x="1546" d="M1333 1434h172l-145 -916q-19 -120 -64.5 -213.5t-107.5 -155t-142.5 -101t-166 -56.5t-183.5 -17q-101 0 -186.5 18.5t-160 59t-120 105t-66.5 157t1 215.5l143 904h172l-143 -908q-63 -387 358 -387q433 0 498 400zM1180 1741q-17 -99 -92.5 -158t-169.5 -59 q-98 0 -162 66t-47 171q17 96 93 154.5t171 58.5q97 0 160.5 -65.5t46.5 -167.5zM831 1749q-9 -49 18.5 -81t70.5 -32q51 0 90.5 29.5t48.5 83.5q7 48 -19.5 80.5t-68.5 32.5q-51 0 -92 -30t-48 -83z" />
<glyph unicode="&#x16f;" horiz-adv-x="1198" d="M946 983h164l-156 -983h-145l25 154q-65 -77 -167 -128t-210 -51q-186 0 -284 114.5t-69 297.5l95 596h163l-94 -592q-21 -134 36.5 -199t178.5 -65q109 0 200.5 56t158.5 145zM930 1290q-17 -99 -92.5 -158t-169.5 -59q-98 0 -162 66.5t-47 171.5q17 96 93 154.5 t171 58.5q97 0 160.5 -66t46.5 -168zM582 1298q-9 -49 18 -80.5t70 -31.5q51 0 90.5 29t48.5 83q7 48 -19.5 80.5t-68.5 32.5q-51 0 -91.5 -30t-47.5 -83z" />
<glyph unicode="&#x170;" horiz-adv-x="1546" d="M1333 1434h172l-145 -916q-19 -120 -64.5 -213.5t-107.5 -155t-142.5 -101t-166 -56.5t-183.5 -17q-101 0 -186.5 18.5t-160 59t-120 105t-66.5 157t1 215.5l143 904h172l-143 -908q-63 -387 358 -387q433 0 498 400zM1163 1597h-178l189 301h188zM846 1597h-178l188 301 h188z" />
<glyph unicode="&#x171;" horiz-adv-x="1198" d="M946 983h164l-156 -983h-145l25 154q-65 -77 -167 -128t-210 -51q-186 0 -284 114.5t-69 297.5l95 596h163l-94 -592q-21 -134 36.5 -199t178.5 -65q109 0 200.5 56t158.5 145zM913 1147h-178l189 301h188zM596 1147h-178l188 301h189z" />
<glyph unicode="&#x172;" horiz-adv-x="1546" d="M1192 539l141 895h172l-145 -916q-43 -279 -236 -422q-148 -110 -222.5 -204t-82.5 -158q-6 -35 13 -57t59 -21q79 3 139 47l-22 -137q-72 -41 -170 -41q-101 0 -149 53.5t-36 136.5q16 106 191 271q-86 -11 -148 -11q-101 0 -186.5 18.5t-160 59t-120 105t-66.5 157 t1 215.5l143 904h172l-143 -908q-63 -387 358 -387q433 0 498 400z" />
<glyph unicode="&#x173;" horiz-adv-x="1198" d="M1110 983l-156 -983q-94 -58 -158.5 -133.5t-72.5 -134.5q-6 -34 12 -54t58 -20q55 0 112 23l-22 -136q-62 -20 -133 -20q-101 0 -149.5 54.5t-35.5 137.5q24 153 250 322l19 115q-65 -77 -167 -128t-210 -51q-186 0 -284 114.5t-69 297.5l95 596h163l-94 -592 q-21 -134 36.5 -199t178.5 -65q109 0 200.5 56t158.5 145l104 655h164z" />
<glyph unicode="&#x174;" horiz-adv-x="2070" d="M1987 1434h182l-666 -1434h-196l-181 1122l-534 -1122h-205l-223 1434h174l186 -1217l580 1217h139l193 -1194zM1153 1878h147l224 -299h-176l-134 176l-186 -176h-192z" />
<glyph unicode="&#x175;" horiz-adv-x="1624" d="M1473 983h176l-488 -983h-174l-143 756l-389 -756h-179l-180 983h166l135 -778l402 778h147l150 -776zM862 1427h148l223 -299h-176l-133 177l-187 -177h-192z" />
<glyph unicode="&#x176;" horiz-adv-x="1343" d="M662 0h-173l89 543l-422 891h180l344 -727l580 727h194l-704 -891zM772 1878h148l223 -299h-176l-133 176l-187 -176h-192z" />
<glyph unicode="&#x177;" horiz-adv-x="1101" d="M489 174l465 809h179l-662 -1135q-189 -323 -418 -323q-56 0 -112 16l22 137q31 -10 76 -10q84 0 156 60.5t143 183.5l53 90l-309 981h164zM569 1427h148l223 -299h-176l-133 177l-187 -177h-192z" />
<glyph unicode="&#x178;" horiz-adv-x="1343" d="M662 0h-173l89 543l-422 891h180l344 -727l580 727h194l-704 -891zM1135 1704q-7 -43 -42.5 -72.5t-78.5 -29.5q-49 0 -80 36t-23 86q8 42 43.5 72.5t77.5 30.5q49 0 80 -37.5t23 -85.5zM721 1704q-7 -43 -42.5 -72.5t-78.5 -29.5q-49 0 -79.5 36t-22.5 86q8 42 43 72.5 t77 30.5q49 0 80 -37.5t23 -85.5z" />
<glyph unicode="&#x179;" horiz-adv-x="1200" d="M1040 0h-1063l23 156l993 1114h-794l26 164h1010l-25 -156l-993 -1114h850zM838 1577h-183l234 301h209z" />
<glyph unicode="&#x17a;" horiz-adv-x="952" d="M160 983h755l-24 -147l-690 -693h610l-23 -143h-808l22 147l692 693h-557zM629 1126h-183l234 301h209z" />
<glyph unicode="&#x17b;" horiz-adv-x="1200" d="M1040 0h-1063l23 156l993 1114h-794l26 164h1010l-25 -156l-993 -1114h850zM895 1683q-9 -54 -45 -82t-86 -28q-55 0 -88 35.5t-23 95.5q9 53 45.5 80.5t85.5 27.5q56 0 88.5 -35t22.5 -94z" />
<glyph unicode="&#x17c;" horiz-adv-x="952" d="M160 983h755l-24 -147l-690 -693h610l-23 -143h-808l22 147l692 693h-557zM686 1233q-9 -55 -45 -83t-86 -28q-55 0 -88 35.5t-23 95.5q9 53 45.5 81t85.5 28q56 0 88.5 -35t22.5 -94z" />
<glyph unicode="&#x17d;" horiz-adv-x="1200" d="M1040 0h-1063l23 156l993 1114h-794l26 164h1010l-25 -156l-993 -1114h850zM1151 1858l-317 -299h-148l-223 299h180l129 -177l182 177h197z" />
<glyph unicode="&#x17e;" horiz-adv-x="952" d="M160 983h755l-24 -147l-690 -693h610l-23 -143h-808l22 147l692 693h-557zM942 1407l-317 -299h-148l-223 299h180l129 -176l182 176h197z" />
<glyph unicode="&#x2c6;" horiz-adv-x="671" d="M514 1878h148l223 -299h-176l-134 176l-186 -176h-192z" />
<glyph unicode="&#x2da;" horiz-adv-x="456" d="M698 1741q-17 -99 -92.5 -158t-169.5 -59q-98 0 -162 66t-47 171q17 96 93.5 154.5t171.5 58.5q97 0 160 -65.5t46 -167.5zM350 1749q-9 -49 18 -81t70 -32q51 0 91 29.5t49 83.5q7 48 -20 80.5t-69 32.5q-51 0 -91.5 -30t-47.5 -83z" />
<glyph unicode="&#x2dc;" horiz-adv-x="718" d="M934 1780q-1 -108 -58 -162.5t-135 -54.5q-55 0 -112.5 21.5t-105.5 43t-79 21.5q-37 0 -56 -19.5t-17 -54.5h-142q1 106 57.5 161.5t133.5 55.5q54 0 112 -21.5t106.5 -43t80.5 -21.5q77 0 74 74h141z" />
<glyph unicode="&#x401;" d="M1159 1704q-7 -43 -42.5 -72.5t-78.5 -29.5q-49 0 -79.5 36t-22.5 86q8 42 43.5 72.5t77.5 30.5q49 0 79.5 -37.5t22.5 -85.5zM745 1704q-7 -43 -42 -72.5t-78 -29.5q-49 0 -80 36t-23 86q8 42 43.5 72.5t77.5 30.5q49 0 79.5 -37.5t22.5 -85.5zM324 1434h966l-26 -164 h-795l-74 -465h733l-24 -164h-733l-76 -477h807l-27 -164h-979z" />
<glyph unicode="&#x410;" horiz-adv-x="1470" d="M1360 0h-178l-92 346h-775l-200 -346h-193l850 1434h193zM815 1198l-407 -692h639l-187 696q-9 30 -12 60q-14 -33 -33 -64z" />
<glyph unicode="&#x411;" horiz-adv-x="1368" d="M403 854h388q79 0 149 -11t139.5 -41.5t115 -78t66.5 -126.5t5 -181q-13 -84 -45.5 -151t-81 -111t-104 -75.5t-123 -48t-129 -23.5t-130.5 -7h-557l228 1434h993l-27 -164h-821zM295 164h385q58 0 106 5t102.5 22.5t94 46t71 79t42.5 119.5q11 66 -4 114.5t-43.5 75 t-77 41.5t-91 19t-98.5 4h-403z" />
<glyph unicode="&#x412;" horiz-adv-x="1419" d="M324 1434h583q135 0 238 -42t158 -129t36 -206q-20 -124 -97.5 -200.5t-180.5 -104.5q47 -14 88.5 -39t80.5 -67.5t56 -110.5t4 -152q-12 -78 -45 -140t-81 -102.5t-103 -69.5t-119 -43.5t-120.5 -21t-116.5 -6.5h-609zM1122 422q10 63 -6.5 108.5t-46 69.5t-77.5 38 t-86 17.5t-85 3.5h-448l-78 -495h393q50 0 89 2.5t89.5 10.5t88.5 26t74 45t60 71.5t33 102.5zM1165 1057q19 117 -57.5 165t-233.5 48h-405l-70 -447h445q128 0 215 57t106 177z" />
<glyph unicode="&#x413;" horiz-adv-x="1169" d="M268 0h-172l228 1434h942l-27 -164h-770z" />
<glyph unicode="&#x414;" horiz-adv-x="1576" d="M57 -338h-163l79 502h181q160 239 269 575t163 695h876l-200 -1270h180l-80 -502h-164l53 338h-1140zM731 1270q-151 -738 -391 -1106h750l174 1106h-533z" />
<glyph unicode="&#x415;" d="M324 1434h966l-26 -164h-795l-74 -465h733l-24 -164h-733l-76 -477h807l-27 -164h-979z" />
<glyph unicode="&#x416;" horiz-adv-x="1916" d="M1798 1434h195l-535 -699l346 -735h-178l-307 649h-264l-103 -649h-172l103 649h-246l-520 -649h-201l590 735l-309 699h182l268 -621h262l99 621h172l-99 -621h246z" />
<glyph unicode="&#x417;" horiz-adv-x="1247" d="M1118 377q-14 -88 -57.5 -158.5t-104 -115t-139 -74.5t-157.5 -42t-164 -12q-268 0 -500 93l27 168q198 -97 471 -97q79 0 149.5 13t136.5 42.5t110.5 85.5t57.5 134q10 59 -5.5 103.5t-47 71.5t-80 44t-99 23t-110.5 6h-297l27 163h270q158 0 264.5 64t124.5 180 q12 78 -29.5 130t-115 73.5t-174.5 21.5q-131 0 -244.5 -24t-238.5 -84l26 170q221 102 481 102q146 0 257.5 -44t171 -134t40.5 -211q-19 -122 -97 -204.5t-189 -116.5q50 -11 94.5 -37t82.5 -69t54.5 -112t3.5 -153z" />
<glyph unicode="&#x418;" horiz-adv-x="1574" d="M1518 1434l-228 -1434h-172l164 1030q9 63 25 129l-1041 -1159h-170l228 1434h172l-164 -1028q-9 -61 -25 -132l1041 1160h170z" />
<glyph unicode="&#x419;" horiz-adv-x="1574" d="M1518 1434l-228 -1434h-172l164 1030q9 63 25 129l-1041 -1159h-170l228 1434h172l-164 -1028q-9 -61 -25 -132l1041 1160h170zM1274 1671q-133 -86 -297 -86q-170 0 -277 86l25 160q67 -50 129 -70t139 -20q155 0 305 90z" />
<glyph unicode="&#x41a;" horiz-adv-x="1355" d="M1247 1434h197l-590 -705l403 -729h-182l-366 649h-338l-103 -649h-172l228 1434h172l-99 -621h326z" />
<glyph unicode="&#x41b;" horiz-adv-x="1529" d="M590 1434h883l-228 -1434h-172l201 1270h-547q-37 -166 -60.5 -264.5t-59.5 -238.5t-65 -223.5t-69.5 -186t-81 -161t-90.5 -114t-108.5 -79t-124.5 -23.5q-86 0 -150 24l27 168q52 -20 104 -20q45 0 87 25.5t80 78t72.5 118t68 160t62 189t59.5 219.5t56.5 236.5 t55.5 255.5z" />
<glyph unicode="&#x41c;" horiz-adv-x="1855" d="M1620 1434h178l-227 -1434h-172l180 1128l-635 -790h-110l-385 790l-181 -1128h-172l228 1434h153l432 -887z" />
<glyph unicode="&#x41d;" horiz-adv-x="1574" d="M1346 1434h172l-228 -1434h-172l101 637h-850l-101 -637h-172l228 1434h172l-101 -633h850z" />
<glyph unicode="&#x41e;" horiz-adv-x="1677" d="M1606 707q-18 -113 -61.5 -217.5t-117.5 -198.5t-170 -164t-227 -111t-282 -41q-98 0 -185 22t-155 61.5t-125 94.5t-93.5 120.5t-61 140t-27 153.5t7.5 160q18 112 63.5 217t121 198.5t172.5 163.5t226.5 111t274.5 41q98 0 185 -22t155 -61.5t125 -94t93.5 -120.5 t61 -140.5t27 -153t-7.5 -159.5zM281 717q-7 -58 -7 -117t15.5 -116t40 -108t65.5 -94.5t92.5 -75t121 -49.5t149.5 -18q142 0 263.5 48t205 129.5t136.5 184t71 216.5q7 58 7 117t-16 115.5t-40 108t-65.5 94.5t-93 74.5t-121 49.5t-149.5 18q-143 0 -264 -47.5t-204 -129 t-136 -184t-71 -216.5z" />
<glyph unicode="&#x41f;" horiz-adv-x="1550" d="M268 0h-172l228 1434h1169l-227 -1434h-172l200 1270h-825z" />
<glyph unicode="&#x420;" horiz-adv-x="1355" d="M324 1434h505q91 0 170 -14t152 -48.5t121 -87t69.5 -135.5t4.5 -188q-70 -453 -676 -453h-322l-80 -508h-172zM1176 981q11 69 -4.5 122t-49 84t-85 50t-104 26t-114.5 7h-350l-94 -598h321q98 0 174 14t142 47.5t108 96t56 151.5z" />
<glyph unicode="&#x421;" horiz-adv-x="1331" d="M117 758q18 110 64 208.5t111 174.5t146 136.5t170.5 100t182 60t182.5 20.5q224 0 381 -98l-25 -166q-126 100 -338 100q-116 0 -229 -35.5t-212 -102.5t-170 -175.5t-93 -243.5q-20 -121 1 -223t71 -169.5t122.5 -115t153 -69t164.5 -21.5q222 0 389 107l-29 -187 q-169 -84 -407 -84q-105 0 -206.5 31.5t-190.5 94t-150.5 156.5t-87.5 219t0 282z" />
<glyph unicode="&#x422;" horiz-adv-x="1234" d="M160 1434h1179l-26 -164h-504l-201 -1270h-172l201 1270h-504z" />
<glyph unicode="&#x423;" horiz-adv-x="1288" d="M727 322q-52 -82 -106 -144t-102.5 -100t-100.5 -61.5t-97 -32.5t-94 -9q-108 0 -198 35l24 160q76 -31 154 -31q92 0 166.5 39.5t158.5 153.5l39 53l-428 1049h181l356 -891l551 891h194z" />
<glyph unicode="&#x424;" horiz-adv-x="1771" d="M864 -76h-172l29 187q-147 5 -272.5 49.5t-215.5 122.5t-132 195t-21 257q42 276 264 427.5t569 160.5l31 186h172l-31 -186q109 -4 212 -32.5t189.5 -83t148 -127.5t88.5 -172t10 -210q-44 -277 -265.5 -427.5t-574.5 -159.5zM252 725q-30 -200 99.5 -323t393.5 -136 l144 901q-282 -14 -444 -126t-193 -316zM1061 1167l-143 -901q283 14 447 126.5t196 316.5q32 197 -105 320.5t-395 137.5z" />
<glyph unicode="&#x425;" horiz-adv-x="1320" d="M123 0h-217l678 745l-408 689h191l333 -562l510 562h217l-643 -707l433 -727h-191l-356 600z" />
<glyph unicode="&#x426;" horiz-adv-x="1611" d="M1395 -338h-162l53 338h-1190l228 1434h172l-201 -1270h829l201 1270h172l-201 -1270h179z" />
<glyph unicode="&#x427;" horiz-adv-x="1398" d="M1116 0h-172l88 557q-222 -71 -422 -68q-248 3 -371.5 129.5t-86.5 364.5l71 451h172l-73 -471q-26 -164 63 -236t277 -74q176 0 397 66l112 715h172z" />
<glyph unicode="&#x428;" horiz-adv-x="2174" d="M1890 0h-1794l228 1434h172l-201 -1270h639l201 1270h172l-201 -1270h639l201 1270h172z" />
<glyph unicode="&#x429;" horiz-adv-x="2232" d="M2015 -338h-162l54 338h-1811l228 1434h172l-201 -1270h639l201 1270h172l-201 -1270h639l201 1270h172l-201 -1270h178z" />
<glyph unicode="&#x42a;" horiz-adv-x="1552" d="M784 0h-493l201 1270h-365l27 164h536l-80 -510h324q98 0 180 -14t155 -48t120.5 -86.5t67.5 -135t3 -187.5q-20 -129 -79.5 -219.5t-152.5 -140.5t-200.5 -71.5t-243.5 -21.5zM584 760l-95 -596h322q78 0 141 8t122 29.5t101.5 55.5t73 88.5t41.5 127.5q11 69 -4 121 t-47 83t-84 50t-107 26t-124 7h-340z" />
<glyph unicode="&#x42b;" horiz-adv-x="1808" d="M590 0h-494l228 1434h172l-80 -510h323q98 0 180.5 -14t155.5 -48t120 -86.5t67.5 -135t3.5 -187.5q-20 -129 -79.5 -219.5t-152.5 -140.5t-200.5 -71.5t-243.5 -21.5zM389 760l-94 -596h321q78 0 141 8t122.5 29.5t102 55.5t73 88.5t41.5 127.5q11 69 -4 121t-47.5 83 t-84.5 50t-107 26t-124 7h-340zM1524 0h-172l227 1434h172z" />
<glyph unicode="&#x42c;" horiz-adv-x="1357" d="M590 0h-494l228 1434h172l-80 -510h323q98 0 180.5 -14t155.5 -48t120 -86.5t67.5 -135t3.5 -187.5q-20 -129 -79.5 -219.5t-152.5 -140.5t-200.5 -71.5t-243.5 -21.5zM389 760l-94 -596h321q78 0 141 8t122.5 29.5t102 55.5t73 88.5t41.5 127.5q11 69 -4 121t-47.5 83 t-84.5 50t-107 26t-124 7h-340z" />
<glyph unicode="&#x42d;" horiz-adv-x="1335" d="M211 1370q187 88 410 88q89 0 175 -21t164.5 -62.5t141 -105t105 -148.5t56 -192t-5.5 -237q-23 -147 -80.5 -267t-137.5 -202.5t-181.5 -139t-211.5 -82.5t-228 -26q-110 0 -221.5 26.5t-190.5 72.5l25 162q71 -44 171.5 -70.5t200.5 -26.5q95 0 181.5 17.5t166 56.5 t142.5 96.5t110.5 142t71.5 189.5l-749 -6l26 164l746 6q7 100 -19.5 183t-76 139t-118 94.5t-143.5 55.5t-155 17q-225 0 -404 -100z" />
<glyph unicode="&#x42e;" horiz-adv-x="2238" d="M2167 707q-18 -113 -61.5 -217.5t-117.5 -198.5t-170 -164t-227 -111t-282 -41q-124 0 -231.5 35.5t-184.5 98t-131 146t-79 180.5t-21 200h-293l-101 -635h-172l228 1434h172l-101 -635h289q33 131 104 247t175 209.5t250.5 148t314.5 54.5q98 0 185 -22t155 -61.5 t125 -94t93.5 -120.5t61 -140.5t27 -153t-7.5 -159.5zM842 717q-7 -58 -7 -117t15.5 -116t40 -108t65.5 -94.5t92.5 -75t121 -49.5t149.5 -18q142 0 263.5 48t205 129.5t136.5 184t71 216.5q7 58 7 117t-15.5 115.5t-40 108t-65.5 94.5t-92.5 74.5t-121 49.5t-149.5 18 q-143 0 -264 -47.5t-204.5 -129t-136.5 -184t-71 -216.5z" />
<glyph unicode="&#x42f;" horiz-adv-x="1413" d="M160 0h-205l528 551q-161 43 -241 155t-52 283q19 118 74.5 205.5t142 139t191.5 76t233 24.5h525l-228 -1434h-172l82 524h-376zM365 969q-23 -150 68.5 -215.5t273.5 -65.5h358l92 582h-350q-118 0 -207.5 -28.5t-153.5 -97.5t-81 -175z" />
<glyph unicode="&#x430;" d="M903 168q-174 -193 -420 -193q-213 0 -331.5 151t-83.5 376q34 218 195 362t368 144q239 0 375 -195l26 170h148l-156 -983h-147zM227 492q-26 -162 57 -263.5t226 -101.5q127 0 236.5 71.5t171.5 174.5l38 245q-25 100 -108.5 169t-206.5 69q-151 0 -269 -98.5 t-145 -265.5z" />
<glyph unicode="&#x431;" horiz-adv-x="1196" d="M1090 453q-35 -224 -184 -351t-365 -127q-113 0 -204 38t-153 109.5t-86 184.5t-2 254q38 248 145.5 410.5t264.5 247.5q102 55 209 91.5t177.5 50t144 38.5t122.5 63l-29 -180q-43 -28 -107.5 -47t-124 -30t-146 -40t-166.5 -73q-190 -104 -293 -334q65 84 172.5 134 t214.5 50q86 0 167 -35.5t141.5 -97t89.5 -155.5t12 -201zM242 469q-22 -152 61.5 -245t241.5 -93q159 0 259.5 94.5t123.5 243.5q14 89 -20 163.5t-104 116.5t-159 42q-155 0 -268.5 -92.5t-134.5 -229.5z" />
<glyph unicode="&#x432;" horiz-adv-x="1122" d="M596 0h-539l156 983h514q148 0 227 -72.5t58 -203.5q-12 -72 -57 -128t-109 -83q62 -21 100.5 -83t24.5 -151q-20 -123 -113 -192.5t-262 -69.5zM289 426l-45 -283h344q98 0 155 34.5t70 115.5q5 33 -1 57t-19 38.5t-34 23t-42.5 11.5t-48.5 3h-379zM354 840l-43 -273 h355q70 0 119.5 35t60.5 109q11 73 -30.5 101t-119.5 28h-342z" />
<glyph unicode="&#x433;" horiz-adv-x="905" d="M221 0h-164l156 983h719l-25 -152h-555z" />
<glyph unicode="&#x434;" horiz-adv-x="1296" d="M78 -266h-160l66 413h137q119 166 190.5 363.5t112.5 472.5h723l-131 -836h143l-65 -413h-160l43 266h-856zM553 831q-40 -218 -102 -380t-156 -304h557l109 684h-408z" />
<glyph unicode="&#x435;" horiz-adv-x="1118" d="M68 498q15 99 56 183.5t97.5 143.5t125 101t141.5 62t145 20q109 0 192.5 -34.5t131 -93.5t70 -135.5t16 -161t-38.5 -169.5h-783q-3 -61 15.5 -110t53 -81.5t81.5 -54.5t97.5 -31.5t104.5 -9.5q193 0 351 84l-27 -166q-149 -70 -352 -70q-78 0 -153 20t-141 62.5 t-112.5 103t-66.5 148t-4 189.5zM883 557q8 30 9 61.5t-5 66t-24.5 64.5t-47 54.5t-75 38.5t-105.5 14q-137 0 -248.5 -81t-142.5 -218h639z" />
<glyph unicode="&#x436;" horiz-adv-x="1542" d="M111 0h-193l477 500l-266 483h172l234 -420h151l66 420h163l-65 -420h149l363 420h186l-430 -496l316 -487h-181l-270 412h-158l-65 -412h-164l66 412h-154z" />
<glyph unicode="&#x437;" horiz-adv-x="993" d="M850 254q-44 -276 -490 -279q-210 -3 -364 78l24 154q59 -35 148 -57.5t180 -22.5q75 0 131.5 7.5t103.5 26t74.5 51.5t34.5 81q6 42 -8 69.5t-45.5 40t-63.5 17t-75 4.5h-240l25 151h231q89 0 150 34t71 104q11 73 -62 109t-188 36q-186 0 -360 -80l25 158 q177 77 362 74q200 -3 304.5 -83t82.5 -212q-12 -85 -68 -139.5t-147 -73.5q82 -23 130 -89t34 -159z" />
<glyph unicode="&#x438;" horiz-adv-x="1206" d="M199 0h-142l156 983h164l-111 -709l711 709h141l-155 -983h-164l110 707z" />
<glyph unicode="&#x439;" horiz-adv-x="1206" d="M993 1221q-133 -86 -297 -86q-169 0 -276 86l22 147q67 -50 129.5 -70t139.5 -20q155 0 305 90zM199 0h-142l156 983h164l-111 -709l711 709h141l-155 -983h-164l110 707z" />
<glyph unicode="&#x43a;" horiz-adv-x="1067" d="M221 0h-164l156 983h164l-62 -389h207l363 389h194l-448 -479l330 -504h-185l-289 442h-196z" />
<glyph unicode="&#x43b;" horiz-adv-x="1210" d="M535 831q-22 -98 -37.5 -163.5t-36.5 -147.5t-38.5 -135.5t-40.5 -115t-46 -100.5t-52 -77.5t-60 -60t-69 -34.5t-81 -13q-82 0 -140 24l21 133q30 -18 92 -18q26 0 50 9t45.5 30t40 46t36.5 66t33 80.5t31.5 98.5t29.5 111t29 127.5t29 138.5t30 153h721l-155 -983h-164 l131 831h-399z" />
<glyph unicode="&#x43c;" horiz-adv-x="1390" d="M221 0h-164l156 983h166l285 -545l442 545h197l-156 -983h-164l119 743l-381 -469h-137l-244 467z" />
<glyph unicode="&#x43d;" horiz-adv-x="1198" d="M221 0h-164l156 983h164l-66 -416h570l65 416h164l-156 -983h-163l65 416h-569z" />
<glyph unicode="&#x43e;" horiz-adv-x="1212" d="M1112 481q-15 -97 -56.5 -180t-100.5 -142t-132 -101t-152 -62.5t-159 -20.5q-99 0 -186.5 35.5t-152.5 100t-94.5 166.5t-10.5 225q19 120 79 218.5t143 160t180.5 94.5t197.5 33t188 -35.5t153 -100t94 -166.5t9 -225zM227 481q-17 -108 17.5 -188.5t107.5 -121 t172 -40.5q158 0 279.5 101t148.5 270q17 108 -17.5 188.5t-107.5 121t-172 40.5q-158 0 -279.5 -101t-148.5 -270z" />
<glyph unicode="&#x43f;" horiz-adv-x="1198" d="M221 0h-164l156 983h897l-156 -983h-163l131 831h-570z" />
<glyph unicode="&#x440;" horiz-adv-x="1269" d="M332 809q171 199 422 199q213 0 331.5 -151t83.5 -376q-34 -218 -195 -362t-368 -144q-250 0 -358 197l-98 -623h-164l227 1434h147zM1010 492q26 162 -57 263t-226 101q-130 0 -238 -71t-172 -177l-38 -246q28 -101 111.5 -168t205.5 -67q151 0 269 99t145 266z" />
<glyph unicode="&#x441;" horiz-adv-x="1019" d="M70 508q16 104 60 189t104 142t134.5 96t151 56t154.5 17q169 0 303 -90l-27 -154q-100 92 -264 92q-61 0 -118.5 -12t-114 -40t-101.5 -69t-78 -103.5t-45 -139.5q-14 -92 6 -163t67.5 -114.5t113 -65.5t145.5 -22q144 0 313 88l-26 -170q-156 -70 -324 -70 q-82 0 -156.5 21t-136.5 63.5t-103.5 106.5t-58 149.5t0.5 192.5z" />
<glyph unicode="&#x442;" horiz-adv-x="952" d="M465 0h-164l131 831h-362l24 152h887l-25 -152h-360z" />
<glyph unicode="&#x443;" horiz-adv-x="1101" d="M489 174l465 809h179l-662 -1135q-189 -323 -418 -323q-56 0 -112 16l22 137q31 -10 76 -10q84 0 156 60.5t143 183.5l53 90l-309 981h164z" />
<glyph unicode="&#x444;" horiz-adv-x="1474" d="M651 -451h-159l67 426q-113 3 -211 42t-167 106t-101 165.5t-14 213.5q36 226 219 363t438 143l68 426h159l-67 -426q113 -3 211 -42t167.5 -106t101.5 -165.5t13 -213.5q-35 -226 -218 -363t-439 -143zM225 492q-26 -165 71 -266t286 -107l118 745 q-189 -6 -318.5 -104.5t-156.5 -267.5zM860 864l-119 -745q189 6 319 105t157 268q26 165 -70.5 265.5t-286.5 106.5z" />
<glyph unicode="&#x445;" horiz-adv-x="999" d="M121 0h-193l465 506l-284 477h184l207 -365l327 365h193l-445 -481l306 -502h-185l-225 389z" />
<glyph unicode="&#x446;" horiz-adv-x="1230" d="M1028 -266h-160l41 266h-852l156 983h164l-131 -831h538l131 831h164l-131 -831h146z" />
<glyph unicode="&#x447;" horiz-adv-x="1064" d="M821 0h-164l54 338q-128 -47 -291 -47q-112 0 -192 38t-119 120.5t-21 199.5l53 334h164l-53 -334q-18 -118 38 -162.5t185 -44.5q120 0 260 45l78 496h164z" />
<glyph unicode="&#x448;" horiz-adv-x="1673" d="M1430 0h-1373l156 983h164l-131 -831h440l131 831h164l-131 -831h440l131 831h164z" />
<glyph unicode="&#x449;" horiz-adv-x="1734" d="M1532 -266h-160l41 266h-1356l156 983h164l-131 -831h440l131 831h164l-131 -831h440l131 831h164l-131 -831h143z" />
<glyph unicode="&#x44a;" horiz-adv-x="1208" d="M678 0h-471l133 840h-268l22 143h432l-53 -344h320q162 0 247.5 -94t63.5 -236q-23 -139 -133.5 -224t-292.5 -85zM449 492l-54 -345h279q116 0 184.5 46.5t83.5 136.5q12 82 -38.5 122t-147.5 40h-307z" />
<glyph unicode="&#x44b;" horiz-adv-x="1503" d="M528 0h-471l156 983h164l-53 -344h319q162 0 247.5 -94t63.5 -236q-23 -139 -133.5 -224t-292.5 -85zM299 492l-53 -345h278q116 0 185 46.5t84 136.5q12 82 -39 122t-148 40h-307zM1260 0h-164l155 983h164z" />
<glyph unicode="&#x44c;" horiz-adv-x="1058" d="M528 0h-471l156 983h164l-53 -344h319q162 0 247.5 -94t63.5 -236q-23 -139 -133.5 -224t-292.5 -85zM299 492l-53 -345h278q116 0 185 46.5t84 136.5q12 82 -39 122t-148 40h-307z" />
<glyph unicode="&#x44d;" horiz-adv-x="1032" d="M928 467q-16 -103 -57 -186.5t-97.5 -139.5t-127.5 -94t-146.5 -55t-155.5 -17q-105 0 -184 21.5t-156 66.5l25 154q131 -90 290 -90q173 0 285 68t150 227l-510 -6l24 151l508 6q3 62 -16 111.5t-52.5 81t-79.5 52.5t-94 29.5t-100 8.5q-168 0 -319 -90l24 158 q147 84 322 84q77 0 150.5 -19.5t139 -63t111 -105t64.5 -153t2 -200.5z" />
<glyph unicode="&#x44e;" horiz-adv-x="1685" d="M1585 481q-15 -97 -56.5 -180t-100.5 -142t-132 -101t-152 -62.5t-159 -20.5q-72 0 -139 18t-124.5 55t-100 89t-66.5 124t-23 155h-245l-66 -416h-164l156 983h164l-66 -416h244q28 105 89.5 190.5t141.5 139t171 82.5t184 29q100 0 188 -35.5t153 -100t94 -166.5 t9 -225zM700 481q-17 -108 17.5 -188.5t107.5 -121t172 -40.5q158 0 279.5 101t148.5 270q17 108 -17.5 188.5t-107.5 121t-172 40.5q-158 0 -279.5 -101t-148.5 -270z" />
<glyph unicode="&#x44f;" horiz-adv-x="1103" d="M152 0h-187l340 365q-104 35 -155 115.5t-33 193.5q21 133 132.5 221t291.5 88h475l-156 -983h-164l56 344h-275zM279 653q-12 -77 41 -119t157 -42h297l55 344h-288q-110 0 -180 -49t-82 -134z" />
<glyph unicode="&#x451;" horiz-adv-x="1118" d="M979 1253q-7 -43 -42.5 -72.5t-78.5 -29.5q-49 0 -79.5 36.5t-22.5 86.5q8 42 43.5 72t77.5 30q49 0 79.5 -37.5t22.5 -85.5zM565 1253q-7 -43 -42.5 -72.5t-78.5 -29.5q-49 0 -79.5 36.5t-22.5 86.5q8 42 43.5 72t77.5 30q49 0 79.5 -37.5t22.5 -85.5zM68 498 q15 99 56 183.5t97.5 143.5t125 101t141.5 62t145 20q109 0 192.5 -34.5t131 -93.5t70 -135.5t16 -161t-38.5 -169.5h-783q-3 -61 15.5 -110t53 -81.5t81.5 -54.5t97.5 -31.5t104.5 -9.5q193 0 351 84l-27 -166q-149 -70 -352 -70q-78 0 -153 20t-141 62.5t-112.5 103 t-66.5 148t-4 189.5zM883 557q8 30 9 61.5t-5 66t-24.5 64.5t-47 54.5t-75 38.5t-105.5 14q-137 0 -248.5 -81t-142.5 -218h639z" />
<glyph unicode="&#x2000;" horiz-adv-x="987" />
<glyph unicode="&#x2001;" horiz-adv-x="1974" />
<glyph unicode="&#x2002;" horiz-adv-x="987" />
<glyph unicode="&#x2003;" horiz-adv-x="1974" />
<glyph unicode="&#x2004;" horiz-adv-x="658" />
<glyph unicode="&#x2005;" horiz-adv-x="493" />
<glyph unicode="&#x2006;" horiz-adv-x="329" />
<glyph unicode="&#x2007;" horiz-adv-x="329" />
<glyph unicode="&#x2008;" horiz-adv-x="246" />
<glyph unicode="&#x2009;" horiz-adv-x="394" />
<glyph unicode="&#x200a;" horiz-adv-x="109" />
<glyph unicode="&#x2010;" horiz-adv-x="991" d="M127 586h731l-24 -156h-732z" />
<glyph unicode="&#x2011;" horiz-adv-x="991" d="M127 586h731l-24 -156h-732z" />
<glyph unicode="&#x2012;" horiz-adv-x="991" d="M127 586h731l-24 -156h-732z" />
<glyph unicode="&#x2013;" horiz-adv-x="1173" d="M1016 430h-914l25 156h913z" />
<glyph unicode="&#x2014;" horiz-adv-x="1558" d="M1401 430h-1299l25 156h1298z" />
<glyph unicode="&#x2018;" horiz-adv-x="462" d="M328 963h-176l227 471h135z" />
<glyph unicode="&#x2019;" horiz-adv-x="452" d="M293 963h-135l186 471h176z" />
<glyph unicode="&#x201a;" horiz-adv-x="462" d="M41 -307h-135l188 471h176z" />
<glyph unicode="&#x201c;" horiz-adv-x="749" d="M614 963h-176l228 471h135zM328 963h-176l227 471h135z" />
<glyph unicode="&#x201d;" horiz-adv-x="739" d="M580 963h-136l187 471h176zM293 963h-135l186 471h176z" />
<glyph unicode="&#x201e;" horiz-adv-x="749" d="M328 -307h-135l188 471h176zM41 -307h-135l188 471h176z" />
<glyph unicode="&#x2026;" horiz-adv-x="1204" d="M1018 76q-7 -47 -39 -70.5t-76 -23.5q-47 0 -76 30.5t-20 83.5q6 44 38.5 68t74.5 24q49 0 78 -30t20 -82zM252 76q-7 -47 -38.5 -70.5t-74.5 -23.5q-48 0 -77.5 30.5t-20.5 83.5q6 45 39 68.5t76 23.5q48 0 76.5 -30t19.5 -82zM635 76q-7 -47 -38.5 -70.5t-74.5 -23.5 q-48 0 -77.5 30.5t-20.5 83.5q6 45 39 68.5t76 23.5q48 0 76.5 -30t19.5 -82z" />
<glyph unicode="&#x202f;" horiz-adv-x="394" />
<glyph unicode="&#x2039;" horiz-adv-x="626" d="M440 119h-172l-194 356l6 39l303 350h180l-325 -372z" />
<glyph unicode="&#x203a;" horiz-adv-x="624" d="M209 119h-178l323 373l-200 372h170l196 -356l-6 -39z" />
<glyph unicode="&#x205f;" horiz-adv-x="493" />
<glyph unicode="&#x20ac;" horiz-adv-x="1478" d="M1444 1153q-140 100 -352 100q-96 0 -184 -19.5t-170 -60t-149 -109.5t-110 -161h695l-23 -143h-719q-14 -58 -14 -127h712l-22 -144h-676q39 -162 169.5 -256t303.5 -94q110 0 221 26t193 75l-27 -181q-187 -84 -413 -84q-240 0 -414.5 140.5t-212.5 373.5h-189l23 144 h158q0 63 12 127h-150l23 143h166q48 129 135.5 229.5t196 161.5t227 92t240.5 31q196 0 376 -102z" />
<glyph unicode="&#x2122;" horiz-adv-x="1363" d="M768 913h-98l84 521h108l137 -275l224 275h118l-81 -521h-99l62 377l-209 -246h-56l-129 246zM406 913h-101l70 430h-174l14 91h447l-15 -91h-174z" />
<glyph unicode="&#x25fc;" horiz-adv-x="983" d="M0 983h983v-983h-983v983z" />
</font>
</defs>
</svg>
