<?xml version="1.0" standalone="no"?>
<!DOCTYPE svg PUBLIC "-//W3C//DTD SVG 1.1//EN" "http://www.w3.org/Graphics/SVG/1.1/DTD/svg11.dtd" >
<svg xmlns="http://www.w3.org/2000/svg" xmlns:xlink="http://www.w3.org/1999/xlink" version="1.1">
<metadata></metadata>
<defs>
<font id="mullerextrabold_italic" horiz-adv-x="1273" >
<font-face units-per-em="2048" ascent="1597" descent="-451" />
<missing-glyph horiz-adv-x="430" />
<glyph horiz-adv-x="0" />
<glyph horiz-adv-x="682" />
<glyph unicode=" "  horiz-adv-x="430" />
<glyph unicode="&#x09;" horiz-adv-x="430" />
<glyph unicode="&#xa0;" horiz-adv-x="430" />
<glyph unicode="!" horiz-adv-x="602" d="M453 532h-328l123 902h368zM438 150q-14 -91 -75 -136t-146 -45q-96 0 -152 58t-38 168q14 90 76 134t145 44q97 0 151.5 -57t38.5 -166z" />
<glyph unicode="&#x22;" horiz-adv-x="929" d="M852 942h-246l78 492h307zM401 942h-245l77 492h308z" />
<glyph unicode="#" horiz-adv-x="1447" d="M365 0h-332l112 287h-127l39 245h187l129 330h-160l39 246h219l113 287h331l-112 -287h201l112 287h332l-113 -287h125l-39 -246h-184l-129 -330h158l-39 -245h-217l-113 -287h-332l113 287h-201zM705 862l-130 -330h201l129 330h-200z" />
<glyph unicode="$" horiz-adv-x="1265" d="M627 -266h-267l39 243q-213 25 -395 127l55 349q193 -156 482 -156q229 0 245 98q5 34 -15 63t-58.5 51t-89.5 43.5t-107 45t-112 50t-104.5 64t-83 82.5t-49.5 109.5t-3 140.5q25 158 152.5 254t308.5 119l39 242h266l-39 -248q204 -28 336 -108l-53 -334 q-177 130 -414 127q-206 -3 -217 -82q-4 -30 17 -55.5t60 -45.5t90.5 -40t108 -43.5t112.5 -50.5t104.5 -66t83 -86t48.5 -114.5t2 -147.5q-12 -78 -45 -140.5t-79.5 -106t-109 -74t-128 -47.5t-141.5 -24z" />
<glyph unicode="%" horiz-adv-x="1916" d="M543 -123h-230l1104 1679h230zM909 1073q-18 -112 -82.5 -192t-153.5 -117t-192 -37q-80 0 -148 25.5t-117.5 73t-71.5 123t-7 169.5q27 167 147 256.5t281 89.5q78 0 146 -25.5t118 -73t72.5 -123.5t7.5 -169zM401 1073q-2 -43 21 -71.5t78 -28.5q66 0 104 42.5 t41 102.5q0 101 -98 101q-68 0 -105.5 -42.5t-40.5 -103.5zM1815 315q-28 -167 -148.5 -256.5t-280.5 -89.5q-80 0 -148.5 25.5t-118.5 73t-72 123t-7 169.5q27 167 148 257t282 90q78 0 146 -25.5t118 -73t72.5 -124t8.5 -169.5zM1307 315q-2 -43 20.5 -71.5t77.5 -28.5 q66 0 103 42t40 103q2 43 -20 72t-76 29q-68 0 -105.5 -43t-39.5 -103z" />
<glyph unicode="&#x26;" horiz-adv-x="1501" d="M1094 717h336q-10 -118 -70.5 -237.5t-159.5 -221.5l225 -258h-364l-80 90q-212 -121 -457 -121q-239 0 -374.5 117t-106.5 303q11 68 41.5 125.5t78.5 102.5t99.5 79t118.5 68q-130 164 -105 321q29 173 178 276t365 103q197 0 321 -115.5t95 -275.5q-13 -73 -51 -133.5 t-99 -108.5t-117.5 -80.5t-138.5 -70.5l177 -201q77 111 88 238zM788 1198q-82 0 -132.5 -42t-59.5 -109q-11 -70 59 -164q49 19 76 30.5t63.5 30.5t56 36t36.5 41t22 52q9 45 -21.5 85t-99.5 40zM399 395q-9 -65 38.5 -105t142.5 -40q106 0 213 49l-234 260 q-71 -33 -111.5 -70.5t-48.5 -93.5z" />
<glyph unicode="'" horiz-adv-x="481" d="M401 942h-245l77 492h308z" />
<glyph unicode="(" horiz-adv-x="675" d="M545 1661h272q-150 -231 -249.5 -456.5t-137.5 -469.5q-38 -251 -15 -510t95 -454h-256q-113 208 -159 462t-7 506q38 238 161 485t296 437z" />
<glyph unicode=")" horiz-adv-x="681" d="M207 1663h256q113 -207 159 -471.5t7 -517.5q-37 -234 -159 -471t-298 -430h-272q314 480 387 946q38 251 15 499.5t-95 444.5z" />
<glyph unicode="*" horiz-adv-x="1030" d="M571 862l-161 -254l-252 189l209 166l-242 43l156 303l206 -125v250h328l-82 -250l236 125l65 -303l-254 -43l156 -166l-285 -189z" />
<glyph unicode="+" horiz-adv-x="1118" d="M745 860h349l-47 -287h-347l-55 -348h-287l56 348h-351l48 287h348l55 348h287z" />
<glyph unicode="," horiz-adv-x="583" d="M147 -293h-286l233 594h373z" />
<glyph unicode="-" horiz-adv-x="993" d="M115 637h778l-47 -287h-778z" />
<glyph unicode="." horiz-adv-x="559" d="M420 150q-14 -91 -75 -136t-146 -45q-96 0 -152.5 58.5t-38.5 167.5q14 90 76 134t145 44q97 0 152 -57t39 -166z" />
<glyph unicode="/" horiz-adv-x="987" d="M190 -123h-256l902 1679h256z" />
<glyph unicode="0" horiz-adv-x="1445" d="M98 719q24 149 80 273.5t145 222.5t221 153t294 55q108 0 198 -27t153.5 -76t110 -117.5t67.5 -152t26.5 -179t-13.5 -197.5q-24 -149 -79.5 -273.5t-144.5 -222.5t-221 -153.5t-294 -55.5q-108 0 -198 27t-154 76.5t-110 118t-67.5 152t-27 179t13.5 197.5zM1010 698 q64 398 -191 398q-144 0 -230.5 -97t-119.5 -305q-64 -397 190 -397q145 0 231.5 96.5t119.5 304.5z" />
<glyph unicode="1" horiz-adv-x="976" d="M565 1393h277l-170 -1076h217l-51 -317h-832l51 317h246l111 701l-260 -92l53 338z" />
<glyph unicode="2" horiz-adv-x="1245" d="M236 1272q238 151 499 151q104 0 193.5 -26.5t160 -79t103 -142.5t14.5 -206q-7 -47 -22.5 -88.5t-33 -73.5t-48 -64.5t-55 -54.5t-67 -50.5t-72 -46.5t-81.5 -48q-48 -28 -112 -64l-96 -54t-66 -40t-48.5 -37.5t-17.5 -30.5h627l-51 -317h-1079l28 176q11 67 34 127.5 t52 107t70 90.5t79.5 75.5t89.5 64.5t90.5 56t91.5 51q17 9 26 14q23 13 68 36.5t62.5 33.5t48.5 28.5t44 30.5t29.5 29.5t23.5 34.5t10 38q7 50 -33.5 76.5t-115.5 26.5q-113 0 -245 -46.5t-257 -134.5z" />
<glyph unicode="3" horiz-adv-x="1226" d="M1161 1014q-36 -208 -260 -279q114 -37 175 -132t38 -245q-17 -106 -74 -183.5t-144.5 -121.5t-189 -64t-221.5 -20q-130 0 -241.5 23.5t-233.5 75.5l51 335q192 -109 412 -106q119 2 201.5 39.5t95.5 116.5q8 54 -26.5 79t-120.5 25h-267l54 317h184q190 0 205 101 q9 57 -37.5 89t-145.5 32q-94 0 -212 -37t-230 -105l57 361q99 53 219 80.5t236 27.5q108 0 199 -25t159.5 -73.5t100.5 -128.5t16 -182z" />
<glyph unicode="4" horiz-adv-x="1363" d="M866 1393h371l-137 -861h184l-47 -307h-184l-37 -225h-359l37 225h-706l47 307zM741 532l62 383l-369 -383h307z" />
<glyph unicode="5" horiz-adv-x="1218" d="M301 1393h911l-51 -316l-581 2l-43 -202q66 10 143 10q80 0 151 -16.5t131.5 -53.5t100.5 -90.5t56 -131.5t1 -173q-15 -97 -59 -174.5t-106.5 -129t-145 -85.5t-171.5 -49t-189 -15q-247 0 -443 99l51 331q72 -48 171.5 -75t197.5 -27q146 0 228.5 38.5t95.5 125.5 q10 64 -42.5 106t-183.5 43q-213 0 -399 -61z" />
<glyph unicode="6" horiz-adv-x="1347" d="M508 856q162 64 319 64q69 0 137 -19.5t127.5 -60t102.5 -96.5t61.5 -135.5t4.5 -170.5q-37 -229 -203.5 -349t-405.5 -120q-326 0 -466.5 200.5t-82.5 561.5q23 145 76 262t126 196t165.5 132.5t192 77.5t208.5 24q226 0 408 -92l-49 -313q-134 98 -314 98 q-299 0 -407 -260zM645 266q94 0 160 42t80 136q12 80 -42 124t-145 44q-114 0 -249 -69q-3 -83 11 -140t43.5 -85.5t63 -40t78.5 -11.5z" />
<glyph unicode="7" horiz-adv-x="1191" d="M174 1395h1106l-39 -256l-745 -1139h-414l706 1077h-665z" />
<glyph unicode="8" horiz-adv-x="1357" d="M1247 367q-12 -79 -55.5 -147.5t-119.5 -126t-198 -91t-276 -33.5q-145 0 -259 37.5t-180.5 100t-95.5 141.5t-16 164q14 97 84 183t172 144q-136 132 -104 308q13 72 52.5 135.5t108.5 119t181 88.5t254 33q123 0 225.5 -37t166 -97t93.5 -135.5t18 -152.5 q-14 -91 -66.5 -157.5t-150.5 -134.5q39 -26 66 -48t53 -53.5t36.5 -64t16.5 -78.5t-6 -98zM424 434q-7 -71 46 -124.5t169 -53.5q91 0 157.5 38t75.5 91q5 29 -2 52.5t-20 38.5t-42 29.5t-52.5 23t-67.5 22.5q-114 37 -166 61q-46 -51 -69 -91t-29 -87zM698 858 q107 -39 133 -49q100 108 111 199q5 50 -43 89.5t-135 39.5t-145.5 -33t-67.5 -92q-9 -54 29.5 -90.5t117.5 -63.5z" />
<glyph unicode="9" horiz-adv-x="1345" d="M119 954q26 154 114.5 261.5t214 157.5t279.5 50q326 0 466.5 -200t82.5 -561q-23 -145 -75 -262t-124 -196.5t-164 -133t-192.5 -77.5t-212.5 -24q-230 0 -414 88l49 314q65 -45 149.5 -70t170.5 -25q145 0 247.5 59t159.5 202q-143 -60 -299 -60q-76 0 -147.5 18.5 t-134 58t-106 94.5t-61.5 134.5t-3 171.5zM715 1122q-86 0 -146 -44t-73 -126q-14 -87 41 -131.5t149 -44.5q114 0 244 68q1 68 -10.5 118.5t-30.5 80.5t-48.5 48t-59 24.5t-66.5 6.5z" />
<glyph unicode=":" horiz-adv-x="606" d="M530 723q-14 -91 -75 -135.5t-146 -44.5q-96 0 -151 57.5t-37 167.5q13 90 74 134t145 44q97 0 152.5 -57.5t37.5 -165.5zM440 150q-14 -91 -75 -136t-146 -45q-96 0 -152 58t-38 168q14 90 76 134t145 44q97 0 151.5 -57t38.5 -166z" />
<glyph unicode=";" horiz-adv-x="626" d="M162 -293h-287l234 594h372zM557 770q-14 -91 -75 -135.5t-146 -44.5q-96 0 -152.5 58t-38.5 167q14 90 76 134t146 44q97 0 151.5 -57t38.5 -166z" />
<glyph unicode="&#x3c;" horiz-adv-x="1046" d="M911 563l-49 -307l-794 287l55 348l885 287l-50 -314l-569 -155z" />
<glyph unicode="=" horiz-adv-x="1208" d="M1126 786h-983l45 287h983zM1059 360h-983l45 287h983z" />
<glyph unicode="&#x3e;" horiz-adv-x="1044" d="M963 543l-887 -293l49 313l573 164l-524 143l49 308l795 -287z" />
<glyph unicode="?" horiz-adv-x="1030" d="M606 496h-325q11 73 53 143t94 123t103 99.5t88.5 90t42.5 78.5q8 60 -33 83.5t-123 23.5q-163 0 -365 -103l54 336q193 94 393 94q77 0 147 -12.5t134 -41.5t108 -72.5t64 -110.5t6 -150q-11 -74 -58.5 -146.5t-107.5 -129t-119.5 -108t-104 -103t-51.5 -94.5zM600 150 q-14 -91 -75 -136t-146 -45q-96 0 -152.5 58.5t-38.5 167.5q14 90 76 134t146 44q97 0 151.5 -57t38.5 -166z" />
<glyph unicode="@" horiz-adv-x="2142" d="M53 514q24 147 86.5 285.5t165 259.5t234 211t303.5 142t364 52q189 0 344.5 -55.5t256.5 -148t165.5 -211t84.5 -246t1 -252.5q-86 -541 -542 -541q-127 0 -216 58.5t-110 146.5q-102 -149 -293 -149q-77 0 -139 26t-99.5 70t-62 101.5t-27 120t5.5 126.5 q11 73 43 141.5t83 128t131 95.5t176 36q88 0 157.5 -42t104.5 -103l20 121h250l-80 -502q-19 -129 84 -129q47 0 84 24t61.5 69.5t40 99.5t27.5 126q7 58 6 118.5t-20 120.5t-47.5 115t-77 102t-107.5 82t-140 55t-175 20q-170 0 -319 -56.5t-256 -152.5t-177 -222.5 t-92 -267.5q-22 -138 4 -253t88 -194.5t154.5 -135t202.5 -81.5t233 -26q213 0 459 76l-29 -285q-206 -69 -452 -69q-174 0 -330 39.5t-285 121.5t-216.5 198t-122.5 279t-5 355zM1208 580q-11 46 -44.5 73t-84.5 27q-92 0 -150 -59.5t-71 -145.5q-7 -44 1.5 -82.5t40.5 -67 t85 -28.5q61 0 115.5 35t81.5 82z" />
<glyph unicode="A" horiz-adv-x="1538" d="M1442 0h-381l-47 225h-594l-117 -225h-397l790 1434h410zM793 938l-211 -406h368l-78 402q-13 65 -16 158q-36 -105 -63 -154z" />
<glyph unicode="B" horiz-adv-x="1400" d="M268 1434h619q150 0 261 -41t169.5 -129.5t38.5 -214.5q-35 -221 -258 -295q112 -35 173 -128.5t38 -242.5q-60 -383 -637 -383h-631zM940 438q33 158 -162 158h-266l-47 -299h250q198 0 225 141zM973 995q14 68 -20 105t-111 37h-244l-41 -265l227 -2q75 0 126.5 34.5 t62.5 90.5z" />
<glyph unicode="C" horiz-adv-x="1337" d="M86 739q23 147 89.5 270t156.5 205.5t199.5 140t218 83.5t213.5 26q238 0 413 -106l-53 -334q-56 51 -138.5 80t-174.5 29q-68 0 -134.5 -13.5t-134.5 -45.5t-122.5 -80t-95 -122.5t-54.5 -166.5q-16 -97 9.5 -176t80.5 -127t127.5 -73.5t155.5 -25.5q106 0 209.5 33 t187.5 90l-59 -371q-182 -86 -412 -86q-117 0 -225.5 29t-202.5 91.5t-159 151.5t-92 217.5t-3 280.5z" />
<glyph unicode="D" horiz-adv-x="1521" d="M268 1434h563q240 0 398.5 -96t218 -261.5t25.5 -382.5q-25 -155 -88 -280t-164 -218.5t-248.5 -144.5t-331.5 -51h-600zM1090 739q30 188 -44.5 277.5t-248.5 89.5h-203l-123 -778h184q175 0 289.5 103t145.5 308z" />
<glyph unicode="E" horiz-adv-x="1261" d="M268 1434h1032l-51 -328h-655l-35 -219h594l-51 -326h-594l-37 -233h666l-52 -328h-1044z" />
<glyph unicode="F" horiz-adv-x="1239" d="M268 1434h1035l-54 -338h-655l-39 -248h596l-53 -338h-596l-82 -510h-379z" />
<glyph unicode="G" horiz-adv-x="1427" d="M88 739q24 151 89 275t153 206t198 138.5t222 81t227 24.5q248 0 438 -94l-53 -342q-123 102 -354 102q-86 0 -170.5 -26t-161 -76.5t-132 -137t-73.5 -196.5q-8 -64 -7.5 -115.5t16 -91.5t35 -69.5t49.5 -51t59 -35.5t64.5 -22t65.5 -11t62 -3q71 0 117 14l76 479h358 l-115 -725q-224 -94 -473 -94q-127 0 -239.5 29t-207.5 89t-156.5 151.5t-87 216.5t0.5 284z" />
<glyph unicode="H" horiz-adv-x="1560" d="M1180 1434h379l-228 -1434h-379l86 547h-532l-86 -547h-379l227 1434h379l-86 -549h533z" />
<glyph unicode="I" horiz-adv-x="649" d="M268 1434h379l-227 -1434h-379z" />
<glyph unicode="J" horiz-adv-x="1052" d="M324 1434h737l-158 -998q-72 -467 -592 -467q-224 0 -368 72l53 334q116 -58 260 -58q247 0 279 191l92 588h-357z" />
<glyph unicode="K" horiz-adv-x="1445" d="M1161 1434h416l-559 -732l344 -702h-404l-260 553h-190l-88 -553h-379l227 1434h379l-86 -543h191z" />
<glyph unicode="L" horiz-adv-x="1189" d="M268 1434h379l-174 -1096h655l-53 -338h-1034z" />
<glyph unicode="M" horiz-adv-x="1859" d="M1475 1434h383l-228 -1434h-379l121 760l-352 -441h-258l-217 447l-125 -766h-379l227 1434h344l328 -672z" />
<glyph unicode="N" horiz-adv-x="1560" d="M420 0h-379l227 1434h316l479 -816q3 109 24 232l93 584h379l-228 -1434h-315l-477 813q0 -70 -21 -213z" />
<glyph unicode="O" horiz-adv-x="1662" d="M1616 694q-18 -117 -65.5 -224t-124 -198.5t-175.5 -159t-227.5 -105.5t-273.5 -38q-122 0 -227 28.5t-182 79.5t-135.5 122.5t-88 157t-40 182.5t8.5 200q18 117 65.5 224t124 198.5t175.5 159t227.5 105.5t273.5 38q117 0 220 -28.5t180 -79.5t136.5 -122.5t91 -157 t43.5 -182.5t-7 -200zM469 705q-27 -170 51 -279t252 -109q188 0 310.5 113t150.5 299q27 170 -51 278.5t-252 108.5q-188 0 -309.5 -112.5t-151.5 -298.5z" />
<glyph unicode="P" horiz-adv-x="1372" d="M268 1434h559q104 0 191.5 -16t163.5 -53.5t125 -95t69 -147t2 -202.5q-17 -108 -58 -189t-99.5 -134t-141 -86t-174 -46.5t-205.5 -13.5h-208l-72 -451h-379zM993 944q8 49 -3.5 82.5t-40.5 50t-61.5 23t-76.5 6.5h-215l-53 -328h211q214 0 239 166z" />
<glyph unicode="Q" horiz-adv-x="1662" d="M1524 109l-285 -224l-131 152q-168 -68 -358 -68q-122 0 -227 28.5t-182 79.5t-135.5 122.5t-88 157t-40 182.5t8.5 200q18 117 65.5 224t124 198.5t175.5 159t227.5 105.5t273.5 38q117 0 220 -28.5t180 -79.5t136.5 -122.5t91 -157t43.5 -182.5t-7 -200 q-43 -262 -211 -448zM469 705q-27 -170 51 -279t252 -109q37 0 88 7l-108 127l272 237l137 -162q53 85 72 203q27 170 -51 278.5t-252 108.5q-188 0 -309.5 -112.5t-151.5 -298.5z" />
<glyph unicode="R" horiz-adv-x="1456" d="M420 0h-379l227 1434h596q86 0 163.5 -14.5t151.5 -51.5t124 -92.5t72.5 -145t4.5 -202.5q-51 -307 -336 -412l306 -516h-402l-258 467h-196zM596 1106l-53 -332h233q83 0 144 46.5t73 121.5q25 164 -157 164h-240z" />
<glyph unicode="S" horiz-adv-x="1259" d="M158 1065q22 132 111 224t211 133.5t265 41.5q136 0 261.5 -33t212.5 -88l-52 -333q-174 130 -409 127q-210 -3 -217 -101q-2 -30 21.5 -55.5t64.5 -45t94 -41t110 -43t114 -51.5t104.5 -66t82 -87t46.5 -114.5t-2 -147.5q-21 -118 -78 -201.5t-142.5 -129t-183.5 -65.5 t-219 -20q-316 0 -539 137l56 347q203 -156 473 -156q111 0 175 25.5t70 72.5q5 37 -15.5 68t-60 54t-91.5 44.5t-109 44.5t-114 49.5t-106 64.5t-84 84t-49 113t-1 148z" />
<glyph unicode="T" horiz-adv-x="1239" d="M158 1434h1188l-54 -338h-403l-174 -1096h-379l174 1096h-406z" />
<glyph unicode="U" horiz-adv-x="1531" d="M1165 1434h379l-141 -897q-20 -126 -70 -224.5t-118 -162.5t-156 -105.5t-180 -58.5t-195 -17q-95 0 -183 19t-168.5 64t-135 111t-78.5 167.5t-4 226.5l139 877h379l-139 -877q-22 -138 32.5 -194t178.5 -56q281 0 325 271z" />
<glyph unicode="V" horiz-adv-x="1476" d="M838 0h-389l-312 1434h395l166 -983l482 983h424z" />
<glyph unicode="W" horiz-adv-x="2213" d="M1915 1434h420l-666 -1434h-420l-100 885l-387 -885h-410l-211 1434h398l82 -1008l434 1008h336l110 -1008z" />
<glyph unicode="X" horiz-adv-x="1415" d="M326 0h-449l635 735l-369 699h426l195 -402l336 402h448l-596 -691l391 -743h-425l-216 451z" />
<glyph unicode="Y" horiz-adv-x="1490" d="M838 0h-377l80 489l-410 945h414l223 -600l412 600h446l-708 -945z" />
<glyph unicode="Z" horiz-adv-x="1284" d="M1120 0h-1153l39 250l744 846h-572l53 338h1098l-39 -256l-743 -840h627z" />
<glyph unicode="[" horiz-adv-x="729" d="M541 -225h-553l297 1884h553l-47 -307h-205l-203 -1270h205z" />
<glyph unicode="\" horiz-adv-x="966" d="M809 -123h-246l-368 1679h245z" />
<glyph unicode="]" horiz-adv-x="731" d="M483 -225h-553l47 307h205l203 1270h-205l47 307h553z" />
<glyph unicode="^" horiz-adv-x="1292" d="M463 696h-381l547 738h307l313 -738h-356l-148 400z" />
<glyph unicode="_" horiz-adv-x="1024" d="M870 -381h-1024l45 287h1024z" />
<glyph unicode="`" horiz-adv-x="593" d="M776 1556h-342l-178 308h383z" />
<glyph unicode="a" d="M788 133q-50 -73 -136.5 -118.5t-205.5 -45.5q-80 0 -147 22t-113.5 60.5t-81.5 90.5t-50 112.5t-20.5 127t7.5 132.5q15 94 56 180.5t106.5 159.5t163 116.5t213.5 43.5q121 0 202.5 -55.5t116.5 -135.5l25 160h307l-156 -983h-307zM391 481q-9 -55 3 -104t52.5 -85 t106.5 -36q76 0 136.5 37.5t98.5 93.5l37 223q-12 52 -56.5 84.5t-109.5 32.5q-111 0 -181.5 -71.5t-86.5 -174.5z" />
<glyph unicode="b" horiz-adv-x="1271" d="M236 1434h348l-86 -537q126 117 297 117q89 0 163.5 -31t123 -84t81.5 -123t39 -148t-4 -159q-14 -95 -54 -181t-105 -159t-164 -116.5t-218 -43.5q-120 0 -201.5 53.5t-109.5 127.5l-31 -150h-307zM846 494q9 59 -3 110t-51.5 87t-103.5 36q-71 0 -134.5 -37.5 t-102.5 -93.5l-35 -223q16 -53 56 -85t101 -32q112 0 185.5 69t87.5 169z" />
<glyph unicode="c" horiz-adv-x="1009" d="M39 504q17 108 64.5 196.5t111.5 146t143.5 96.5t158 56t157.5 17q182 0 315 -80l-45 -279q-100 62 -231 62q-120 0 -211 -60.5t-109 -179.5q-16 -107 47.5 -160t171.5 -53q149 0 291 66l-47 -301q-144 -62 -330 -62q-87 0 -165.5 19.5t-145.5 62t-112 104t-63 151.5 t-1 198z" />
<glyph unicode="d" d="M954 1434h349l-228 -1434h-307l20 131q-47 -72 -134.5 -117t-207.5 -45q-80 0 -147 22t-113.5 60.5t-81.5 90.5t-50 112.5t-20.5 127t7.5 132.5q12 74 40.5 145t76 135.5t108 113t142 77.5t172.5 29q96 0 170 -38.5t114 -101.5zM825 618q-16 46 -60.5 77.5t-105.5 31.5 q-111 0 -181.5 -71t-86.5 -177q-9 -55 3 -103.5t52.5 -84t106.5 -35.5q77 0 137.5 37.5t97.5 95.5z" />
<glyph unicode="e" horiz-adv-x="1114" d="M41 518q15 105 57.5 190.5t100 141t128.5 93.5t141.5 54.5t141.5 16.5q119 0 209.5 -37t142.5 -99t76 -143t17.5 -170t-39.5 -178h-647q16 -79 91 -115t185 -36q190 0 307 57l-41 -266q-141 -58 -356 -58q-122 0 -224.5 38t-173.5 107t-103 173.5t-13 230.5zM731 596 q6 18 6 39t-7 44t-22 41t-43 30t-65 12q-77 0 -133 -48t-68 -118h332z" />
<glyph unicode="f" horiz-adv-x="843" d="M287 1077q14 90 47.5 159t77 111t100 69t112 37.5t117.5 10.5q145 0 242 -43l-41 -266q-59 23 -125 23q-75 0 -125.5 -34.5t-60.5 -101.5l-10 -59h262l-45 -287h-263l-110 -696h-348l110 696h-161l45 287h161z" />
<glyph unicode="g" d="M1081 31q-21 -135 -81.5 -236.5t-148 -160t-189.5 -87t-218 -28.5q-243 0 -430 98l45 285q150 -97 351 -97q128 0 216 54t107 172l10 65q-34 -50 -109 -88.5t-188 -38.5q-80 0 -147 22t-113.5 60.5t-81.5 90.5t-50 112.5t-20.5 127t7.5 132.5q12 74 40.5 145t76 135.5 t108 113t142 77.5t172.5 29q226 0 317 -174l27 143h307zM391 479q-9 -55 3 -103.5t52.5 -84t106.5 -35.5q77 0 137.5 37.5t97.5 95.5l37 229q-16 46 -60.5 77.5t-105.5 31.5q-111 0 -181.5 -71t-86.5 -177z" />
<glyph unicode="h" horiz-adv-x="1208" d="M236 1434h348l-84 -523q140 103 278 103q125 0 209.5 -58t116.5 -151t14 -205l-96 -600h-348l90 573q11 73 -19 108.5t-90 35.5q-104 0 -200 -96l-99 -621h-348z" />
<glyph unicode="i" horiz-adv-x="561" d="M360 0h-348l156 983h348zM592 1292q-14 -87 -73 -129.5t-140 -42.5q-91 0 -143.5 56t-36.5 159q13 87 72 129.5t139 42.5q92 0 145 -55.5t37 -159.5z" />
<glyph unicode="j" horiz-adv-x="561" d="M338 -147q-16 -98 -52 -165t-92.5 -103t-121 -51t-150.5 -15q-110 0 -201 35l46 282q40 -14 96 -14q64 0 97.5 30t43.5 101l164 1030h348zM592 1292q-14 -87 -73 -129.5t-140 -42.5q-91 0 -143.5 56t-36.5 159q13 87 72 129.5t139 42.5q92 0 145 -55.5t37 -159.5z" />
<glyph unicode="k" horiz-adv-x="1146" d="M803 983h399l-407 -498l260 -485h-359l-192 373h-88l-60 -373h-348l228 1434h348l-127 -795h75z" />
<glyph unicode="l" horiz-adv-x="561" d="M250 1495h348l-238 -1495h-348z" />
<glyph unicode="m" horiz-adv-x="1771" d="M1040 883q159 131 328 131q68 0 123 -19t89.5 -50.5t60 -72.5t34 -84.5t12.5 -87t-4 -79.5l-98 -621h-348l98 621q7 48 -20 72t-72 24q-42 0 -86 -21t-76 -53q0 -16 -2 -22l-98 -621h-348l98 621q7 48 -20 72t-72 24q-50 0 -100 -29t-86 -74l-97 -614h-348l156 983h307 l-18 -109q58 58 147 99t184 41q182 0 256 -131z" />
<glyph unicode="n" horiz-adv-x="1208" d="M453 870q76 70 166 107t176 37q120 0 200.5 -57.5t110.5 -149.5t12 -201l-96 -606h-348l90 573q13 74 -17 109t-92 35q-101 0 -200 -94l-99 -623h-348l156 983h307z" />
<glyph unicode="o" horiz-adv-x="1216" d="M1141 459q-19 -121 -80.5 -217.5t-148 -154.5t-185 -88t-201.5 -30q-115 0 -211.5 37t-165 105t-98 175t-8.5 238q19 122 77.5 217.5t143 154t185 88.5t210.5 30q108 0 203 -37t165.5 -105t102.5 -175.5t11 -237.5zM393 489q-8 -37 -1.5 -75t22 -68.5t52 -50t89.5 -19.5 q100 0 160 60t76 158q8 37 1.5 74.5t-21 68.5t-50.5 50.5t-88 19.5q-101 0 -162.5 -60.5t-77.5 -157.5z" />
<glyph unicode="p" d="M453 854q49 69 139.5 114.5t204.5 45.5q89 0 163.5 -31t123 -84t81.5 -123t39 -148t-4 -159q-11 -74 -38.5 -145t-74 -135.5t-106 -113t-142 -77.5t-175.5 -29q-196 0 -291 129l-86 -549h-348l227 1434h307zM850 504q9 55 -3 103.5t-52.5 84t-106.5 35.5 q-72 0 -134.5 -39.5t-100.5 -95.5l-37 -225q14 -48 58.5 -79.5t107.5 -31.5q110 0 181 72.5t87 175.5z" />
<glyph unicode="q" d="M41 514q15 94 56 180.5t106.5 159.5t163 116.5t213.5 43.5q124 0 205.5 -57.5t113.5 -131.5l25 158h307l-227 -1434h-349l84 527q-107 -107 -293 -107q-80 0 -147 22t-113.5 60.5t-81.5 90.5t-50 112.5t-20.5 127t7.5 132.5zM825 616q-13 45 -58.5 78t-107.5 33 q-112 0 -182 -72t-86 -176q-9 -55 3 -103.5t52.5 -84t106.5 -35.5q77 0 138.5 38.5t96.5 92.5z" />
<glyph unicode="r" horiz-adv-x="833" d="M451 852q133 177 417 149l-53 -333q-117 28 -215.5 -6.5t-157.5 -116.5l-86 -545h-348l156 983h307z" />
<glyph unicode="s" horiz-adv-x="1003" d="M84 721q11 69 46 122.5t80.5 85t106 51.5t116 27t116.5 7q204 0 379 -84l-43 -277q-69 46 -158 75.5t-172 29.5q-104 0 -111 -49q-5 -27 21 -48t70 -36.5t97.5 -32t105.5 -42.5t93 -60.5t61.5 -92t8.5 -131.5q-14 -89 -58.5 -149.5t-115.5 -91.5t-149 -43.5t-179 -12.5 q-118 0 -223 23.5t-174 66.5l43 277q68 -51 167.5 -78t193.5 -27q128 0 137 50q4 26 -22 46t-70 36t-97.5 33.5t-105.5 44t-93.5 61t-61.5 91t-9 128.5z" />
<glyph unicode="t" horiz-adv-x="858" d="M285 1260l360 81l-57 -358h266l-45 -287h-266l-54 -329q-9 -59 15.5 -85t91.5 -26q86 0 168 27l-43 -275q-93 -39 -256 -39q-75 0 -137.5 18.5t-113 57.5t-72.5 109t-7 163l60 379h-156l45 287h156z" />
<glyph unicode="u" horiz-adv-x="1210" d="M819 983h348l-155 -983h-307l18 113q-132 -144 -320 -144q-125 0 -210.5 58t-118.5 151t-15 205l95 600h348l-90 -573q-11 -74 19 -109t91 -35q60 0 113 28t86 66z" />
<glyph unicode="v" horiz-adv-x="1185" d="M850 983h393l-565 -983h-369l-233 983h354l109 -621z" />
<glyph unicode="w" horiz-adv-x="1710" d="M1370 983h387l-481 -983h-369l-61 575l-260 -575h-359l-149 983h346l63 -584l248 584h336l62 -584z" />
<glyph unicode="x" horiz-adv-x="1128" d="M303 0h-409l464 518l-282 465h368l138 -233l194 233h410l-443 -494l297 -489h-368l-154 258z" />
<glyph unicode="y" horiz-adv-x="1179" d="M573 406l244 577h410l-580 -1094q-57 -108 -117.5 -181.5t-124.5 -113t-125 -55.5t-133 -16q-105 0 -198 37l45 284q61 -24 121 -24q79 0 131.5 50t113.5 163l-301 950h369z" />
<glyph unicode="z" horiz-adv-x="1007" d="M152 983h829l-31 -201l-471 -495h420l-45 -287h-889l33 205l467 491h-359z" />
<glyph unicode="{" horiz-adv-x="782" d="M627 84l-49 -313q-125 -27 -217.5 -12.5t-150 62t-80.5 120t-9 161.5l55 349q3 16 3 30t-2.5 24.5t-6 18.5t-10.5 14t-13 10.5t-16.5 7t-18.5 4t-21 2.5t-21 1h-23l49 307q76 -8 115.5 21t52.5 113l55 348q32 205 178 283t380 22l-50 -303q-86 16 -129.5 -30.5 t-58.5 -145.5l-39 -246q-34 -215 -238 -215q34 0 66 -13t59 -40t39 -74.5t2 -108.5l-39 -245q-15 -95 15 -132t123 -20z" />
<glyph unicode="|" horiz-adv-x="583" d="M340 -205h-348l295 1864h348z" />
<glyph unicode="}" horiz-adv-x="782" d="M502 82q-34 -206 -177 -283.5t-382 -21.5l47 303q89 -17 131.5 24.5t60.5 151.5l39 246q18 107 86.5 161t153.5 54q-73 0 -129 65t-39 170l39 246q16 97 -12.5 132.5t-126.5 21.5l49 311q124 27 216.5 12.5t151 -62t81.5 -120.5t9 -162l-55 -350q-3 -16 -3 -30t3 -24.5 t6 -18.5t10.5 -14t12.5 -10.5t16 -7t17.5 -4t19.5 -2t19.5 -0.5h20.5h7l-49 -309q-142 17 -166 -131z" />
<glyph unicode="~" horiz-adv-x="1241" d="M1178 870q-1 -98 -26.5 -173.5t-70 -121t-102.5 -68t-127 -22.5q-55 0 -119 17.5t-110.5 38.5t-91.5 37t-68 14q-36 0 -58 -27t-22 -73h-287q1 101 28 177.5t72 120.5t100 65.5t118 21.5q60 0 124.5 -16.5t108 -37t89 -37t73.5 -16.5q37 0 58.5 25.5t21.5 74.5h289z" />
<glyph unicode="&#xa1;" horiz-adv-x="581" d="M309 -451h-368l163 902h328zM530 788q-14 -90 -75 -134t-146 -44q-96 0 -151 58t-37 166q14 91 75.5 135.5t145.5 44.5q97 0 151.5 -58t36.5 -168z" />
<glyph unicode="&#xa2;" horiz-adv-x="1054" d="M1001 936l-45 -279q-65 41 -149 56l-70 -437q94 15 178 56l-47 -301q-81 -36 -178 -51l-35 -226h-204l34 217q-81 6 -152 29t-131 66t-98 105t-54 145.5t1 187.5q17 103 61 188t103 142t133.5 97.5t149 60.5t151.5 24l35 213h205l-37 -232q82 -21 149 -61zM600 700 q-169 -55 -194 -221q-22 -160 126 -200z" />
<glyph unicode="&#xa3;" horiz-adv-x="1239" d="M1071 0h-1085l47 297h33q72 0 120.5 53t61.5 133l10 70h-158l41 266h158l18 111q21 129 75.5 226.5t133 154.5t171 84.5t198.5 27.5q187 0 344 -80l-43 -276q-103 80 -252 80q-115 0 -188.5 -61t-93.5 -183l-15 -84h365l-41 -266h-365l-14 -90q-11 -68 -36.5 -107 t-74.5 -59h637z" />
<glyph unicode="&#xa4;" horiz-adv-x="1161" d="M348 352l-149 -129l-146 166l137 125q-42 91 -22 225q19 117 90 207l-94 107l166 151l106 -121q98 43 211 43q117 0 207 -49l154 135l141 -163l-141 -127q41 -98 22 -228q-20 -124 -94 -209l98 -106l-170 -152l-104 121q-90 -41 -209 -41q-121 0 -203 45zM451 694 q-3 -50 27 -87.5t97 -37.5q80 0 125 50.5t48 119.5q3 50 -27.5 87.5t-97.5 37.5q-79 0 -124 -50.5t-48 -119.5z" />
<glyph unicode="&#xa5;" horiz-adv-x="1513" d="M1163 1393h420l-491 -656h194l-35 -225h-323l-17 -102h324l-37 -226h-321l-31 -184h-377l31 184h-326l37 226h324l16 102h-324l35 225h197l-281 656h391l203 -582z" />
<glyph unicode="&#xa6;" horiz-adv-x="604" d="M522 881h-348l123 778h348zM350 -205h-348l123 778h348z" />
<glyph unicode="&#xa7;" horiz-adv-x="1087" d="M928 223q-13 -84 -61.5 -144t-120.5 -91.5t-149.5 -45.5t-166.5 -14q-199 0 -375 95l39 253q71 -42 159 -66t167 -24q75 0 111 11t42 41t-38.5 53.5t-153.5 60.5q-51 17 -91 35t-81 47t-66.5 62.5t-38.5 81.5t-6 104q10 85 55 145t121 109q-101 79 -77 238 q13 82 57 140.5t111 90t140 45.5t157 14q192 0 372 -90l-39 -254q-54 37 -145 62.5t-170 25.5q-124 0 -131 -51q-2 -15 7 -27.5t32.5 -25t43.5 -21t62 -25t66 -26.5q52 -22 87.5 -39.5t76.5 -46.5t63.5 -59.5t34.5 -75t4 -96.5q-9 -69 -52.5 -132t-117.5 -112 q98 -90 72 -248zM516 633q46 -15 113 -33q28 20 42 39.5t17 48.5q3 37 -19 58t-65 36q-93 28 -112 35q-33 -20 -49.5 -39.5t-20.5 -48.5q-10 -63 94 -96z" />
<glyph unicode="&#xa8;" horiz-adv-x="757" d="M1001 1679q-9 -63 -62.5 -107t-119.5 -44q-78 0 -125 57t-35 139q11 63 64 107.5t119 44.5q78 0 124.5 -57.5t34.5 -139.5zM551 1679q-9 -63 -62.5 -107t-119.5 -44q-78 0 -125 57t-35 139q11 63 63.5 107.5t118.5 44.5q78 0 125 -57.5t35 -139.5z" />
<glyph unicode="&#xa9;" horiz-adv-x="1728" d="M1671 694q-28 -176 -116 -317t-211.5 -228.5t-267.5 -133.5t-294 -46q-98 0 -191.5 21.5t-177 64.5t-150 107.5t-111.5 150t-60 192.5t4 234q28 176 116 317t211.5 228.5t267.5 133.5t294 46q98 0 191.5 -21.5t177 -64.5t150 -107.5t111.5 -150t60 -192.5t-4 -234z M1151 358q-67 -33 -133.5 -47t-157.5 -14q-55 0 -112 15.5t-111.5 49.5t-94.5 82.5t-58.5 121t-4.5 157.5q14 86 52.5 157t90.5 117.5t115.5 79t125.5 46.5t122 14q162 0 277 -78l-31 -197q-88 51 -195 51q-62 0 -116.5 -17t-100 -63.5t-57.5 -117.5q-8 -51 4.5 -90.5 t40 -61t61.5 -32.5t72 -11q134 0 246 64zM213 694q-15 -119 8.5 -220.5t77 -172.5t130.5 -121t168 -74t191 -24q104 0 206.5 26t196.5 80.5t169.5 131t127 185t66.5 234.5q15 119 -8.5 220.5t-77 173t-130.5 121.5t-168 74t-191 24q-104 0 -206.5 -26.5t-196.5 -81 t-169.5 -131t-127 -185t-66.5 -234.5z" />
<glyph unicode="&#xab;" horiz-adv-x="1239" d="M1096 82h-340l-209 379l10 67l322 373h356l-358 -409zM584 82h-340l-209 379l10 67l322 373h356l-358 -409z" />
<glyph unicode="&#xac;" horiz-adv-x="1181" d="M1042 451h-286l39 245h-697l45 287h983z" />
<glyph unicode="&#xad;" horiz-adv-x="993" d="M115 637h778l-47 -287h-778z" />
<glyph unicode="&#xae;" horiz-adv-x="1728" d="M1671 694q-28 -176 -116 -317t-211.5 -228.5t-267.5 -133.5t-294 -46q-98 0 -191.5 21.5t-177 64.5t-150 107.5t-111.5 150t-60 192.5t4 234q28 176 116 317t211.5 228.5t267.5 133.5t294 46q98 0 191.5 -21.5t177 -64.5t150 -107.5t111.5 -150t60 -192.5t-4 -234z M213 694q-15 -119 8.5 -220.5t77 -172.5t130.5 -121t168 -74t191 -24q104 0 206.5 26t196.5 80.5t169.5 131t127 185t66.5 234.5q15 119 -8.5 220.5t-77 173t-130.5 121.5t-168 74t-191 24q-104 0 -206.5 -26.5t-196.5 -81t-169.5 -131t-127 -185t-66.5 -234.5zM725 332 h-236l127 798h379q63 0 121 -19t105 -56t69.5 -98.5t9.5 -137.5q-13 -86 -69 -145.5t-137 -83.5l168 -258h-254l-150 241h-12h-84zM817 918l-24 -156h133q24 0 41 2.5t36 9.5t31.5 24.5t16.5 43.5q6 35 -19 55.5t-65 20.5h-150z" />
<glyph unicode="&#xaf;" horiz-adv-x="737" d="M266 1839h697l-43 -266h-697z" />
<glyph unicode="&#xb0;" horiz-adv-x="876" d="M899 1081q-27 -165 -146 -255.5t-278 -90.5q-77 0 -144.5 26t-116.5 74t-71 123.5t-8 167.5q17 105 81 183t152.5 116.5t188.5 38.5q78 0 146 -26.5t116.5 -74t70.5 -121t9 -161.5zM387 1081q-3 -52 26 -81t83 -29q66 0 105.5 42t41.5 113q2 48 -25.5 75.5t-80.5 27.5 q-65 0 -106 -40.5t-44 -107.5z" />
<glyph unicode="&#xb1;" horiz-adv-x="1187" d="M862 1372l-55 -348h348l-45 -287h-348l-55 -348h-287l55 348h-348l45 287h348l55 348h287zM993 0h-983l45 287h983z" />
<glyph unicode="&#xb4;" horiz-adv-x="552" d="M557 1556h-354l231 308h395z" />
<glyph unicode="&#xb6;" horiz-adv-x="1601" d="M725 -451h-358l155 981q-220 2 -329 129t-74 347q32 203 173 315.5t365 112.5h930l-299 -1885h-358l246 1547h-205z" />
<glyph unicode="&#xb7;" horiz-adv-x="573" d="M473 467q-14 -91 -75 -135.5t-146 -44.5q-96 0 -151.5 57.5t-37.5 167.5q14 90 76 134t146 44q97 0 151.5 -57t36.5 -166z" />
<glyph unicode="&#xb8;" horiz-adv-x="460" d="M51 0h230l-41 -90q179 -29 151 -209q-8 -50 -41 -87t-81 -56.5t-97 -29t-100 -9.5q-133 0 -226 37l31 198q61 -33 154 -33q113 0 121 54q6 34 -41 47t-121 4z" />
<glyph unicode="&#xbb;" horiz-adv-x="1241" d="M840 82h-357l359 410l-219 409h340l211 -379l-11 -67zM328 82h-357l359 410l-219 409h340l211 -379l-11 -67z" />
<glyph unicode="&#xbc;" horiz-adv-x="1916" d="M1561 836h223l-82 -517h110l-28 -184h-111l-22 -135h-215l20 135h-422l29 184zM1485 319l39 234l-224 -234h185zM440 -31h-106l1173 1495h107zM457 1393h164l-103 -645h160l-31 -191h-565l31 191h184l65 419l-188 -55l33 203z" />
<glyph unicode="&#xbd;" horiz-adv-x="1845" d="M432 -31h-106l1173 1495h107zM1194 768q150 86 305 86q61 0 114 -16.5t95 -49.5t61 -89t7 -128q-4 -25 -13 -47.5t-17 -39t-26.5 -35l-28.5 -28.5t-37 -27.5t-37.5 -24t-45 -26.5t-45.5 -26q-164 -95 -172 -127h360l-28 -190h-642l17 111q5 33 15 63t21 54t30.5 48.5 t33 41t40 37t41 31.5t45.5 29.5t43.5 26t45.5 25.5q123 68 148 90q26 22 30 47q4 26 -19 39.5t-65 13.5q-144 0 -311 -110zM449 1393h163l-102 -645h160l-31 -191h-565l30 191h185l65 419l-188 -55l33 203z" />
<glyph unicode="&#xbe;" horiz-adv-x="2023" d="M547 -31h-107l1174 1495h106zM1667 836h223l-82 -517h111l-29 -184h-110l-23 -135h-215l21 135h-422l28 184zM1591 319l39 234l-223 -234h184zM770 1169q-18 -115 -156 -163q66 -21 103.5 -79.5t23.5 -150.5q-35 -225 -368 -225q-161 0 -289 61l33 203q102 -65 239 -65 q70 0 121 20t58 59q6 34 -17.5 54t-73.5 20h-155l33 191h106q117 0 127 63q5 32 -23.5 51t-80.5 19q-144 0 -273 -70l33 203q140 63 268 63q134 0 222 -66.5t69 -187.5z" />
<glyph unicode="&#xbf;" horiz-adv-x="1015" d="M795 -389q-196 -92 -394 -92q-77 0 -146.5 12.5t-133.5 41.5t-107.5 72.5t-63.5 110.5t-7 150q10 63 45.5 125t81.5 109.5t99 96.5t98 88t78 82t40 80h324q-11 -73 -53 -143t-94 -123t-103 -99.5t-88.5 -90t-42.5 -78.5q-8 -60 32.5 -83.5t122.5 -23.5q88 0 185.5 30 t179.5 73zM801 788q-14 -90 -76 -134t-145 -44q-97 0 -152 57.5t-37 166.5q14 91 75 135.5t146 44.5q96 0 151.5 -58t37.5 -168z" />
<glyph unicode="&#xc0;" horiz-adv-x="1538" d="M1442 0h-381l-47 225h-594l-117 -225h-397l790 1434h410zM793 938l-211 -406h368l-78 402q-13 65 -16 158q-36 -105 -63 -154zM1147 1556h-342l-178 308h383z" />
<glyph unicode="&#xc1;" horiz-adv-x="1538" d="M1442 0h-381l-47 225h-594l-117 -225h-397l790 1434h410zM793 938l-211 -406h368l-78 402q-13 65 -16 158q-36 -105 -63 -154zM1071 1556h-354l231 308h395z" />
<glyph unicode="&#xc2;" horiz-adv-x="1538" d="M1442 0h-381l-47 225h-594l-117 -225h-397l790 1434h410zM793 938l-211 -406h368l-78 402q-13 65 -16 158q-36 -105 -63 -154zM823 1864h307l195 -328h-305l-64 113l-100 -113h-330z" />
<glyph unicode="&#xc3;" horiz-adv-x="1538" d="M1442 0h-381l-47 225h-594l-117 -225h-397l790 1434h410zM793 938l-211 -406h368l-78 402q-13 65 -16 158q-36 -105 -63 -154zM1331 1851q15 -141 -52.5 -231t-182.5 -90q-54 0 -112 21.5t-102.5 43t-66.5 21.5q-32 0 -45 -30t-8 -44h-238q-15 141 53 231.5t183 90.5 q54 0 111.5 -21.5t102 -43t66.5 -21.5q32 0 45.5 30t8.5 43h237z" />
<glyph unicode="&#xc4;" horiz-adv-x="1538" d="M1442 0h-381l-47 225h-594l-117 -225h-397l790 1434h410zM793 938l-211 -406h368l-78 402q-13 65 -16 158q-36 -105 -63 -154zM1352 1679q-9 -63 -63 -107t-120 -44q-78 0 -124.5 57t-34.5 139q11 63 63.5 107.5t118.5 44.5q78 0 125 -57.5t35 -139.5zM901 1679 q-9 -63 -62.5 -107t-119.5 -44q-78 0 -125 57t-35 139q11 63 63.5 107.5t118.5 44.5q78 0 125 -57.5t35 -139.5z" />
<glyph unicode="&#xc5;" horiz-adv-x="1538" d="M1442 0h-381l-47 225h-594l-117 -225h-397l790 1434h410zM793 938l-211 -406h368l-78 402q-13 65 -16 158q-36 -105 -63 -154zM1223 1731q-18 -111 -99.5 -173.5t-187.5 -62.5t-182.5 78t-57.5 203q18 106 100.5 168.5t186.5 62.5q50 0 96.5 -19.5t82.5 -53.5t53.5 -87.5 t7.5 -115.5zM887 1757q-4 -37 14.5 -57.5t50.5 -20.5q31 0 53.5 17.5t26.5 48.5q6 35 -13.5 56.5t-51.5 21.5q-29 0 -52.5 -17.5t-27.5 -48.5z" />
<glyph unicode="&#xc6;" horiz-adv-x="2099" d="M2138 1434l-51 -328h-612l-35 -219h551l-52 -326h-550l-39 -233h624l-51 -328h-1003l36 236h-501l-185 -236h-393l1137 1434h1124zM686 532h318l83 517z" />
<glyph unicode="&#xc7;" horiz-adv-x="1337" d="M1323 1024q-56 51 -138.5 80t-174.5 29q-68 0 -134.5 -13.5t-134.5 -45.5t-122.5 -80t-95 -122.5t-54.5 -166.5q-16 -97 9.5 -176t80.5 -127t127.5 -73.5t155.5 -25.5q106 0 209.5 33t187.5 90l-59 -371q-163 -78 -363 -84l-26 -61q179 -29 151 -209q-8 -50 -41 -87 t-81 -56.5t-97 -29t-100 -9.5q-133 0 -226 37l31 198q61 -33 154 -33q112 0 120 54q6 34 -40.5 47t-120.5 4l57 160q-122 24 -223.5 82.5t-176.5 150t-106 225.5t-6 295q23 147 89.5 270t156.5 205.5t199.5 140t218 83.5t213.5 26q238 0 413 -106z" />
<glyph unicode="&#xc8;" horiz-adv-x="1261" d="M268 1434h1032l-51 -328h-655l-35 -219h594l-51 -326h-594l-37 -233h666l-52 -328h-1044zM1018 1556h-342l-178 308h383z" />
<glyph unicode="&#xc9;" horiz-adv-x="1261" d="M268 1434h1032l-51 -328h-655l-35 -219h594l-51 -326h-594l-37 -233h666l-52 -328h-1044zM942 1556h-354l231 308h395z" />
<glyph unicode="&#xca;" horiz-adv-x="1261" d="M268 1434h1032l-51 -328h-655l-35 -219h594l-51 -326h-594l-37 -233h666l-52 -328h-1044zM694 1864h307l195 -328h-305l-64 113l-100 -113h-330z" />
<glyph unicode="&#xcb;" horiz-adv-x="1261" d="M268 1434h1032l-51 -328h-655l-35 -219h594l-51 -326h-594l-37 -233h666l-52 -328h-1044zM1223 1679q-9 -63 -63 -107t-120 -44q-78 0 -124.5 57t-34.5 139q11 63 63.5 107.5t118.5 44.5q78 0 125 -57.5t35 -139.5zM772 1679q-9 -63 -62.5 -107t-119.5 -44q-78 0 -125 57 t-35 139q11 63 63.5 107.5t118.5 44.5q78 0 125 -57.5t35 -139.5z" />
<glyph unicode="&#xcc;" horiz-adv-x="649" d="M268 1434h379l-227 -1434h-379zM690 1556h-342l-178 308h383z" />
<glyph unicode="&#xcd;" horiz-adv-x="649" d="M268 1434h379l-227 -1434h-379zM614 1556h-354l232 308h395z" />
<glyph unicode="&#xce;" horiz-adv-x="649" d="M268 1434h379l-227 -1434h-379zM367 1864h307l194 -328h-305l-63 113l-101 -113h-329z" />
<glyph unicode="&#xcf;" horiz-adv-x="649" d="M268 1434h379l-227 -1434h-379zM895 1679q-9 -63 -62.5 -107t-119.5 -44q-78 0 -125 57t-35 139q11 63 63.5 107.5t118.5 44.5q78 0 125 -57.5t35 -139.5zM444 1679q-9 -63 -62.5 -107t-119.5 -44q-78 0 -125 57t-35 139q11 63 64 107.5t119 44.5q78 0 124.5 -57.5 t34.5 -139.5z" />
<glyph unicode="&#xd0;" horiz-adv-x="1550" d="M297 1434h563q181 0 316.5 -55t214.5 -154t107.5 -234t2.5 -297q-25 -155 -88 -280t-163.5 -218.5t-248 -144.5t-331.5 -51h-600l92 584h-142l43 266h142zM684 328q175 0 289 103t145 308q30 188 -44.5 277.5t-248.5 89.5h-202l-41 -256h260l-43 -266h-258l-41 -256h184z " />
<glyph unicode="&#xd1;" horiz-adv-x="1560" d="M420 0h-379l227 1434h316l479 -816q3 109 24 232l93 584h379l-228 -1434h-315l-477 813q0 -70 -21 -213zM1311 1851q15 -141 -53 -231t-183 -90q-54 0 -111.5 21.5t-102 43t-66.5 21.5q-32 0 -45.5 -30.5t-8.5 -43.5h-237q-15 141 52.5 231.5t182.5 90.5q54 0 112 -21.5 t102.5 -43t66.5 -21.5q32 0 45 30t8 43h238z" />
<glyph unicode="&#xd2;" horiz-adv-x="1662" d="M1616 694q-18 -117 -65.5 -224t-124 -198.5t-175.5 -159t-227.5 -105.5t-273.5 -38q-122 0 -227 28.5t-182 79.5t-135.5 122.5t-88 157t-40 182.5t8.5 200q18 117 65.5 224t124 198.5t175.5 159t227.5 105.5t273.5 38q117 0 220 -28.5t180 -79.5t136.5 -122.5t91 -157 t43.5 -182.5t-7 -200zM469 705q-27 -170 51 -279t252 -109q188 0 310.5 113t150.5 299q27 170 -51 278.5t-252 108.5q-188 0 -309.5 -112.5t-151.5 -298.5zM1188 1556h-342l-178 308h383z" />
<glyph unicode="&#xd3;" horiz-adv-x="1662" d="M1616 694q-18 -117 -65.5 -224t-124 -198.5t-175.5 -159t-227.5 -105.5t-273.5 -38q-122 0 -227 28.5t-182 79.5t-135.5 122.5t-88 157t-40 182.5t8.5 200q18 117 65.5 224t124 198.5t175.5 159t227.5 105.5t273.5 38q117 0 220 -28.5t180 -79.5t136.5 -122.5t91 -157 t43.5 -182.5t-7 -200zM469 705q-27 -170 51 -279t252 -109q188 0 310.5 113t150.5 299q27 170 -51 278.5t-252 108.5q-188 0 -309.5 -112.5t-151.5 -298.5zM1112 1556h-354l231 308h395z" />
<glyph unicode="&#xd4;" horiz-adv-x="1662" d="M1616 694q-18 -117 -65.5 -224t-124 -198.5t-175.5 -159t-227.5 -105.5t-273.5 -38q-122 0 -227 28.5t-182 79.5t-135.5 122.5t-88 157t-40 182.5t8.5 200q18 117 65.5 224t124 198.5t175.5 159t227.5 105.5t273.5 38q117 0 220 -28.5t180 -79.5t136.5 -122.5t91 -157 t43.5 -182.5t-7 -200zM469 705q-27 -170 51 -279t252 -109q188 0 310.5 113t150.5 299q27 170 -51 278.5t-252 108.5q-188 0 -309.5 -112.5t-151.5 -298.5zM864 1864h307l195 -328h-305l-64 113l-100 -113h-330z" />
<glyph unicode="&#xd5;" horiz-adv-x="1662" d="M1616 694q-18 -117 -65.5 -224t-124 -198.5t-175.5 -159t-227.5 -105.5t-273.5 -38q-122 0 -227 28.5t-182 79.5t-135.5 122.5t-88 157t-40 182.5t8.5 200q18 117 65.5 224t124 198.5t175.5 159t227.5 105.5t273.5 38q117 0 220 -28.5t180 -79.5t136.5 -122.5t91 -157 t43.5 -182.5t-7 -200zM469 705q-27 -170 51 -279t252 -109q188 0 310.5 113t150.5 299q27 170 -51 278.5t-252 108.5q-188 0 -309.5 -112.5t-151.5 -298.5zM1372 1851q15 -141 -52.5 -231t-182.5 -90q-54 0 -112 21.5t-102.5 43t-66.5 21.5q-32 0 -45 -30t-8 -44h-238 q-15 141 53 231.5t183 90.5q54 0 111.5 -21.5t102 -43t66.5 -21.5q32 0 45.5 30t8.5 43h237z" />
<glyph unicode="&#xd6;" horiz-adv-x="1662" d="M1616 694q-18 -117 -65.5 -224t-124 -198.5t-175.5 -159t-227.5 -105.5t-273.5 -38q-122 0 -227 28.5t-182 79.5t-135.5 122.5t-88 157t-40 182.5t8.5 200q18 117 65.5 224t124 198.5t175.5 159t227.5 105.5t273.5 38q117 0 220 -28.5t180 -79.5t136.5 -122.5t91 -157 t43.5 -182.5t-7 -200zM469 705q-27 -170 51 -279t252 -109q188 0 310.5 113t150.5 299q27 170 -51 278.5t-252 108.5q-188 0 -309.5 -112.5t-151.5 -298.5zM1393 1679q-9 -63 -63 -107t-120 -44q-78 0 -124.5 57t-34.5 139q11 63 63.5 107.5t118.5 44.5q78 0 125 -57.5 t35 -139.5zM942 1679q-9 -63 -62.5 -107t-119.5 -44q-78 0 -125 57t-35 139q11 63 63.5 107.5t118.5 44.5q78 0 125 -57.5t35 -139.5z" />
<glyph unicode="&#xd7;" horiz-adv-x="1056" d="M524 528l-295 -254l-163 189l294 254l-215 254l213 188l213 -254l295 254l164 -188l-293 -254l213 -254l-213 -189z" />
<glyph unicode="&#xd8;" horiz-adv-x="1662" d="M256 -98h-233l221 254q-104 107 -145 259.5t-13 323.5q18 117 65.5 224t124 198.5t175.5 159t227.5 105.5t273.5 38q206 0 361 -84l133 152h233l-225 -258q104 -107 147 -259.5t15 -320.5q-18 -117 -65.5 -224t-124 -198.5t-175.5 -159t-227.5 -105.5t-273.5 -38 q-211 0 -363 82zM469 705q-25 -148 35 -252l559 641q-58 22 -133 22q-188 0 -309.5 -112.5t-151.5 -298.5zM639 340q61 -23 133 -23q188 0 310.5 113t150.5 299q25 148 -35 252z" />
<glyph unicode="&#xd9;" horiz-adv-x="1531" d="M1165 1434h379l-141 -897q-20 -126 -70 -224.5t-118 -162.5t-156 -105.5t-180 -58.5t-195 -17q-95 0 -183 19t-168.5 64t-135 111t-78.5 167.5t-4 226.5l139 877h379l-139 -877q-22 -138 32.5 -194t178.5 -56q281 0 325 271zM1112 1556h-342l-178 308h383z" />
<glyph unicode="&#xda;" horiz-adv-x="1531" d="M1165 1434h379l-141 -897q-20 -126 -70 -224.5t-118 -162.5t-156 -105.5t-180 -58.5t-195 -17q-95 0 -183 19t-168.5 64t-135 111t-78.5 167.5t-4 226.5l139 877h379l-139 -877q-22 -138 32.5 -194t178.5 -56q281 0 325 271zM1036 1556h-354l231 308h396z" />
<glyph unicode="&#xdb;" horiz-adv-x="1531" d="M1165 1434h379l-141 -897q-20 -126 -70 -224.5t-118 -162.5t-156 -105.5t-180 -58.5t-195 -17q-95 0 -183 19t-168.5 64t-135 111t-78.5 167.5t-4 226.5l139 877h379l-139 -877q-22 -138 32.5 -194t178.5 -56q281 0 325 271zM788 1864h308l194 -328h-305l-63 113 l-101 -113h-329z" />
<glyph unicode="&#xdc;" horiz-adv-x="1531" d="M1165 1434h379l-141 -897q-20 -126 -70 -224.5t-118 -162.5t-156 -105.5t-180 -58.5t-195 -17q-95 0 -183 19t-168.5 64t-135 111t-78.5 167.5t-4 226.5l139 877h379l-139 -877q-22 -138 32.5 -194t178.5 -56q281 0 325 271zM1317 1679q-9 -63 -62.5 -107t-119.5 -44 q-78 0 -125 57t-35 139q11 63 63.5 107.5t118.5 44.5q78 0 125 -57.5t35 -139.5zM866 1679q-9 -63 -62.5 -107t-119.5 -44q-78 0 -125 57t-35 139q11 63 64 107.5t119 44.5q78 0 124.5 -57.5t34.5 -139.5z" />
<glyph unicode="&#xdd;" horiz-adv-x="1490" d="M838 0h-377l80 489l-410 945h414l223 -600l412 600h446l-708 -945zM1028 1556h-354l231 308h395z" />
<glyph unicode="&#xde;" horiz-adv-x="1368" d="M612 1208h181q98 0 183.5 -15.5t162.5 -53.5t127.5 -95.5t72.5 -147t4 -202.5q-17 -108 -58 -189t-101 -134t-143.5 -86t-177 -46.5t-210.5 -13.5h-196l-37 -225h-379l227 1434h379zM508 553h199q106 0 172 39t82 137q12 81 -40 116.5t-137 35.5h-225z" />
<glyph unicode="&#xdf;" horiz-adv-x="1198" d="M1116 246q-15 -91 -77.5 -155.5t-148 -93t-185.5 -28.5q-148 0 -254 54l38 251q60 -36 146 -36q56 0 93 25t42 59q5 31 -17.5 69.5t-57.5 78t-69 82t-54.5 96t-12.5 106.5q8 48 37.5 95t61 79.5t62 75t40.5 81.5q13 57 -13.5 85t-72.5 28q-59 0 -99 -34.5t-49 -90.5 l-170 -1073h-348l160 1006q36 228 163.5 342.5t356.5 115.5q111 1 197 -31.5t132 -84t66 -110.5t11 -116q-9 -55 -44.5 -110.5t-73 -93t-70.5 -81.5t-38 -79q-5 -31 23 -69.5t69.5 -80t82 -91t63.5 -120.5t10 -151z" />
<glyph unicode="&#xe0;" d="M788 133q-50 -73 -136.5 -118.5t-205.5 -45.5q-80 0 -147 22t-113.5 60.5t-81.5 90.5t-50 112.5t-20.5 127t7.5 132.5q15 94 56 180.5t106.5 159.5t163 116.5t213.5 43.5q121 0 202.5 -55.5t116.5 -135.5l25 160h307l-156 -983h-307zM391 481q-9 -55 3 -104t52.5 -85 t106.5 -36q76 0 136.5 37.5t98.5 93.5l37 223q-12 52 -56.5 84.5t-109.5 32.5q-111 0 -181.5 -71.5t-86.5 -174.5zM915 1126h-342l-178 308h383z" />
<glyph unicode="&#xe1;" d="M788 133q-50 -73 -136.5 -118.5t-205.5 -45.5q-80 0 -147 22t-113.5 60.5t-81.5 90.5t-50 112.5t-20.5 127t7.5 132.5q15 94 56 180.5t106.5 159.5t163 116.5t213.5 43.5q121 0 202.5 -55.5t116.5 -135.5l25 160h307l-156 -983h-307zM391 481q-9 -55 3 -104t52.5 -85 t106.5 -36q76 0 136.5 37.5t98.5 93.5l37 223q-12 52 -56.5 84.5t-109.5 32.5q-111 0 -181.5 -71.5t-86.5 -174.5zM840 1126h-355l232 308h395z" />
<glyph unicode="&#xe2;" d="M788 133q-50 -73 -136.5 -118.5t-205.5 -45.5q-80 0 -147 22t-113.5 60.5t-81.5 90.5t-50 112.5t-20.5 127t7.5 132.5q15 94 56 180.5t106.5 159.5t163 116.5t213.5 43.5q121 0 202.5 -55.5t116.5 -135.5l25 160h307l-156 -983h-307zM391 481q-9 -55 3 -104t52.5 -85 t106.5 -36q76 0 136.5 37.5t98.5 93.5l37 223q-12 52 -56.5 84.5t-109.5 32.5q-111 0 -181.5 -71.5t-86.5 -174.5zM592 1434h307l195 -328h-306l-63 113l-100 -113h-330z" />
<glyph unicode="&#xe3;" d="M788 133q-50 -73 -136.5 -118.5t-205.5 -45.5q-80 0 -147 22t-113.5 60.5t-81.5 90.5t-50 112.5t-20.5 127t7.5 132.5q15 94 56 180.5t106.5 159.5t163 116.5t213.5 43.5q121 0 202.5 -55.5t116.5 -135.5l25 160h307l-156 -983h-307zM391 481q-9 -55 3 -104t52.5 -85 t106.5 -36q76 0 136.5 37.5t98.5 93.5l37 223q-12 52 -56.5 84.5t-109.5 32.5q-111 0 -181.5 -71.5t-86.5 -174.5zM1100 1421q15 -141 -53 -231t-183 -90q-54 0 -111.5 21.5t-102 43t-66.5 21.5q-32 0 -45.5 -30.5t-8.5 -43.5h-237q-15 141 52.5 231.5t182.5 90.5 q54 0 112 -21.5t102.5 -43t66.5 -21.5q32 0 45 30t8 43h238z" />
<glyph unicode="&#xe4;" d="M788 133q-50 -73 -136.5 -118.5t-205.5 -45.5q-80 0 -147 22t-113.5 60.5t-81.5 90.5t-50 112.5t-20.5 127t7.5 132.5q15 94 56 180.5t106.5 159.5t163 116.5t213.5 43.5q121 0 202.5 -55.5t116.5 -135.5l25 160h307l-156 -983h-307zM391 481q-9 -55 3 -104t52.5 -85 t106.5 -36q76 0 136.5 37.5t98.5 93.5l37 223q-12 52 -56.5 84.5t-109.5 32.5q-111 0 -181.5 -71.5t-86.5 -174.5zM1120 1249q-9 -63 -62.5 -107t-119.5 -44q-78 0 -125 57t-35 139q11 63 64 107.5t119 44.5q78 0 124.5 -57.5t34.5 -139.5zM670 1249q-9 -63 -63 -107 t-120 -44q-78 0 -124.5 57t-34.5 139q11 63 63.5 107.5t118.5 44.5q78 0 125 -57.5t35 -139.5z" />
<glyph unicode="&#xe5;" d="M788 133q-50 -73 -136.5 -118.5t-205.5 -45.5q-80 0 -147 22t-113.5 60.5t-81.5 90.5t-50 112.5t-20.5 127t7.5 132.5q15 94 56 180.5t106.5 159.5t163 116.5t213.5 43.5q121 0 202.5 -55.5t116.5 -135.5l25 160h307l-156 -983h-307zM391 481q-9 -55 3 -104t52.5 -85 t106.5 -36q76 0 136.5 37.5t98.5 93.5l37 223q-12 52 -56.5 84.5t-109.5 32.5q-111 0 -181.5 -71.5t-86.5 -174.5zM991 1300q-18 -111 -99 -173t-187 -62t-182.5 78t-57.5 203q18 106 100.5 168.5t186.5 62.5q106 0 182 -77.5t57 -199.5zM655 1327q-4 -37 15 -57.5t51 -20.5 q31 0 53.5 17.5t26.5 48.5q6 35 -14 56.5t-52 21.5q-29 0 -52.5 -17.5t-27.5 -48.5z" />
<glyph unicode="&#xe6;" horiz-adv-x="1935" d="M791 135q-50 -74 -136.5 -120t-205.5 -46q-80 0 -147 22t-113.5 60.5t-81.5 91t-50.5 113.5t-21 127.5t7.5 132.5q12 74 40 144.5t74.5 135t106.5 113t142.5 77t175.5 28.5q121 0 202.5 -55t116.5 -134l25 158h286l-24 -152q57 95 147 139t187 44q125 1 210 -55 t118.5 -147t30 -201.5t-45.5 -223.5h-668q31 -151 297 -151q166 0 287 59l-41 -266q-73 -30 -133 -45t-141 -15q-262 0 -357 176l-22 -145h-287zM391 481q-9 -55 3 -104t52.5 -85t106.5 -36q76 0 136.5 37.5t98.5 93.5l37 223q-12 52 -56.5 84.5t-109.5 32.5 q-111 0 -181.5 -71.5t-86.5 -174.5zM1419 762q-89 0 -138 -45.5t-62 -120.5h331q6 18 6 39t-7 44t-22 41t-43 30t-65 12z" />
<glyph unicode="&#xe7;" horiz-adv-x="1009" d="M944 657q-100 62 -231 62q-120 0 -211 -60.5t-109 -179.5q-16 -107 47.5 -160t171.5 -53q149 0 291 66l-47 -301q-113 -49 -244 -58l-28 -63q179 -29 151 -209q-8 -50 -41 -87t-81 -56.5t-97 -29t-100 -9.5q-133 0 -226 37l31 198q61 -33 154 -33q113 0 121 54 q6 34 -41 47t-121 4l55 158q-87 17 -157 57t-120.5 102.5t-70.5 155t-2 205.5q17 108 64.5 196.5t111.5 146t143.5 96.5t158 56t157.5 17q182 0 315 -80z" />
<glyph unicode="&#xe8;" horiz-adv-x="1114" d="M41 518q15 105 57.5 190.5t100 141t128.5 93.5t141.5 54.5t141.5 16.5q119 0 209.5 -37t142.5 -99t76 -143t17.5 -170t-39.5 -178h-647q16 -79 91 -115t185 -36q190 0 307 57l-41 -266q-141 -58 -356 -58q-122 0 -224.5 38t-173.5 107t-103 173.5t-13 230.5zM731 596 q6 18 6 39t-7 44t-22 41t-43 30t-65 12q-77 0 -133 -48t-68 -118h332zM842 1106h-342l-178 307h383z" />
<glyph unicode="&#xe9;" horiz-adv-x="1114" d="M41 518q15 105 57.5 190.5t100 141t128.5 93.5t141.5 54.5t141.5 16.5q119 0 209.5 -37t142.5 -99t76 -143t17.5 -170t-39.5 -178h-647q16 -79 91 -115t185 -36q190 0 307 57l-41 -266q-141 -58 -356 -58q-122 0 -224.5 38t-173.5 107t-103 173.5t-13 230.5zM731 596 q6 18 6 39t-7 44t-22 41t-43 30t-65 12q-77 0 -133 -48t-68 -118h332zM766 1106h-354l231 307h395z" />
<glyph unicode="&#xea;" horiz-adv-x="1114" d="M41 518q15 105 57.5 190.5t100 141t128.5 93.5t141.5 54.5t141.5 16.5q119 0 209.5 -37t142.5 -99t76 -143t17.5 -170t-39.5 -178h-647q16 -79 91 -115t185 -36q190 0 307 57l-41 -266q-141 -58 -356 -58q-122 0 -224.5 38t-173.5 107t-103 173.5t-13 230.5zM731 596 q6 18 6 39t-7 44t-22 41t-43 30t-65 12q-77 0 -133 -48t-68 -118h332zM518 1413h307l195 -328h-305l-64 113l-100 -113h-330z" />
<glyph unicode="&#xeb;" horiz-adv-x="1114" d="M41 518q15 105 57.5 190.5t100 141t128.5 93.5t141.5 54.5t141.5 16.5q119 0 209.5 -37t142.5 -99t76 -143t17.5 -170t-39.5 -178h-647q16 -79 91 -115t185 -36q190 0 307 57l-41 -266q-141 -58 -356 -58q-122 0 -224.5 38t-173.5 107t-103 173.5t-13 230.5zM731 596 q6 18 6 39t-7 44t-22 41t-43 30t-65 12q-77 0 -133 -48t-68 -118h332zM1047 1229q-9 -63 -63 -107.5t-120 -44.5q-78 0 -124.5 57.5t-34.5 139.5q11 63 63.5 107t118.5 44q78 0 125 -57t35 -139zM596 1229q-9 -63 -62.5 -107.5t-119.5 -44.5q-78 0 -125 57.5t-35 139.5 q11 63 63.5 107t118.5 44q78 0 125 -57t35 -139z" />
<glyph unicode="&#xec;" horiz-adv-x="561" d="M541 1106h-342l-117 307h383zM360 0h-348l156 983h348z" />
<glyph unicode="&#xed;" horiz-adv-x="561" d="M360 0h-348l156 983h348zM506 1106h-354l231 307h395z" />
<glyph unicode="&#xee;" horiz-adv-x="561" d="M360 0h-348l156 983h348zM311 1085h-309l256 328h307l154 -328h-305l-33 113z" />
<glyph unicode="&#xef;" horiz-adv-x="561" d="M360 0h-348l156 983h348zM346 1231q-9 -60 -59 -102t-113 -42q-74 0 -117.5 54.5t-31.5 130.5q9 60 59 101.5t113 41.5q74 0 117.5 -54t31.5 -130zM756 1231q-9 -60 -59 -102t-113 -42q-74 0 -118 54.5t-32 130.5q11 60 60 101.5t112 41.5q74 0 118 -54t32 -130z" />
<glyph unicode="&#xf0;" horiz-adv-x="1185" d="M1114 551q-27 -159 -85 -274.5t-140 -181.5t-176.5 -96t-206.5 -30q-107 0 -199 33.5t-158 95t-97.5 156t-16.5 209.5q27 203 156 315.5t305 112.5q97 0 178.5 -38.5t130.5 -117.5q8 44 4 103q-9 172 -129 274l-180 -160l-131 152l116 96q-72 19 -176 19l23 245 q198 0 368 -67l168 145l133 -151l-116 -101q142 -111 205.5 -304.5t23.5 -434.5zM389 440q-10 -88 29 -136t121 -48t134 48.5t62 135.5q11 88 -28 136.5t-121 48.5t-134.5 -49t-62.5 -136z" />
<glyph unicode="&#xf1;" horiz-adv-x="1208" d="M453 870q76 70 166 107t176 37q120 0 200.5 -57.5t110.5 -149.5t12 -201l-96 -606h-348l90 573q13 74 -17 109t-92 35q-101 0 -200 -94l-99 -623h-348l156 983h307zM1094 1401q15 -141 -53 -231.5t-183 -90.5q-54 0 -111.5 21.5t-102 43t-66.5 21.5q-32 0 -45.5 -30 t-8.5 -43h-237q-15 141 52.5 231t182.5 90q54 0 112 -21.5t102.5 -43t66.5 -21.5q32 0 45 30t8 44h238z" />
<glyph unicode="&#xf2;" horiz-adv-x="1216" d="M1141 459q-19 -121 -80.5 -217.5t-148 -154.5t-185 -88t-201.5 -30q-115 0 -211.5 37t-165 105t-98 175t-8.5 238q19 122 77.5 217.5t143 154t185 88.5t210.5 30q108 0 203 -37t165.5 -105t102.5 -175.5t11 -237.5zM393 489q-8 -37 -1.5 -75t22 -68.5t52 -50t89.5 -19.5 q100 0 160 60t76 158q8 37 1.5 74.5t-21 68.5t-50.5 50.5t-88 19.5q-101 0 -162.5 -60.5t-77.5 -157.5zM891 1085h-342l-178 308h383z" />
<glyph unicode="&#xf3;" horiz-adv-x="1216" d="M1141 459q-19 -121 -80.5 -217.5t-148 -154.5t-185 -88t-201.5 -30q-115 0 -211.5 37t-165 105t-98 175t-8.5 238q19 122 77.5 217.5t143 154t185 88.5t210.5 30q108 0 203 -37t165.5 -105t102.5 -175.5t11 -237.5zM393 489q-8 -37 -1.5 -75t22 -68.5t52 -50t89.5 -19.5 q100 0 160 60t76 158q8 37 1.5 74.5t-21 68.5t-50.5 50.5t-88 19.5q-101 0 -162.5 -60.5t-77.5 -157.5zM815 1085h-354l231 308h395z" />
<glyph unicode="&#xf4;" horiz-adv-x="1216" d="M1141 459q-19 -121 -80.5 -217.5t-148 -154.5t-185 -88t-201.5 -30q-115 0 -211.5 37t-165 105t-98 175t-8.5 238q19 122 77.5 217.5t143 154t185 88.5t210.5 30q108 0 203 -37t165.5 -105t102.5 -175.5t11 -237.5zM393 489q-8 -37 -1.5 -75t22 -68.5t52 -50t89.5 -19.5 q100 0 160 60t76 158q8 37 1.5 74.5t-21 68.5t-50.5 50.5t-88 19.5q-101 0 -162.5 -60.5t-77.5 -157.5zM567 1393h307l195 -328h-305l-64 113l-100 -113h-330z" />
<glyph unicode="&#xf5;" horiz-adv-x="1216" d="M1141 459q-19 -121 -80.5 -217.5t-148 -154.5t-185 -88t-201.5 -30q-115 0 -211.5 37t-165 105t-98 175t-8.5 238q19 122 77.5 217.5t143 154t185 88.5t210.5 30q108 0 203 -37t165.5 -105t102.5 -175.5t11 -237.5zM393 489q-8 -37 -1.5 -75t22 -68.5t52 -50t89.5 -19.5 q100 0 160 60t76 158q8 37 1.5 74.5t-21 68.5t-50.5 50.5t-88 19.5q-101 0 -162.5 -60.5t-77.5 -157.5zM1075 1380q15 -141 -52.5 -231t-182.5 -90q-54 0 -112 21.5t-102.5 43t-66.5 21.5q-32 0 -45 -30t-8 -44h-238q-15 141 53 231.5t183 90.5q54 0 111.5 -21.5t102 -43 t66.5 -21.5q32 0 45.5 30t8.5 43h237z" />
<glyph unicode="&#xf6;" horiz-adv-x="1216" d="M1141 459q-19 -121 -80.5 -217.5t-148 -154.5t-185 -88t-201.5 -30q-115 0 -211.5 37t-165 105t-98 175t-8.5 238q19 122 77.5 217.5t143 154t185 88.5t210.5 30q108 0 203 -37t165.5 -105t102.5 -175.5t11 -237.5zM393 489q-8 -37 -1.5 -75t22 -68.5t52 -50t89.5 -19.5 q100 0 160 60t76 158q8 37 1.5 74.5t-21 68.5t-50.5 50.5t-88 19.5q-101 0 -162.5 -60.5t-77.5 -157.5zM1096 1208q-9 -63 -63 -107t-120 -44q-78 0 -124.5 57t-34.5 139q11 63 63.5 107.5t118.5 44.5q78 0 125 -57.5t35 -139.5zM645 1208q-9 -63 -62.5 -107t-119.5 -44 q-78 0 -125 57t-35 139q11 63 63.5 107.5t118.5 44.5q78 0 125 -57.5t35 -139.5z" />
<glyph unicode="&#xf7;" horiz-adv-x="1114" d="M1044 573h-983l48 287h983zM711 238q-14 -91 -75.5 -136t-146.5 -45q-96 0 -152 58t-38 168q14 90 76 134t145 44q97 0 152 -57t39 -166zM854 1153q-14 -91 -75 -135.5t-146 -44.5q-96 0 -151.5 57.5t-37.5 167.5q14 90 76 134t146 44q97 0 151.5 -57t36.5 -166z" />
<glyph unicode="&#xf8;" horiz-adv-x="1216" d="M1137 1112l-156 -199q96 -73 140 -188.5t20 -265.5q-19 -121 -80.5 -217.5t-148 -154.5t-185 -88t-201.5 -30q-140 0 -245 51l-117 -149h-117l154 197q-96 70 -139 186.5t-19 269.5q19 122 77.5 217.5t143 154t185 88.5t210.5 30q133 0 242 -53l119 151h117zM633 707 q-101 0 -162.5 -60.5t-77.5 -157.5q-14 -91 23 -147l278 356q-36 9 -61 9zM555 276q100 0 160 60t76 158q14 90 -23 149l-279 -356q33 -11 66 -11z" />
<glyph unicode="&#xf9;" horiz-adv-x="1210" d="M819 983h348l-155 -983h-307l18 113q-132 -144 -320 -144q-125 0 -210.5 58t-118.5 151t-15 205l95 600h348l-90 -573q-11 -74 19 -109t91 -35q60 0 113 28t86 66zM903 1106h-342l-178 307h383z" />
<glyph unicode="&#xfa;" horiz-adv-x="1210" d="M819 983h348l-155 -983h-307l18 113q-132 -144 -320 -144q-125 0 -210.5 58t-118.5 151t-15 205l95 600h348l-90 -573q-11 -74 19 -109t91 -35q60 0 113 28t86 66zM827 1106h-354l232 307h395z" />
<glyph unicode="&#xfb;" horiz-adv-x="1210" d="M819 983h348l-155 -983h-307l18 113q-132 -144 -320 -144q-125 0 -210.5 58t-118.5 151t-15 205l95 600h348l-90 -573q-11 -74 19 -109t91 -35q60 0 113 28t86 66zM580 1413h307l194 -328h-305l-63 113l-101 -113h-329z" />
<glyph unicode="&#xfc;" horiz-adv-x="1210" d="M819 983h348l-155 -983h-307l18 113q-132 -144 -320 -144q-125 0 -210.5 58t-118.5 151t-15 205l95 600h348l-90 -573q-11 -74 19 -109t91 -35q60 0 113 28t86 66zM1108 1229q-9 -63 -62.5 -107.5t-119.5 -44.5q-78 0 -125 57.5t-35 139.5q11 63 63.5 107t118.5 44 q78 0 125 -57t35 -139zM657 1229q-9 -63 -62.5 -107.5t-119.5 -44.5q-78 0 -125 57.5t-35 139.5q11 63 64 107t119 44q78 0 124.5 -57t34.5 -139z" />
<glyph unicode="&#xfd;" horiz-adv-x="1179" d="M573 406l244 577h410l-580 -1094q-57 -108 -117.5 -181.5t-124.5 -113t-125 -55.5t-133 -16q-105 0 -198 37l45 284q61 -24 121 -24q79 0 131.5 50t113.5 163l-301 950h369zM784 1106h-354l232 307h395z" />
<glyph unicode="&#xfe;" horiz-adv-x="1271" d="M285 -451h-348l299 1885h348l-84 -525q121 105 295 105q89 0 163.5 -31t123 -84t81.5 -123t39 -148t-4 -159q-11 -74 -38.5 -145t-74 -135.5t-106 -113t-142 -77.5t-175.5 -29q-196 0 -291 129zM414 367q14 -48 58.5 -79.5t107.5 -31.5q110 0 181 72.5t87 175.5 q9 55 -3 103.5t-52.5 84t-106.5 35.5q-72 0 -134.5 -39.5t-100.5 -95.5z" />
<glyph unicode="&#xff;" horiz-adv-x="1179" d="M573 406l244 577h410l-580 -1094q-57 -108 -117.5 -181.5t-124.5 -113t-125 -55.5t-133 -16q-105 0 -198 37l45 284q61 -24 121 -24q79 0 131.5 50t113.5 163l-301 950h369zM1065 1229q-9 -63 -62.5 -107.5t-119.5 -44.5q-78 0 -125 57.5t-35 139.5q11 63 63.5 107 t118.5 44q78 0 125 -57t35 -139zM614 1229q-9 -63 -62.5 -107.5t-119.5 -44.5q-78 0 -125 57.5t-35 139.5q11 63 64 107t119 44q78 0 124.5 -57t34.5 -139z" />
<glyph unicode="&#x100;" horiz-adv-x="1538" d="M1442 0h-381l-47 225h-594l-117 -225h-397l790 1434h410zM793 938l-211 -406h368l-78 402q-13 65 -16 158q-36 -105 -63 -154zM631 1839h696l-43 -266h-696z" />
<glyph unicode="&#x101;" d="M788 133q-50 -73 -136.5 -118.5t-205.5 -45.5q-80 0 -147 22t-113.5 60.5t-81.5 90.5t-50 112.5t-20.5 127t7.5 132.5q15 94 56 180.5t106.5 159.5t163 116.5t213.5 43.5q121 0 202.5 -55.5t116.5 -135.5l25 160h307l-156 -983h-307zM391 481q-9 -55 3 -104t52.5 -85 t106.5 -36q76 0 136.5 37.5t98.5 93.5l37 223q-12 52 -56.5 84.5t-109.5 32.5q-111 0 -181.5 -71.5t-86.5 -174.5zM399 1409h697l-43 -266h-697z" />
<glyph unicode="&#x102;" horiz-adv-x="1538" d="M1442 0h-381l-47 225h-594l-117 -225h-397l790 1434h410zM793 938l-211 -406h368l-78 402q-13 65 -16 158q-36 -105 -63 -154zM1272 1597q-78 -48 -155 -71t-185 -23q-209 0 -336 94l41 258q71 -48 146 -67t169 -19q208 0 361 86z" />
<glyph unicode="&#x103;" d="M788 133q-50 -73 -136.5 -118.5t-205.5 -45.5q-80 0 -147 22t-113.5 60.5t-81.5 90.5t-50 112.5t-20.5 127t7.5 132.5q15 94 56 180.5t106.5 159.5t163 116.5t213.5 43.5q121 0 202.5 -55.5t116.5 -135.5l25 160h307l-156 -983h-307zM391 481q-9 -55 3 -104t52.5 -85 t106.5 -36q76 0 136.5 37.5t98.5 93.5l37 223q-12 52 -56.5 84.5t-109.5 32.5q-111 0 -181.5 -71.5t-86.5 -174.5zM1040 1167q-78 -48 -155 -71t-185 -23q-208 0 -335 94l41 258q71 -48 146 -67t169 -19q207 0 360 86z" />
<glyph unicode="&#x104;" horiz-adv-x="1540" d="M1444 0q-67 -39 -112.5 -92t-45.5 -90q0 -43 57 -43q31 0 68 16l-37 -235q-75 -37 -174 -37q-124 0 -184.5 68.5t-42.5 170.5q11 61 58.5 124.5t129.5 117.5h-98l-47 225h-594l-117 -225h-397l790 1434h410zM795 938l-211 -406h368l-78 402q-13 65 -16 158 q-36 -105 -63 -154z" />
<glyph unicode="&#x105;" d="M1231 983l-156 -983q-67 -39 -112 -92t-45 -90q0 -43 57 -43q30 0 67 16l-36 -235q-75 -37 -175 -37q-124 0 -184.5 68.5t-42.5 170.5q25 133 189 242h-25l20 133q-50 -73 -136.5 -118.5t-205.5 -45.5q-80 0 -147 22t-113.5 60.5t-81.5 90.5t-50 112.5t-20.5 127 t7.5 132.5q15 94 56 180.5t106.5 159.5t163 116.5t213.5 43.5q121 0 202.5 -55.5t116.5 -135.5l25 160h307zM553 256q76 0 136.5 37.5t98.5 93.5l37 223q-12 52 -56.5 84.5t-109.5 32.5q-111 0 -181.5 -71.5t-86.5 -174.5q-9 -55 3 -104t52.5 -85t106.5 -36z" />
<glyph unicode="&#x106;" horiz-adv-x="1337" d="M86 739q23 147 89.5 270t156.5 205.5t199.5 140t218 83.5t213.5 26q238 0 413 -106l-53 -334q-56 51 -138.5 80t-174.5 29q-68 0 -134.5 -13.5t-134.5 -45.5t-122.5 -80t-95 -122.5t-54.5 -166.5q-16 -97 9.5 -176t80.5 -127t127.5 -73.5t155.5 -25.5q106 0 209.5 33 t187.5 90l-59 -371q-182 -86 -412 -86q-117 0 -225.5 29t-202.5 91.5t-159 151.5t-92 217.5t-3 280.5zM1104 1556h-354l231 308h395z" />
<glyph unicode="&#x107;" horiz-adv-x="1009" d="M39 504q17 108 64.5 196.5t111.5 146t143.5 96.5t158 56t157.5 17q182 0 315 -80l-45 -279q-100 62 -231 62q-120 0 -211 -60.5t-109 -179.5q-16 -107 47.5 -160t171.5 -53q149 0 291 66l-47 -301q-144 -62 -330 -62q-87 0 -165.5 19.5t-145.5 62t-112 104t-63 151.5 t-1 198zM778 1106h-354l231 307h396z" />
<glyph unicode="&#x10a;" horiz-adv-x="1337" d="M86 739q23 147 89.5 270t156.5 205.5t199.5 140t218 83.5t213.5 26q238 0 413 -106l-53 -334q-56 51 -138.5 80t-174.5 29q-68 0 -134.5 -13.5t-134.5 -45.5t-122.5 -80t-95 -122.5t-54.5 -166.5q-16 -97 9.5 -176t80.5 -127t127.5 -73.5t155.5 -25.5q106 0 209.5 33 t187.5 90l-59 -371q-182 -86 -412 -86q-117 0 -225.5 29t-202.5 91.5t-159 151.5t-92 217.5t-3 280.5zM1169 1710q-13 -83 -68 -122.5t-132 -39.5q-89 0 -139.5 53t-34.5 154q13 81 68.5 121.5t131.5 40.5q89 0 139.5 -54t34.5 -153z" />
<glyph unicode="&#x10b;" horiz-adv-x="1009" d="M39 504q17 108 64.5 196.5t111.5 146t143.5 96.5t158 56t157.5 17q182 0 315 -80l-45 -279q-100 62 -231 62q-120 0 -211 -60.5t-109 -179.5q-16 -107 47.5 -160t171.5 -53q149 0 291 66l-47 -301q-144 -62 -330 -62q-87 0 -165.5 19.5t-145.5 62t-112 104t-63 151.5 t-1 198zM844 1260q-13 -83 -68.5 -122.5t-132.5 -39.5q-89 0 -139.5 53t-34.5 154q13 81 68.5 121t132.5 40q89 0 139.5 -53.5t34.5 -152.5z" />
<glyph unicode="&#x10c;" horiz-adv-x="1337" d="M86 739q23 147 89.5 270t156.5 205.5t199.5 140t218 83.5t213.5 26q238 0 413 -106l-53 -334q-56 51 -138.5 80t-174.5 29q-68 0 -134.5 -13.5t-134.5 -45.5t-122.5 -80t-95 -122.5t-54.5 -166.5q-16 -97 9.5 -176t80.5 -127t127.5 -73.5t155.5 -25.5q106 0 209.5 33 t187.5 90l-59 -371q-182 -86 -412 -86q-117 0 -225.5 29t-202.5 91.5t-159 151.5t-92 217.5t-3 280.5zM1438 1884l-318 -328h-307l-215 328h307l80 -133l127 133h326z" />
<glyph unicode="&#x10d;" horiz-adv-x="1009" d="M39 504q17 108 64.5 196.5t111.5 146t143.5 96.5t158 56t157.5 17q182 0 315 -80l-45 -279q-100 62 -231 62q-120 0 -211 -60.5t-109 -179.5q-16 -107 47.5 -160t171.5 -53q149 0 291 66l-47 -301q-144 -62 -330 -62q-87 0 -165.5 19.5t-145.5 62t-112 104t-63 151.5 t-1 198zM1112 1434l-317 -328h-308l-215 328h308l79 -134l127 134h326z" />
<glyph unicode="&#x10e;" horiz-adv-x="1521" d="M268 1434h563q240 0 398.5 -96t218 -261.5t25.5 -382.5q-25 -155 -88 -280t-164 -218.5t-248.5 -144.5t-331.5 -51h-600zM1090 739q30 188 -44.5 277.5t-248.5 89.5h-203l-123 -778h184q175 0 289.5 103t145.5 308zM1313 1884l-318 -328h-307l-215 328h307l80 -133 l127 133h326z" />
<glyph unicode="&#x10f;" horiz-adv-x="1271" d="M1417 1434h309l-139 -433h-268zM954 1434h349l-228 -1434h-307l20 131q-47 -72 -134.5 -117t-207.5 -45q-80 0 -147 22t-113.5 60.5t-81.5 90.5t-50 112.5t-20.5 127t7.5 132.5q12 74 40.5 145t76 135.5t108 113t142 77.5t172.5 29q96 0 170 -38.5t114 -101.5zM825 618 q-16 46 -60.5 77.5t-105.5 31.5q-111 0 -181.5 -71t-86.5 -177q-9 -55 3 -103.5t52.5 -84t106.5 -35.5q77 0 137.5 37.5t97.5 95.5z" />
<glyph unicode="&#x110;" horiz-adv-x="1550" d="M297 1434h563q181 0 316.5 -55t214.5 -154t107.5 -234t2.5 -297q-25 -155 -88 -280t-163.5 -218.5t-248 -144.5t-331.5 -51h-600l92 584h-142l43 266h142zM684 328q175 0 289 103t145 308q30 188 -44.5 277.5t-248.5 89.5h-202l-41 -256h260l-43 -266h-258l-41 -256h184z " />
<glyph unicode="&#x111;" horiz-adv-x="1271" d="M1282 1307h123l-33 -205h-123l-174 -1102h-307l20 131q-47 -72 -134.5 -117t-207.5 -45q-80 0 -147 22t-113.5 60.5t-81.5 90.5t-50 112.5t-20.5 127t7.5 132.5q12 74 40.5 145t76 135.5t108 113t142 77.5t172.5 29q96 0 170 -38.5t114 -101.5l37 228h-225l33 205h225 l20 127h349zM553 256q77 0 137.5 37.5t97.5 95.5l37 229q-16 46 -60.5 77.5t-105.5 31.5q-111 0 -181.5 -71t-86.5 -177q-9 -55 3 -103.5t52.5 -84t106.5 -35.5z" />
<glyph unicode="&#x112;" horiz-adv-x="1261" d="M268 1434h1032l-51 -328h-655l-35 -219h594l-51 -326h-594l-37 -233h666l-52 -328h-1044zM502 1839h696l-43 -266h-696z" />
<glyph unicode="&#x113;" horiz-adv-x="1114" d="M41 518q15 105 57.5 190.5t100 141t128.5 93.5t141.5 54.5t141.5 16.5q119 0 209.5 -37t142.5 -99t76 -143t17.5 -170t-39.5 -178h-647q16 -79 91 -115t185 -36q190 0 307 57l-41 -266q-141 -58 -356 -58q-122 0 -224.5 38t-173.5 107t-103 173.5t-13 230.5zM731 596 q6 18 6 39t-7 44t-22 41t-43 30t-65 12q-77 0 -133 -48t-68 -118h332zM326 1389h696l-43 -267h-696z" />
<glyph unicode="&#x116;" horiz-adv-x="1261" d="M268 1434h1032l-51 -328h-655l-35 -219h594l-51 -326h-594l-37 -233h666l-52 -328h-1044zM1008 1710q-13 -83 -68.5 -122.5t-132.5 -39.5q-89 0 -139.5 53t-34.5 154q13 81 69 121.5t132 40.5q89 0 139.5 -54t34.5 -153z" />
<glyph unicode="&#x117;" horiz-adv-x="1114" d="M41 518q15 105 57.5 190.5t100 141t128.5 93.5t141.5 54.5t141.5 16.5q119 0 209.5 -37t142.5 -99t76 -143t17.5 -170t-39.5 -178h-647q16 -79 91 -115t185 -36q190 0 307 57l-41 -266q-141 -58 -356 -58q-122 0 -224.5 38t-173.5 107t-103 173.5t-13 230.5zM731 596 q6 18 6 39t-7 44t-22 41t-43 30t-65 12q-77 0 -133 -48t-68 -118h332zM831 1260q-13 -83 -68 -122.5t-132 -39.5q-89 0 -139.5 53t-34.5 154q13 81 68 121t132 40q89 0 139.5 -53.5t34.5 -152.5z" />
<glyph unicode="&#x118;" horiz-adv-x="1261" d="M1300 1434l-51 -328h-655l-35 -219h594l-51 -326h-594l-37 -233h666l-52 -328q-67 -39 -112 -92t-45 -90q0 -43 57 -43q31 0 68 16l-37 -235q-75 -37 -174 -37q-124 0 -185 68.5t-43 170.5q25 133 189 242h-762l227 1434h1032z" />
<glyph unicode="&#x119;" horiz-adv-x="1116" d="M799 -444q-75 -37 -174 -37q-124 0 -185 68.5t-43 170.5q10 53 53.5 109.5t118.5 101.5h-14q-122 0 -224.5 38t-173.5 107t-103 173.5t-13 230.5q15 105 57.5 190.5t100 141t128.5 93.5t141.5 54.5t141.5 16.5q119 0 209.5 -37t142.5 -99t76 -143t17.5 -170t-39.5 -178 h-647q16 -79 91 -115t185 -36q190 0 307 57l-41 -266q-99 -60 -149.5 -115t-50.5 -94q0 -43 57 -43q31 0 68 16zM600 762q-77 0 -133 -48t-68 -118h332q6 18 6 39t-7 44t-22 41t-43 30t-65 12z" />
<glyph unicode="&#x11a;" horiz-adv-x="1261" d="M268 1434h1032l-51 -328h-655l-35 -219h594l-51 -326h-594l-37 -233h666l-52 -328h-1044zM1276 1884l-318 -328h-307l-215 328h307l80 -133l127 133h326z" />
<glyph unicode="&#x11b;" horiz-adv-x="1114" d="M41 518q15 105 57.5 190.5t100 141t128.5 93.5t141.5 54.5t141.5 16.5q119 0 209.5 -37t142.5 -99t76 -143t17.5 -170t-39.5 -178h-647q16 -79 91 -115t185 -36q190 0 307 57l-41 -266q-141 -58 -356 -58q-122 0 -224.5 38t-173.5 107t-103 173.5t-13 230.5zM731 596 q6 18 6 39t-7 44t-22 41t-43 30t-65 12q-77 0 -133 -48t-68 -118h332zM1100 1434l-318 -328h-307l-215 328h307l80 -134l127 134h326z" />
<glyph unicode="&#x11e;" horiz-adv-x="1427" d="M88 739q24 151 89 275t153 206t198 138.5t222 81t227 24.5q248 0 438 -94l-53 -342q-123 102 -354 102q-86 0 -170.5 -26t-161 -76.5t-132 -137t-73.5 -196.5q-8 -64 -7.5 -115.5t16 -91.5t35 -69.5t49.5 -51t59 -35.5t64.5 -22t65.5 -11t62 -3q71 0 117 14l76 479h358 l-115 -725q-224 -94 -473 -94q-127 0 -239.5 29t-207.5 89t-156.5 151.5t-87 216.5t0.5 284zM1319 1597q-78 -48 -155 -71t-185 -23q-209 0 -336 94l41 258q71 -48 146 -67t169 -19q208 0 361 86z" />
<glyph unicode="&#x11f;" d="M1081 31q-21 -135 -81.5 -236.5t-148 -160t-189.5 -87t-218 -28.5q-243 0 -430 98l45 285q150 -97 351 -97q128 0 216 54t107 172l10 65q-34 -50 -109 -88.5t-188 -38.5q-80 0 -147 22t-113.5 60.5t-81.5 90.5t-50 112.5t-20.5 127t7.5 132.5q12 74 40.5 145t76 135.5 t108 113t142 77.5t172.5 29q226 0 317 -174l27 143h307zM391 479q-9 -55 3 -103.5t52.5 -84t106.5 -35.5q77 0 137.5 37.5t97.5 95.5l37 229q-16 46 -60.5 77.5t-105.5 31.5q-111 0 -181.5 -71t-86.5 -177zM977 1147q-78 -48 -155 -71t-185 -23q-209 0 -336 94l41 258 q71 -48 146 -67t169 -19q208 0 361 86z" />
<glyph unicode="&#x120;" horiz-adv-x="1427" d="M88 739q24 151 89 275t153 206t198 138.5t222 81t227 24.5q248 0 438 -94l-53 -342q-123 102 -354 102q-86 0 -170.5 -26t-161 -76.5t-132 -137t-73.5 -196.5q-8 -64 -7.5 -115.5t16 -91.5t35 -69.5t49.5 -51t59 -35.5t64.5 -22t65.5 -11t62 -3q71 0 117 14l76 479h358 l-115 -725q-224 -94 -473 -94q-127 0 -239.5 29t-207.5 89t-156.5 151.5t-87 216.5t0.5 284zM1184 1710q-13 -83 -68.5 -122.5t-132.5 -39.5q-89 0 -139.5 53t-34.5 154q13 81 69 121.5t132 40.5q89 0 139.5 -54t34.5 -153z" />
<glyph unicode="&#x121;" d="M1081 31q-21 -135 -81.5 -236.5t-148 -160t-189.5 -87t-218 -28.5q-243 0 -430 98l45 285q150 -97 351 -97q128 0 216 54t107 172l10 65q-34 -50 -109 -88.5t-188 -38.5q-80 0 -147 22t-113.5 60.5t-81.5 90.5t-50 112.5t-20.5 127t7.5 132.5q12 74 40.5 145t76 135.5 t108 113t142 77.5t172.5 29q226 0 317 -174l27 143h307zM391 479q-9 -55 3 -103.5t52.5 -84t106.5 -35.5q77 0 137.5 37.5t97.5 95.5l37 229q-16 46 -60.5 77.5t-105.5 31.5q-111 0 -181.5 -71t-86.5 -177zM842 1260q-13 -83 -68.5 -122.5t-132.5 -39.5q-89 0 -139.5 53 t-34.5 154q13 81 68.5 121t132.5 40q89 0 139.5 -53.5t34.5 -152.5z" />
<glyph unicode="&#x122;" horiz-adv-x="1427" d="M88 739q24 151 89 275t153 206t198 138.5t222 81t227 24.5q248 0 438 -94l-53 -342q-123 102 -354 102q-86 0 -170.5 -26t-161 -76.5t-132 -137t-73.5 -196.5q-8 -64 -7.5 -115.5t16 -91.5t35 -69.5t49.5 -51t59 -35.5t64.5 -22t65.5 -11t62 -3q71 0 117 14l76 479h358 l-115 -725q-224 -94 -473 -94q-127 0 -239.5 29t-207.5 89t-156.5 151.5t-87 216.5t0.5 284zM836 -553h-281l123 410h321z" />
<glyph unicode="&#x123;" d="M772 1098h-291l181 432h249zM1081 31q-21 -135 -81.5 -236.5t-148 -160t-189.5 -87t-218 -28.5q-243 0 -430 98l45 285q150 -97 351 -97q128 0 216 54t107 172l10 65q-34 -50 -109 -88.5t-188 -38.5q-80 0 -147 22t-113.5 60.5t-81.5 90.5t-50 112.5t-20.5 127t7.5 132.5 q12 74 40.5 145t76 135.5t108 113t142 77.5t172.5 29q226 0 317 -174l27 143h307zM391 479q-9 -55 3 -103.5t52.5 -84t106.5 -35.5q77 0 137.5 37.5t97.5 95.5l37 229q-16 46 -60.5 77.5t-105.5 31.5q-111 0 -181.5 -71t-86.5 -177z" />
<glyph unicode="&#x126;" horiz-adv-x="1597" d="M438 0h-379l162 1014h-133l35 225h133l31 195h379l-31 -195h532l31 195h379l-31 -195h133l-34 -225h-134l-161 -1014h-379l90 567h-533zM600 1014l-25 -150h533l25 150h-533z" />
<glyph unicode="&#x127;" horiz-adv-x="1210" d="M502 911q140 103 278 103q125 0 209.5 -58t116.5 -151t14 -205l-96 -600h-348l90 573q11 73 -19 108.5t-90 35.5q-104 0 -200 -96l-99 -621h-348l174 1102h-129l33 205h129l21 127h348l-21 -127h219l-32 -205h-220z" />
<glyph unicode="&#x12a;" horiz-adv-x="649" d="M268 1434h379l-227 -1434h-379zM174 1839h696l-43 -266h-696z" />
<glyph unicode="&#x12b;" horiz-adv-x="561" d="M637 1143h-533l35 225h533zM360 0h-348l156 983h348z" />
<glyph unicode="&#x12e;" horiz-adv-x="649" d="M647 1434l-227 -1434q-67 -39 -112.5 -92t-45.5 -90q0 -43 57 -43q31 0 68 16l-37 -235q-75 -37 -174 -37q-124 0 -184.5 68.5t-42.5 170.5q11 61 58.5 124.5t129.5 117.5h-96l227 1434h379z" />
<glyph unicode="&#x12f;" horiz-adv-x="561" d="M199 1335q13 87 72 129.5t139 42.5q92 0 145 -55.5t37 -159.5q-14 -87 -73 -129.5t-140 -42.5q-91 0 -143.5 56t-36.5 159zM78 0h-66l156 983h348l-156 -983q-54 -44 -90.5 -95t-36.5 -87q0 -43 58 -43q30 0 67 16l-36 -235q-75 -37 -175 -37q-124 0 -184.5 68.5 t-42.5 170.5q11 58 52 122t106 120z" />
<glyph unicode="&#x130;" horiz-adv-x="649" d="M268 1434h379l-227 -1434h-379zM680 1710q-13 -83 -68.5 -122.5t-132.5 -39.5q-89 0 -139.5 53t-34.5 154q13 81 69 121.5t132 40.5q89 0 139.5 -54t34.5 -153z" />
<glyph unicode="&#x131;" horiz-adv-x="561" d="M360 0h-348l156 983h348z" />
<glyph unicode="&#x132;" horiz-adv-x="1701" d="M268 1434h379l-227 -1434h-379zM973 1434h737l-158 -998q-72 -467 -591 -467q-225 0 -369 72l53 334q116 -58 260 -58q247 0 279 191l92 588h-356z" />
<glyph unicode="&#x133;" horiz-adv-x="1122" d="M360 0h-348l156 983h348zM592 1292q-14 -87 -73 -129.5t-140 -42.5q-91 0 -143.5 56t-36.5 159q13 87 72 129.5t139 42.5q92 0 145 -55.5t37 -159.5zM899 -147q-16 -98 -52 -165t-92.5 -103t-121 -51t-150.5 -15q-109 0 -200 35l45 282q40 -14 96 -14q64 0 97.5 30 t43.5 101l164 1030h348zM1153 1292q-14 -87 -73 -129.5t-140 -42.5q-91 0 -143.5 56t-36.5 159q13 87 72 129.5t139 42.5q92 0 145 -55.5t37 -159.5z" />
<glyph unicode="&#x136;" horiz-adv-x="1445" d="M1161 1434h416l-559 -732l344 -702h-404l-260 553h-190l-88 -553h-379l227 1434h379l-86 -543h191zM707 -532h-281l123 409h321z" />
<glyph unicode="&#x137;" horiz-adv-x="1146" d="M803 983h399l-407 -498l260 -485h-359l-192 373h-88l-60 -373h-348l228 1434h348l-127 -795h75zM520 -532h-280l122 409h322z" />
<glyph unicode="&#x139;" horiz-adv-x="1189" d="M268 1434h379l-174 -1096h655l-53 -338h-1034zM653 1556h-354l231 308h396z" />
<glyph unicode="&#x13a;" horiz-adv-x="561" d="M250 1495h348l-238 -1495h-348zM612 1597h-354l231 308h396z" />
<glyph unicode="&#x13b;" horiz-adv-x="1189" d="M268 1434h379l-174 -1096h655l-53 -338h-1034zM567 -532h-280l123 409h321z" />
<glyph unicode="&#x13c;" horiz-adv-x="561" d="M250 1495h348l-238 -1495h-348zM170 -532h-281l123 409h322z" />
<glyph unicode="&#x13d;" horiz-adv-x="1196" d="M911 1434h310l-160 -433h-248zM268 1434h379l-174 -1096h655l-53 -338h-1034z" />
<glyph unicode="&#x13e;" horiz-adv-x="561" d="M715 1495h309l-141 -432h-269zM250 1495h348l-238 -1495h-348z" />
<glyph unicode="&#x13f;" horiz-adv-x="1208" d="M1067 813q-13 -83 -68.5 -122.5t-132.5 -39.5q-87 0 -137.5 53t-36.5 154q13 81 69.5 121.5t131.5 40.5q89 0 139.5 -54t34.5 -153zM268 1434h379l-174 -1096h655l-53 -338h-1034z" />
<glyph unicode="&#x140;" horiz-adv-x="937" d="M250 1495h348l-238 -1495h-348zM975 694q-14 -91 -75 -135.5t-146 -44.5q-96 0 -151.5 57.5t-37.5 167.5q14 90 76 134.5t145 44.5q97 0 152 -57.5t37 -166.5z" />
<glyph unicode="&#x141;" horiz-adv-x="1257" d="M1143 0h-1034l75 481l-172 -61l47 307l174 61l103 646h379l-80 -506l336 116l-49 -307l-336 -116l-45 -283h655z" />
<glyph unicode="&#x142;" horiz-adv-x="776" d="M354 1495h348l-90 -571l162 59l-41 -266l-164 -60l-104 -657h-348l82 520l-162 -59l41 266l164 59z" />
<glyph unicode="&#x143;" horiz-adv-x="1560" d="M420 0h-379l227 1434h316l479 -816q3 109 24 232l93 584h379l-228 -1434h-315l-477 813q0 -70 -21 -213zM1051 1556h-355l232 308h395z" />
<glyph unicode="&#x144;" horiz-adv-x="1208" d="M453 870q76 70 166 107t176 37q120 0 200.5 -57.5t110.5 -149.5t12 -201l-96 -606h-348l90 573q13 74 -17 109t-92 35q-101 0 -200 -94l-99 -623h-348l156 983h307zM834 1106h-355l232 307h395z" />
<glyph unicode="&#x145;" horiz-adv-x="1560" d="M420 0h-379l227 1434h316l479 -816q3 109 24 232l93 584h379l-228 -1434h-315l-477 813q0 -70 -21 -213zM700 -532h-280l123 409h321z" />
<glyph unicode="&#x146;" horiz-adv-x="1208" d="M453 870q76 70 166 107t176 37q120 0 200.5 -57.5t110.5 -149.5t12 -201l-96 -606h-348l90 573q13 74 -17 109t-92 35q-101 0 -200 -94l-99 -623h-348l156 983h307zM500 -532h-281l123 409h322z" />
<glyph unicode="&#x147;" horiz-adv-x="1560" d="M420 0h-379l227 1434h316l479 -816q3 109 24 232l93 584h379l-228 -1434h-315l-477 813q0 -70 -21 -213zM1384 1884l-317 -328h-307l-215 328h307l80 -133l127 133h325z" />
<glyph unicode="&#x148;" horiz-adv-x="1208" d="M453 870q76 70 166 107t176 37q120 0 200.5 -57.5t110.5 -149.5t12 -201l-96 -606h-348l90 573q13 74 -17 109t-92 35q-101 0 -200 -94l-99 -623h-348l156 983h307zM1167 1434l-317 -328h-307l-215 328h307l80 -134l127 134h325z" />
<glyph unicode="&#x14a;" horiz-adv-x="1560" d="M1321 -61q-32 -202 -145 -307t-285 -105q-86 0 -180 24l47 308q30 -9 63 -9q105 0 129 140l17 92l-428 733q0 -70 -21 -213l-98 -602h-379l227 1434h314l481 -813q3 107 24 231l93 582h379z" />
<glyph unicode="&#x14b;" horiz-adv-x="1208" d="M999 -147q-16 -97 -51.5 -164.5t-89.5 -103.5t-115 -51t-139 -15q-94 0 -170 35l45 280q30 -12 76 -12t73.5 30.5t37.5 100.5l98 620q22 144 -109 144q-101 0 -200 -94l-99 -623h-348l156 983h307l-18 -113q76 70 166 107t176 37q120 0 200.5 -57.5t110.5 -149.5t12 -201 z" />
<glyph unicode="&#x14c;" horiz-adv-x="1662" d="M1616 694q-18 -117 -65.5 -224t-124 -198.5t-175.5 -159t-227.5 -105.5t-273.5 -38q-122 0 -227 28.5t-182 79.5t-135.5 122.5t-88 157t-40 182.5t8.5 200q18 117 65.5 224t124 198.5t175.5 159t227.5 105.5t273.5 38q117 0 220 -28.5t180 -79.5t136.5 -122.5t91 -157 t43.5 -182.5t-7 -200zM469 705q-27 -170 51 -279t252 -109q188 0 310.5 113t150.5 299q27 170 -51 278.5t-252 108.5q-188 0 -309.5 -112.5t-151.5 -298.5zM672 1839h696l-43 -266h-696z" />
<glyph unicode="&#x14d;" horiz-adv-x="1216" d="M1141 459q-19 -121 -80.5 -217.5t-148 -154.5t-185 -88t-201.5 -30q-115 0 -211.5 37t-165 105t-98 175t-8.5 238q19 122 77.5 217.5t143 154t185 88.5t210.5 30q108 0 203 -37t165.5 -105t102.5 -175.5t11 -237.5zM393 489q-8 -37 -1.5 -75t22 -68.5t52 -50t89.5 -19.5 q100 0 160 60t76 158q8 37 1.5 74.5t-21 68.5t-50.5 50.5t-88 19.5q-101 0 -162.5 -60.5t-77.5 -157.5zM375 1368h696l-43 -266h-696z" />
<glyph unicode="&#x150;" horiz-adv-x="1662" d="M1616 694q-18 -117 -65.5 -224t-124 -198.5t-175.5 -159t-227.5 -105.5t-273.5 -38q-122 0 -227 28.5t-182 79.5t-135.5 122.5t-88 157t-40 182.5t8.5 200q18 117 65.5 224t124 198.5t175.5 159t227.5 105.5t273.5 38q117 0 220 -28.5t180 -79.5t136.5 -122.5t91 -157 t43.5 -182.5t-7 -200zM469 705q-27 -170 51 -279t252 -109q188 0 310.5 113t150.5 299q27 170 -51 278.5t-252 108.5q-188 0 -309.5 -112.5t-151.5 -298.5zM1327 1577h-311l203 321h331zM928 1577h-312l203 321h332z" />
<glyph unicode="&#x151;" horiz-adv-x="1216" d="M1141 459q-19 -121 -80.5 -217.5t-148 -154.5t-185 -88t-201.5 -30q-115 0 -211.5 37t-165 105t-98 175t-8.5 238q19 122 77.5 217.5t143 154t185 88.5t210.5 30q108 0 203 -37t165.5 -105t102.5 -175.5t11 -237.5zM393 489q-8 -37 -1.5 -75t22 -68.5t52 -50t89.5 -19.5 q100 0 160 60t76 158q8 37 1.5 74.5t-21 68.5t-50.5 50.5t-88 19.5q-101 0 -162.5 -60.5t-77.5 -157.5zM1030 1106h-311l203 321h331zM631 1106h-312l203 321h332z" />
<glyph unicode="&#x152;" horiz-adv-x="2154" d="M993 -2q-113 -29 -243 -29q-122 0 -227 28.5t-182 79.5t-135.5 122.5t-88 157t-40 182.5t8.5 200q23 147 91.5 277t176 230.5t262 159t336.5 58.5q137 0 252 -32l989 2l-51 -328h-614l-35 -219h553l-51 -326h-553l-37 -233h625l-52 -328zM469 707q-28 -181 65.5 -290.5 t258.5 -109.5q130 0 241 51l117 734q-72 34 -197 34q-117 0 -218.5 -47t-173.5 -143.5t-93 -228.5z" />
<glyph unicode="&#x153;" horiz-adv-x="1875" d="M920 137q-147 -166 -414 -166q-107 0 -199.5 37t-159.5 105t-96 175t-8 238q15 98 56.5 179.5t99.5 138.5t130.5 96t150.5 57.5t159 18.5q244 0 356 -158q72 75 171.5 115.5t213.5 40.5q119 0 208.5 -37t140 -99t73 -143t15 -169.5t-40.5 -178.5h-648q16 -79 91.5 -115 t185.5 -36q190 0 307 57l-41 -266q-141 -58 -356 -58q-131 0 -232.5 43t-162.5 125zM393 489q-8 -54 1.5 -99.5t47 -79.5t101.5 -34q108 0 170 59.5t78 158.5q8 37 2 74.5t-20 68.5t-48 50.5t-82 19.5q-109 0 -171.5 -60t-78.5 -158zM1360 762q-77 0 -133 -48t-68 -118h332 q6 18 6 39t-7 44t-22 41t-43 30t-65 12z" />
<glyph unicode="&#x154;" horiz-adv-x="1456" d="M420 0h-379l227 1434h596q86 0 163.5 -14.5t151.5 -51.5t124 -92.5t72.5 -145t4.5 -202.5q-51 -307 -336 -412l306 -516h-402l-258 467h-196zM596 1106l-53 -332h233q83 0 144 46.5t73 121.5q25 164 -157 164h-240zM928 1556h-355l232 308h395z" />
<glyph unicode="&#x155;" horiz-adv-x="833" d="M451 852q133 177 417 149l-53 -333q-117 28 -215.5 -6.5t-157.5 -116.5l-86 -545h-348l156 983h307zM670 1106h-355l232 307h395z" />
<glyph unicode="&#x156;" horiz-adv-x="1456" d="M420 0h-379l227 1434h596q86 0 163.5 -14.5t151.5 -51.5t124 -92.5t72.5 -145t4.5 -202.5q-51 -307 -336 -412l306 -516h-402l-258 467h-196zM596 1106l-53 -332h233q83 0 144 46.5t73 121.5q25 164 -157 164h-240zM682 -532h-281l123 409h322z" />
<glyph unicode="&#x157;" horiz-adv-x="833" d="M451 852q133 177 417 149l-53 -333q-117 28 -215.5 -6.5t-157.5 -116.5l-86 -545h-348l156 983h307zM162 -532h-281l123 409h322z" />
<glyph unicode="&#x158;" horiz-adv-x="1456" d="M420 0h-379l227 1434h596q86 0 163.5 -14.5t151.5 -51.5t124 -92.5t72.5 -145t4.5 -202.5q-51 -307 -336 -412l306 -516h-402l-258 467h-196zM596 1106l-53 -332h233q83 0 144 46.5t73 121.5q25 164 -157 164h-240zM1262 1884l-318 -328h-307l-215 328h307l80 -133 l127 133h326z" />
<glyph unicode="&#x159;" horiz-adv-x="833" d="M451 852q133 177 417 149l-53 -333q-117 28 -215.5 -6.5t-157.5 -116.5l-86 -545h-348l156 983h307zM1004 1434l-318 -328h-307l-215 328h307l80 -134l127 134h326z" />
<glyph unicode="&#x15a;" horiz-adv-x="1259" d="M158 1065q22 132 111 224t211 133.5t265 41.5q136 0 261.5 -33t212.5 -88l-52 -333q-174 130 -409 127q-210 -3 -217 -101q-2 -30 21.5 -55.5t64.5 -45t94 -41t110 -43t114 -51.5t104.5 -66t82 -87t46.5 -114.5t-2 -147.5q-21 -118 -78 -201.5t-142.5 -129t-183.5 -65.5 t-219 -20q-316 0 -539 137l56 347q203 -156 473 -156q111 0 175 25.5t70 72.5q5 37 -15.5 68t-60 54t-91.5 44.5t-109 44.5t-114 49.5t-106 64.5t-84 84t-49 113t-1 148zM897 1556h-354l231 308h395z" />
<glyph unicode="&#x15b;" horiz-adv-x="1003" d="M84 721q11 69 46 122.5t80.5 85t106 51.5t116 27t116.5 7q204 0 379 -84l-43 -277q-69 46 -158 75.5t-172 29.5q-104 0 -111 -49q-5 -27 21 -48t70 -36.5t97.5 -32t105.5 -42.5t93 -60.5t61.5 -92t8.5 -131.5q-14 -89 -58.5 -149.5t-115.5 -91.5t-149 -43.5t-179 -12.5 q-118 0 -223 23.5t-174 66.5l43 277q68 -51 167.5 -78t193.5 -27q128 0 137 50q4 26 -22 46t-70 36t-97.5 33.5t-105.5 44t-93.5 61t-61.5 91t-9 128.5zM694 1106h-354l231 307h396z" />
<glyph unicode="&#x15e;" horiz-adv-x="1259" d="M774 -299q-8 -50 -41 -87t-81 -56.5t-97 -29t-100 -9.5q-133 0 -226 37l31 198q61 -33 154 -33q113 0 121 54q6 34 -41 47t-121 4l53 149q-240 24 -412 131l56 347q203 -156 473 -156q111 0 175 25.5t70 72.5q5 37 -15.5 68t-60 54t-91.5 44.5t-109 44.5t-114 49.5 t-106 64.5t-84 84t-49 113t-1 148q22 132 111 224t211 133.5t265 41.5q136 0 261.5 -33t212.5 -88l-52 -333q-174 130 -409 127q-210 -3 -217 -101q-2 -30 21.5 -55.5t64.5 -45t94 -41t110 -43t114 -51.5t104.5 -66t82 -87t46.5 -114.5t-2 -147.5q-69 -380 -525 -412 l-28 -63q179 -29 151 -209z" />
<glyph unicode="&#x15f;" horiz-adv-x="1003" d="M662 -299q-8 -50 -41.5 -87t-81 -56.5t-97 -29t-100.5 -9.5q-132 0 -225 37l30 198q61 -33 154 -33q113 0 121 54q6 34 -41 47t-121 4l51 147q-190 13 -309 86l43 277q68 -51 167.5 -78t193.5 -27q128 0 137 50q4 26 -22 46t-70 36t-97.5 33.5t-105.5 44t-93.5 61 t-61.5 91t-9 128.5q11 69 46 122.5t80.5 85t106 51.5t116 27t116.5 7q204 0 379 -84l-43 -277q-69 46 -158 75.5t-172 29.5q-104 0 -111 -49q-5 -27 21 -48t70 -36.5t97.5 -32t105.5 -42.5t93 -60.5t61.5 -92t8.5 -131.5q-22 -139 -115.5 -207t-244.5 -84l-31 -65 q180 -29 152 -209z" />
<glyph unicode="&#x160;" horiz-adv-x="1259" d="M158 1065q22 132 111 224t211 133.5t265 41.5q136 0 261.5 -33t212.5 -88l-52 -333q-174 130 -409 127q-210 -3 -217 -101q-2 -30 21.5 -55.5t64.5 -45t94 -41t110 -43t114 -51.5t104.5 -66t82 -87t46.5 -114.5t-2 -147.5q-21 -118 -78 -201.5t-142.5 -129t-183.5 -65.5 t-219 -20q-316 0 -539 137l56 347q203 -156 473 -156q111 0 175 25.5t70 72.5q5 37 -15.5 68t-60 54t-91.5 44.5t-109 44.5t-114 49.5t-106 64.5t-84 84t-49 113t-1 148zM1231 1884l-318 -328h-307l-215 328h307l80 -133l127 133h326z" />
<glyph unicode="&#x161;" horiz-adv-x="1003" d="M84 721q11 69 46 122.5t80.5 85t106 51.5t116 27t116.5 7q204 0 379 -84l-43 -277q-69 46 -158 75.5t-172 29.5q-104 0 -111 -49q-5 -27 21 -48t70 -36.5t97.5 -32t105.5 -42.5t93 -60.5t61.5 -92t8.5 -131.5q-14 -89 -58.5 -149.5t-115.5 -91.5t-149 -43.5t-179 -12.5 q-118 0 -223 23.5t-174 66.5l43 277q68 -51 167.5 -78t193.5 -27q128 0 137 50q4 26 -22 46t-70 36t-97.5 33.5t-105.5 44t-93.5 61t-61.5 91t-9 128.5zM1028 1434l-317 -328h-308l-215 328h308l79 -134l127 134h326z" />
<glyph unicode="&#x162;" horiz-adv-x="1239" d="M158 1434h1188l-54 -338h-403l-174 -1096h-379l174 1096h-406zM510 -532h-281l123 409h322z" />
<glyph unicode="&#x163;" horiz-adv-x="858" d="M285 1260l360 81l-57 -358h266l-45 -287h-266l-54 -329q-9 -59 15.5 -85t91.5 -26q86 0 168 27l-43 -275q-93 -39 -256 -39q-75 0 -137.5 18.5t-113 57.5t-72.5 109t-7 163l60 379h-156l45 287h156zM451 -532h-281l123 409h321z" />
<glyph unicode="&#x164;" horiz-adv-x="1239" d="M158 1434h1188l-54 -338h-403l-174 -1096h-379l174 1096h-406zM1243 1884l-317 -328h-308l-215 328h308l80 -133l127 133h325z" />
<glyph unicode="&#x165;" horiz-adv-x="858" d="M834 1526h309l-139 -432h-269zM285 1260l360 81l-57 -358h266l-45 -287h-266l-54 -329q-9 -59 15.5 -85t91.5 -26q86 0 168 27l-43 -275q-93 -39 -256 -39q-75 0 -137.5 18.5t-113 57.5t-72.5 109t-7 163l60 379h-156l45 287h156z" />
<glyph unicode="&#x166;" horiz-adv-x="1267" d="M729 0h-379l86 543h-241l38 245h242l49 308h-405l53 338h1188l-53 -338h-404l-49 -308h240l-39 -245h-240z" />
<glyph unicode="&#x167;" horiz-adv-x="862" d="M856 983l-43 -266h-264l-19 -119h232l-29 -184h-233l-8 -47q-9 -59 15 -85t91 -26q86 0 168 27l-43 -275q-93 -39 -256 -39q-75 0 -137.5 18.5t-113 57.5t-72.5 109t-7 163l15 97h-95l29 184h96l19 119h-156l41 266h156l45 277l360 81l-57 -358h266z" />
<glyph unicode="&#x16a;" horiz-adv-x="1531" d="M1165 1434h379l-141 -897q-20 -126 -70 -224.5t-118 -162.5t-156 -105.5t-180 -58.5t-195 -17q-95 0 -183 19t-168.5 64t-135 111t-78.5 167.5t-4 226.5l139 877h379l-139 -877q-22 -138 32.5 -194t178.5 -56q281 0 325 271zM596 1839h696l-43 -266h-696z" />
<glyph unicode="&#x16b;" horiz-adv-x="1210" d="M819 983h348l-155 -983h-307l18 113q-132 -144 -320 -144q-125 0 -210.5 58t-118.5 151t-15 205l95 600h348l-90 -573q-11 -74 19 -109t91 -35q60 0 113 28t86 66zM387 1389h696l-43 -267h-696z" />
<glyph unicode="&#x16e;" horiz-adv-x="1531" d="M1165 1434h379l-141 -897q-20 -126 -70 -224.5t-118 -162.5t-156 -105.5t-180 -58.5t-195 -17q-95 0 -183 19t-168.5 64t-135 111t-78.5 167.5t-4 226.5l139 877h379l-139 -877q-22 -138 32.5 -194t178.5 -56q281 0 325 271zM1188 1731q-18 -111 -99.5 -173.5 t-187.5 -62.5q-49 0 -95.5 19.5t-82.5 54t-53.5 89t-7.5 118.5q18 106 100 168.5t186 62.5q50 0 96.5 -19.5t82.5 -53.5t53.5 -87.5t7.5 -115.5zM852 1757q-4 -37 15 -57.5t51 -20.5q30 0 52.5 17.5t26.5 48.5q6 35 -13.5 56.5t-51.5 21.5q-29 0 -52.5 -17.5t-27.5 -48.5z " />
<glyph unicode="&#x16f;" horiz-adv-x="1210" d="M819 983h348l-155 -983h-307l18 113q-132 -144 -320 -144q-125 0 -210.5 58t-118.5 151t-15 205l95 600h348l-90 -573q-11 -74 19 -109t91 -35q60 0 113 28t86 66zM979 1280q-18 -111 -99.5 -173.5t-187.5 -62.5q-49 0 -95.5 19.5t-82.5 54t-53.5 89t-7.5 118.5 q18 106 100 168.5t186 62.5q50 0 96.5 -19.5t82.5 -53.5t53.5 -87.5t7.5 -115.5zM643 1307q-4 -37 15 -57.5t51 -20.5q31 0 53 17t26 48q6 35 -13.5 56.5t-51.5 21.5q-30 0 -53 -17t-27 -48z" />
<glyph unicode="&#x170;" horiz-adv-x="1531" d="M1165 1434h379l-141 -897q-20 -126 -70 -224.5t-118 -162.5t-156 -105.5t-180 -58.5t-195 -17q-95 0 -183 19t-168.5 64t-135 111t-78.5 167.5t-4 226.5l139 877h379l-139 -877q-22 -138 32.5 -194t178.5 -56q281 0 325 271zM1251 1577h-311l203 321h332zM852 1577h-311 l202 321h332z" />
<glyph unicode="&#x171;" horiz-adv-x="1210" d="M819 983h348l-155 -983h-307l18 113q-132 -144 -320 -144q-125 0 -210.5 58t-118.5 151t-15 205l95 600h348l-90 -573q-11 -74 19 -109t91 -35q60 0 113 28t86 66zM1042 1126h-311l203 322h332zM643 1126h-311l203 322h331z" />
<glyph unicode="&#x172;" horiz-adv-x="1533" d="M1030 578l135 856h379l-141 -897q-46 -289 -248 -437q-123 -91 -174 -163.5t-51 -118.5q0 -43 57 -43q31 0 68 16l-37 -235q-75 -37 -174 -37q-124 0 -185 68.5t-43 170.5q21 117 166 215q-66 -4 -98 -4q-95 0 -183 19t-168.5 64t-135 111t-78.5 167.5t-4 226.5l139 877 h379l-139 -877q-22 -138 32.5 -194t178.5 -56q281 0 325 271z" />
<glyph unicode="&#x173;" horiz-adv-x="1210" d="M1167 983l-155 -983q-67 -39 -112.5 -92t-45.5 -90q0 -43 57 -43q31 0 68 16l-37 -235q-75 -37 -174 -37q-124 0 -184.5 68.5t-42.5 170.5q11 61 58.5 124.5t129.5 117.5h-24l18 113q-132 -144 -320 -144q-125 0 -210.5 58t-118.5 151t-15 205l95 600h348l-90 -573 q-11 -74 19 -109t91 -35q60 0 113 28t86 66l98 623h348z" />
<glyph unicode="&#x174;" horiz-adv-x="2213" d="M1915 1434h420l-666 -1434h-420l-100 885l-387 -885h-410l-211 1434h398l82 -1008l434 1008h336l110 -1008zM1130 1864h308l194 -328h-305l-63 113l-101 -113h-329z" />
<glyph unicode="&#x175;" horiz-adv-x="1712" d="M1372 983h387l-481 -983h-369l-61 575l-260 -575h-359l-149 983h346l63 -584l248 584h336l62 -584zM823 1413h307l195 -328h-305l-64 113l-100 -113h-330z" />
<glyph unicode="&#x176;" horiz-adv-x="1490" d="M838 0h-377l80 489l-410 945h414l223 -600l412 600h446l-708 -945zM780 1864h307l195 -328h-305l-64 113l-100 -113h-330z" />
<glyph unicode="&#x177;" horiz-adv-x="1179" d="M573 406l244 577h410l-580 -1094q-57 -108 -117.5 -181.5t-124.5 -113t-125 -55.5t-133 -16q-105 0 -198 37l45 284q61 -24 121 -24q79 0 131.5 50t113.5 163l-301 950h369zM537 1413h307l194 -328h-305l-63 113l-101 -113h-329z" />
<glyph unicode="&#x178;" horiz-adv-x="1490" d="M838 0h-377l80 489l-410 945h414l223 -600l412 600h446l-708 -945zM1309 1679q-9 -63 -63 -107t-120 -44q-78 0 -124.5 57t-34.5 139q11 63 63.5 107.5t118.5 44.5q78 0 125 -57.5t35 -139.5zM858 1679q-9 -63 -62.5 -107t-119.5 -44q-78 0 -125 57t-35 139 q11 63 63.5 107.5t118.5 44.5q78 0 125 -57.5t35 -139.5z" />
<glyph unicode="&#x179;" horiz-adv-x="1284" d="M1120 0h-1153l39 250l744 846h-572l53 338h1098l-39 -256l-743 -840h627zM922 1556h-355l232 308h395z" />
<glyph unicode="&#x17a;" horiz-adv-x="1007" d="M152 983h829l-31 -201l-471 -495h420l-45 -287h-889l33 205l467 491h-359zM737 1106h-354l231 307h396z" />
<glyph unicode="&#x17b;" horiz-adv-x="1284" d="M1120 0h-1153l39 250l744 846h-572l53 338h1098l-39 -256l-743 -840h627zM987 1710q-13 -83 -68.5 -122.5t-132.5 -39.5q-89 0 -139.5 53t-34.5 154q13 81 69 121.5t132 40.5q89 0 139.5 -54t34.5 -153z" />
<glyph unicode="&#x17c;" horiz-adv-x="1007" d="M152 983h829l-31 -201l-471 -495h420l-45 -287h-889l33 205l467 491h-359zM803 1260q-13 -83 -68.5 -122.5t-132.5 -39.5q-89 0 -139.5 53t-34.5 154q13 81 68.5 121t132.5 40q89 0 139.5 -53.5t34.5 -152.5z" />
<glyph unicode="&#x17d;" horiz-adv-x="1284" d="M1120 0h-1153l39 250l744 846h-572l53 338h1098l-39 -256l-743 -840h627zM1255 1884l-317 -328h-307l-215 328h307l80 -133l127 133h325z" />
<glyph unicode="&#x17e;" horiz-adv-x="1007" d="M152 983h829l-31 -201l-471 -495h420l-45 -287h-889l33 205l467 491h-359zM1071 1434l-317 -328h-308l-215 328h308l79 -134l127 134h326z" />
<glyph unicode="&#x2c6;" horiz-adv-x="798" d="M494 1864h307l194 -328h-305l-63 113l-101 -113h-329z" />
<glyph unicode="&#x2da;" horiz-adv-x="532" d="M764 1731q-18 -111 -99.5 -173.5t-187.5 -62.5q-49 0 -95.5 19.5t-82.5 54t-53.5 89t-7.5 118.5q18 106 100 168.5t186 62.5q50 0 96.5 -19.5t82.5 -53.5t53.5 -87.5t7.5 -115.5zM428 1757q-4 -37 15 -57.5t51 -20.5q30 0 52.5 17.5t26.5 48.5q6 35 -13.5 56.5 t-51.5 21.5q-29 0 -52.5 -17.5t-27.5 -48.5z" />
<glyph unicode="&#x2dc;" horiz-adv-x="735" d="M991 1851q15 -141 -52.5 -231t-182.5 -90q-54 0 -112 21.5t-102.5 43t-66.5 21.5q-32 0 -45 -30t-8 -44h-238q-15 141 53 231.5t183 90.5q54 0 111.5 -21.5t102 -43t66.5 -21.5q32 0 45.5 30t8.5 43h237z" />
<glyph unicode="&#x401;" horiz-adv-x="1261" d="M1223 1679q-9 -63 -63 -107t-120 -44q-78 0 -124.5 57t-34.5 139q11 63 63.5 107.5t118.5 44.5q78 0 125 -57.5t35 -139.5zM772 1679q-9 -63 -62.5 -107t-119.5 -44q-78 0 -125 57t-35 139q11 63 63.5 107.5t118.5 44.5q78 0 125 -57.5t35 -139.5zM268 1434h1032 l-51 -328h-655l-35 -219h594l-51 -326h-594l-37 -233h666l-52 -328h-1044z" />
<glyph unicode="&#x410;" horiz-adv-x="1540" d="M1444 0h-381l-47 225h-594l-117 -225h-397l790 1434h410zM795 938l-211 -406h368l-78 402q-13 65 -16 158q-36 -105 -63 -154z" />
<glyph unicode="&#x411;" horiz-adv-x="1392" d="M567 926h275q85 0 159.5 -14.5t142 -50t111.5 -89.5t62.5 -139t1.5 -193q-70 -440 -608 -440h-670l227 1434h1088l-53 -338h-709zM471 328h270q74 0 128 33t65 104q6 43 -3.5 71t-34.5 40.5t-51.5 17t-64.5 4.5h-266z" />
<glyph unicode="&#x412;" horiz-adv-x="1400" d="M268 1434h619q150 0 261 -41t169.5 -129.5t38.5 -214.5q-35 -221 -258 -295q112 -35 173 -128.5t38 -242.5q-60 -383 -637 -383h-631zM940 438q33 158 -162 158h-266l-47 -299h250q198 0 225 141zM973 995q14 68 -20 105t-111 37h-244l-41 -265l227 -2q75 0 126.5 34.5 t62.5 90.5z" />
<glyph unicode="&#x413;" horiz-adv-x="1193" d="M420 0h-379l227 1434h1035l-54 -338h-655z" />
<glyph unicode="&#x414;" horiz-adv-x="1697" d="M231 -297h-327l98 625h162q85 107 154 241.5t116 284t78.5 286t56.5 294.5h1022l-176 -1106h184l-98 -625h-327l47 297h-942zM870 1096q-59 -257 -125 -444.5t-165 -323.5h456l123 768h-289z" />
<glyph unicode="&#x415;" horiz-adv-x="1261" d="M268 1434h1032l-51 -328h-655l-35 -219h594l-51 -326h-594l-37 -233h666l-52 -328h-1044z" />
<glyph unicode="&#x416;" horiz-adv-x="2078" d="M1774 1434h413l-506 -721l295 -713h-374l-226 553h-153l-88 -553h-379l88 553h-133l-387 -553h-414l528 735l-276 699h385l211 -543h139l86 543h379l-86 -543h137z" />
<glyph unicode="&#x417;" horiz-adv-x="1280" d="M1180 369q-15 -91 -58.5 -161.5t-104.5 -115t-143 -72.5t-166 -39.5t-180 -11.5q-265 0 -536 99l53 331q248 -95 473 -92q77 1 136.5 14.5t104 48.5t54.5 89q10 58 -29.5 85t-115.5 27h-369l55 328l287 -2q189 0 207 109q10 60 -44 90t-161 30q-214 0 -483 -118l57 364 q221 92 477 92q123 0 226 -26.5t178.5 -77.5t111 -132.5t19.5 -183.5q-36 -213 -271 -288q117 -39 181 -136.5t41 -250.5z" />
<glyph unicode="&#x418;" horiz-adv-x="1560" d="M1559 1434l-228 -1434h-379l95 584q13 90 43 204l-715 -788h-334l227 1434h379l-92 -584q-12 -87 -41 -205l711 789h334z" />
<glyph unicode="&#x419;" horiz-adv-x="1560" d="M1559 1434l-228 -1434h-379l95 584q13 90 43 204l-715 -788h-334l227 1434h379l-92 -584q-12 -87 -41 -205l711 789h334zM1296 1597q-78 -48 -155 -71t-185 -23q-208 0 -335 94l41 258q71 -48 146 -67t169 -19q207 0 360 86z" />
<glyph unicode="&#x41a;" horiz-adv-x="1445" d="M1161 1434h416l-559 -732l344 -702h-404l-260 553h-190l-88 -553h-379l227 1434h379l-86 -543h191z" />
<glyph unicode="&#x41b;" horiz-adv-x="1536" d="M502 1434h1032l-227 -1434h-379l174 1096h-299q-83 -381 -135 -546q-113 -355 -284 -484q-112 -84 -259 -84q-125 0 -205 38l51 322q41 -16 101 -10q38 4 73 28.5t63.5 60t56.5 92t49 110.5t43 131t37 137.5t32.5 146t28 140.5t25.5 136.5t22 119.5z" />
<glyph unicode="&#x41c;" horiz-adv-x="1859" d="M1475 1434h383l-228 -1434h-379l121 760l-352 -441h-258l-217 447l-125 -766h-379l227 1434h344l328 -672z" />
<glyph unicode="&#x41d;" horiz-adv-x="1560" d="M1180 1434h379l-228 -1434h-379l86 547h-532l-86 -547h-379l227 1434h379l-86 -549h533z" />
<glyph unicode="&#x41e;" horiz-adv-x="1662" d="M1616 694q-18 -117 -65.5 -224t-124 -198.5t-175.5 -159t-227.5 -105.5t-273.5 -38q-122 0 -227 28.5t-182 79.5t-135.5 122.5t-88 157t-40 182.5t8.5 200q18 117 65.5 224t124 198.5t175.5 159t227.5 105.5t273.5 38q117 0 220 -28.5t180 -79.5t136.5 -122.5t91 -157 t43.5 -182.5t-7 -200zM469 705q-27 -170 51 -279t252 -109q188 0 310.5 113t150.5 299q27 170 -51 278.5t-252 108.5q-188 0 -309.5 -112.5t-151.5 -298.5z" />
<glyph unicode="&#x41f;" horiz-adv-x="1560" d="M420 0h-379l227 1434h1291l-228 -1434h-379l174 1096h-532z" />
<glyph unicode="&#x420;" horiz-adv-x="1372" d="M268 1434h559q104 0 191.5 -16t163.5 -53.5t125 -95t69 -147t2 -202.5q-17 -108 -58 -189t-99.5 -134t-141 -86t-174 -46.5t-205.5 -13.5h-208l-72 -451h-379zM993 944q8 49 -3.5 82.5t-40.5 50t-61.5 23t-76.5 6.5h-215l-53 -328h211q214 0 239 166z" />
<glyph unicode="&#x421;" horiz-adv-x="1337" d="M86 739q23 147 89.5 270t156.5 205.5t199.5 140t218 83.5t213.5 26q238 0 413 -106l-53 -334q-56 51 -138.5 80t-174.5 29q-68 0 -134.5 -13.5t-134.5 -45.5t-122.5 -80t-95 -122.5t-54.5 -166.5q-16 -97 9.5 -176t80.5 -127t127.5 -73.5t155.5 -25.5q106 0 209.5 33 t187.5 90l-59 -371q-182 -86 -412 -86q-117 0 -225.5 29t-202.5 91.5t-159 151.5t-92 217.5t-3 280.5z" />
<glyph unicode="&#x422;" horiz-adv-x="1239" d="M158 1434h1188l-54 -338h-403l-174 -1096h-379l174 1096h-406z" />
<glyph unicode="&#x423;" horiz-adv-x="1392" d="M842 317q-125 -198 -240.5 -273t-263.5 -75q-142 0 -248 41l49 312q76 -29 154 -29q113 0 192 102l35 45l-399 994h403l226 -674l368 674h416z" />
<glyph unicode="&#x424;" horiz-adv-x="1808" d="M981 -82h-358l34 176q-140 13 -258.5 61.5t-203.5 127.5t-123.5 197t-16.5 259q44 275 251 433t542 167l29 177h358l-29 -177q138 -14 252.5 -63t197 -129t119 -197t15.5 -256q-43 -272 -246.5 -430t-533.5 -170zM428 715q-7 -31 -4 -64.5t10 -66t28 -63t51 -55t78 -42 t109 -23.5l99 627q-326 -31 -371 -313zM1159 1032l-100 -626q314 36 358 313q4 38 4 77t-16.5 78t-44 71t-79.5 55.5t-122 31.5z" />
<glyph unicode="&#x425;" horiz-adv-x="1415" d="M326 0h-449l635 735l-369 699h426l195 -402l336 402h448l-596 -691l391 -743h-425l-216 451z" />
<glyph unicode="&#x426;" horiz-adv-x="1667" d="M1468 -297h-327l47 297h-1147l227 1434h379l-174 -1096h533l174 1096h379l-175 -1096h185z" />
<glyph unicode="&#x427;" horiz-adv-x="1433" d="M1204 0h-379l78 494q-160 -60 -323 -60q-113 0 -205 32.5t-156 94t-90.5 159t-7.5 220.5l78 494h379l-78 -494q-14 -89 39 -126.5t157 -37.5q132 0 260 55l97 603h379z" />
<glyph unicode="&#x428;" horiz-adv-x="2144" d="M1915 0h-1874l227 1434h379l-174 -1096h369l174 1096h379l-174 -1096h368l174 1096h379z" />
<glyph unicode="&#x429;" horiz-adv-x="2250" d="M2052 -297h-328l48 297h-1731l227 1434h379l-174 -1096h369l174 1096h379l-174 -1096h368l174 1096h379l-174 -1096h184z" />
<glyph unicode="&#x42a;" horiz-adv-x="1589" d="M836 0h-576l174 1096h-328l54 338h706l-71 -451h180q104 0 191.5 -16t163.5 -53.5t125 -95t69 -147t2 -202.5q-17 -108 -58 -189t-101 -134t-143.5 -86t-177 -46.5t-210.5 -13.5zM743 655l-53 -327h199q48 0 86 6.5t75.5 23.5t62 51t32.5 85q13 83 -40 122t-147 39h-215z " />
<glyph unicode="&#x42b;" horiz-adv-x="1933" d="M616 0h-575l227 1434h379l-72 -451h181q104 0 191.5 -16t163.5 -53.5t125 -95t69 -147t2 -202.5q-17 -108 -58.5 -189t-101 -134t-143 -86t-177.5 -46.5t-211 -13.5zM524 655l-53 -327h199q48 0 86 6.5t75.5 23.5t62 51t32.5 85q13 83 -40 122t-147 39h-215zM1704 0h-379 l227 1434h379z" />
<glyph unicode="&#x42c;" horiz-adv-x="1370" d="M616 0h-575l227 1434h379l-72 -451h181q104 0 191.5 -16t163.5 -53.5t125 -95t69 -147t2 -202.5q-17 -108 -58.5 -189t-101 -134t-143 -86t-177.5 -46.5t-211 -13.5zM524 655l-53 -327h199q48 0 86 6.5t75.5 23.5t62 51t32.5 85q13 83 -40 122t-147 39h-215z" />
<glyph unicode="&#x42d;" horiz-adv-x="1335" d="M209 1370q164 94 405 94q116 0 222 -29t200.5 -89.5t156.5 -154.5t89.5 -222.5t-0.5 -294.5q-23 -146 -82.5 -265t-143.5 -199.5t-191 -135.5t-222 -80t-240 -25q-218 0 -401 94l55 345q139 -101 330 -101q385 0 494 258h-594l49 318h594q-8 60 -34.5 105t-62 70.5 t-85.5 41t-93.5 20.5t-97.5 6q-113 2 -219.5 -29t-185.5 -89z" />
<glyph unicode="&#x42e;" horiz-adv-x="2277" d="M2230 694q-18 -117 -65.5 -224t-124 -198.5t-175.5 -159t-227.5 -105.5t-273.5 -38q-154 0 -276 44.5t-201.5 123.5t-124 183.5t-51.5 228.5h-205l-86 -549h-379l227 1434h379l-88 -547h197q40 123 111 226.5t171.5 182.5t236 123.5t292.5 44.5q175 0 314 -62.5 t222.5 -168t117.5 -245.5t9 -294zM1083 705q-27 -170 51 -279t252 -109q188 0 310.5 113t150.5 299q27 170 -51 278.5t-252 108.5q-188 0 -309.5 -112.5t-151.5 -298.5z" />
<glyph unicode="&#x42f;" horiz-adv-x="1441" d="M360 0h-444l487 539q-129 61 -191.5 169t-37.5 255q15 101 59.5 181.5t106.5 134t142.5 89t166 51t178.5 15.5h613l-228 -1434h-378l73 467h-125zM559 950q-15 -87 30.5 -131.5t137.5 -44.5h229l54 332h-213q-99 0 -162.5 -40.5t-75.5 -115.5z" />
<glyph unicode="&#x430;" d="M788 133q-50 -73 -136.5 -118.5t-205.5 -45.5q-80 0 -147 22t-113.5 60.5t-81.5 90.5t-50 112.5t-20.5 127t7.5 132.5q15 94 56 180.5t106.5 159.5t163 116.5t213.5 43.5q121 0 202.5 -55.5t116.5 -135.5l25 160h307l-156 -983h-307zM391 481q-9 -55 3 -104t52.5 -85 t106.5 -36q76 0 136.5 37.5t98.5 93.5l37 223q-12 52 -56.5 84.5t-109.5 32.5q-111 0 -181.5 -71.5t-86.5 -174.5z" />
<glyph unicode="&#x431;" horiz-adv-x="1191" d="M1106 418q-23 -148 -107 -251t-205.5 -150.5t-273.5 -47.5q-85 0 -158.5 21t-138.5 66.5t-104.5 118.5t-56 178t7.5 243q20 128 57.5 232.5t89.5 182.5t111.5 135t132.5 103q87 47 180.5 75.5t167.5 40t142.5 22t128.5 30.5t102 56l-39 -324q-49 -39 -112.5 -58 t-117.5 -22.5t-125 -17.5t-129 -43q-78 -30 -136 -102.5t-70 -133.5q119 139 307 139q87 0 158.5 -32.5t120 -93.5t67.5 -156t0 -211zM401 418q-13 -182 142 -182q57 0 99.5 23t65 60.5t33 72.5t13.5 71q13 182 -142 182q-46 0 -83 -16t-59 -40t-37.5 -56t-22 -59.5 t-9.5 -55.5z" />
<glyph unicode="&#x432;" horiz-adv-x="1124" d="M643 0h-635l156 983h602q71 0 127 -17t90 -45t55 -65t27 -75t0 -76q-14 -81 -59.5 -133t-135.5 -85q81 -27 119 -89.5t23 -157.5q-7 -47 -28.5 -86.5t-62 -76t-112 -57t-166.5 -20.5zM420 397l-27 -176h152q118 0 133 92q6 39 -19 61.5t-71 22.5h-168zM479 762l-28 -176 h131q118 0 133 94q6 39 -18.5 60.5t-71.5 21.5h-146z" />
<glyph unicode="&#x433;" horiz-adv-x="897" d="M356 0h-348l156 983h766l-45 -287h-418z" />
<glyph unicode="&#x434;" horiz-adv-x="1355" d="M219 -256h-317l82 512h139q104 149 161 325t87 402h848l-115 -727h149l-82 -512h-317l41 256h-635zM645 727q-30 -162 -65.5 -270t-96.5 -201h283l76 471h-197z" />
<glyph unicode="&#x435;" horiz-adv-x="1112" d="M41 518q15 105 57.5 190.5t100 141t128.5 93.5t141.5 54.5t141.5 16.5q119 0 209.5 -37t142.5 -99t76 -143t17.5 -170t-39.5 -178h-647q16 -79 91 -115t185 -36q190 0 307 57l-41 -266q-141 -58 -356 -58q-122 0 -224.5 38t-173.5 107t-103 173.5t-13 230.5zM731 596 q6 18 6 39t-7 44t-22 41t-43 30t-65 12q-77 0 -133 -48t-68 -118h332z" />
<glyph unicode="&#x436;" horiz-adv-x="1667" d="M274 0h-372l397 508l-207 475h334l158 -375h78l59 375h348l-59 -375h84l239 375h373l-365 -528l215 -455h-344l-159 342h-86l-54 -342h-348l53 342h-92z" />
<glyph unicode="&#x437;" horiz-adv-x="1019" d="M907 254q-6 -40 -25.5 -77.5t-61 -76t-100.5 -66.5t-151.5 -46t-206.5 -19q-239 0 -385 92l39 252q58 -38 142.5 -63t167.5 -25q105 0 166 22.5t69 78.5q4 25 -9.5 41t-42 23t-53.5 9t-61 2h-182l31 193h145q62 0 103 6.5t70.5 27.5t35.5 56q5 33 -25 54.5t-110 21.5 q-96 0 -197.5 -24t-173.5 -62l41 262q159 78 383 78q106 0 189 -20t132.5 -52t79.5 -74.5t38 -85t1 -86.5q-12 -74 -62 -123.5t-126 -72.5q79 -27 115.5 -90t23.5 -156z" />
<glyph unicode="&#x438;" horiz-adv-x="1210" d="M317 0h-309l156 983h348l-72 -448l418 448h309l-155 -983h-348l69 444z" />
<glyph unicode="&#x439;" horiz-adv-x="1210" d="M1034 1180q-147 -95 -340 -95q-181 0 -336 95l39 247q151 -86 316 -86q195 0 360 86zM317 0h-309l156 983h348l-72 -448l418 448h309l-155 -983h-348l69 444z" />
<glyph unicode="&#x43a;" horiz-adv-x="1148" d="M356 0h-348l156 983h348l-55 -344h78l270 344h399l-409 -500l260 -483h-359l-192 373h-88z" />
<glyph unicode="&#x43b;" horiz-adv-x="1204" d="M600 717q-22 -113 -43.5 -200.5t-52 -175.5t-67 -151t-83.5 -113t-107.5 -75t-133.5 -25q-113 0 -185 27l45 285q30 -18 74 -15q51 4 94 58.5t76 155t58 218.5t49 277h837l-155 -983h-349l113 717h-170z" />
<glyph unicode="&#x43c;" horiz-adv-x="1406" d="M348 0h-340l156 983h313l203 -457l354 457h330l-156 -983h-340l80 492l-233 -302h-150l-137 308z" />
<glyph unicode="&#x43d;" horiz-adv-x="1210" d="M356 0h-348l156 983h348l-55 -348h307l55 348h348l-155 -983h-348l55 348h-307z" />
<glyph unicode="&#x43e;" horiz-adv-x="1216" d="M1141 459q-19 -121 -80.5 -217.5t-148 -154.5t-185 -88t-201.5 -30q-115 0 -211.5 37t-165 105t-98 175t-8.5 238q19 122 77.5 217.5t143 154t185 88.5t210.5 30q108 0 203 -37t165.5 -105t102.5 -175.5t11 -237.5zM393 489q-8 -37 -1.5 -75t22 -68.5t52 -50t89.5 -19.5 q100 0 160 60t76 158q8 37 1.5 74.5t-21 68.5t-50.5 50.5t-88 19.5q-101 0 -162.5 -60.5t-77.5 -157.5z" />
<glyph unicode="&#x43f;" horiz-adv-x="1210" d="M356 0h-348l156 983h1003l-155 -983h-348l110 696h-307z" />
<glyph unicode="&#x440;" d="M453 854q49 69 139.5 114.5t204.5 45.5q89 0 163.5 -31t123 -84t81.5 -123t39 -148t-4 -159q-11 -74 -38.5 -145t-74 -135.5t-106 -113t-142 -77.5t-175.5 -29q-196 0 -291 129l-86 -549h-348l227 1434h307zM850 504q9 55 -3 103.5t-52.5 84t-106.5 35.5 q-72 0 -134.5 -39.5t-100.5 -95.5l-37 -225q14 -48 58.5 -79.5t107.5 -31.5q110 0 181 72.5t87 175.5z" />
<glyph unicode="&#x441;" horiz-adv-x="1013" d="M39 504q17 108 64.5 196.5t111.5 146t143.5 96.5t158 56t157.5 17q182 0 315 -80l-45 -279q-100 62 -231 62q-120 0 -211 -60.5t-109 -179.5q-16 -107 47.5 -160t171.5 -53q149 0 291 66l-47 -301q-144 -62 -330 -62q-87 0 -165.5 19.5t-145.5 62t-112 104t-63 151.5 t-1 198z" />
<glyph unicode="&#x442;" horiz-adv-x="978" d="M569 0h-348l111 696h-287l45 287h922l-45 -287h-287z" />
<glyph unicode="&#x443;" horiz-adv-x="1179" d="M573 406l244 577h410l-580 -1094q-57 -108 -117.5 -181.5t-124.5 -113t-125 -55.5t-133 -16q-105 0 -198 37l45 284q61 -24 121 -24q79 0 131.5 50t113.5 163l-301 950h369z" />
<glyph unicode="&#x444;" horiz-adv-x="1556" d="M776 -451h-327l67 422q-104 5 -197.5 45t-163 108t-102 170t-14.5 220q35 226 204.5 357.5t436.5 142.5l68 420h327l-67 -422q107 -5 201.5 -45t163 -108t100 -170t12.5 -220q-35 -224 -207.5 -356.5t-435.5 -143.5zM379 489q-8 -35 -0.5 -74.5t24 -73t57.5 -57.5t99 -28 l76 471q-109 -9 -175 -76t-81 -162zM963 727l-74 -471q114 8 177.5 74.5t78.5 163.5q6 38 -0.5 75t-25.5 72t-59.5 58.5t-96.5 27.5z" />
<glyph unicode="&#x445;" horiz-adv-x="1128" d="M303 0h-409l464 518l-282 465h368l138 -233l194 233h410l-443 -494l297 -489h-368l-154 258z" />
<glyph unicode="&#x446;" horiz-adv-x="1306" d="M1122 -256h-319l41 256h-836l156 983h348l-111 -696h308l110 696h348l-110 -707h149z" />
<glyph unicode="&#x447;" horiz-adv-x="1122" d="M924 0h-349l46 285q-92 -33 -218 -33q-59 0 -113 12.5t-102 41t-80.5 70t-46.5 104t-2 138.5l58 365h348l-53 -336q-8 -59 20.5 -83.5t77.5 -24.5q94 0 158 34l63 410h348z" />
<glyph unicode="&#x448;" horiz-adv-x="1660" d="M1462 0h-1454l156 983h348l-111 -696h205l111 696h348l-111 -696h205l111 696h348z" />
<glyph unicode="&#x449;" horiz-adv-x="1757" d="M1571 -256h-318l41 256h-1286l156 983h348l-111 -696h205l111 696h348l-111 -696h205l111 696h348l-111 -707h150z" />
<glyph unicode="&#x44a;" horiz-adv-x="1249" d="M723 0h-545l113 717h-244l41 266h594l-45 -287h180q182 0 280.5 -107t73.5 -263q-23 -142 -140 -234t-308 -92zM598 461l-35 -225h86q154 0 172 114q7 44 -23 77.5t-96 33.5h-104z" />
<glyph unicode="&#x44b;" horiz-adv-x="1640" d="M553 0h-545l156 983h348l-45 -287h180q182 0 280.5 -107t73.5 -263q-23 -142 -140 -234t-308 -92zM428 461l-35 -225h86q154 0 172 114q7 44 -23 77.5t-96 33.5h-104zM1442 0h-348l155 983h348z" />
<glyph unicode="&#x44c;" horiz-adv-x="1079" d="M553 0h-545l156 983h348l-45 -287h180q182 0 280.5 -107t73.5 -263q-23 -142 -140 -234t-308 -92zM428 461l-35 -225h86q154 0 172 114q7 44 -23 77.5t-96 33.5h-104z" />
<glyph unicode="&#x44d;" horiz-adv-x="1028" d="M950 449q-16 -99 -58.5 -180.5t-101 -136.5t-132 -92.5t-150 -54t-156.5 -16.5q-124 0 -202 21.5t-164 70.5l39 240q49 -36 118.5 -56t141.5 -20q232 0 313 150h-387l39 246h391q-16 72 -81.5 104.5t-158.5 32.5q-81 0 -166 -24.5t-153 -65.5l41 260q152 86 332 86 q85 0 163.5 -20t148 -65t116.5 -109.5t66 -160t1 -210.5z" />
<glyph unicode="&#x44e;" horiz-adv-x="1722" d="M1649 459q-19 -121 -80.5 -217.5t-148 -154.5t-185 -88t-201.5 -30q-120 0 -220 43.5t-167.5 133t-81.5 212.5h-151l-58 -358h-348l156 983h348l-57 -358h141q42 128 134 218t203 130.5t234 40.5q108 0 203 -37t165.5 -105t102.5 -175.5t11 -237.5zM901 489 q-8 -37 -1.5 -75t22 -68.5t52 -50t89.5 -19.5q100 0 159.5 60t75.5 158q8 37 2 74.5t-21 68.5t-50.5 50.5t-87.5 19.5q-101 0 -162.5 -60.5t-77.5 -157.5z" />
<glyph unicode="&#x44f;" horiz-adv-x="1146" d="M317 0h-395l314 348q-160 102 -125 309q10 63 41 119t84 103.5t136.5 75.5t186.5 28h545l-156 -983h-348l43 266h-82zM459 621q-6 -46 22.5 -82.5t85.5 -36.5h113l35 225h-97q-142 0 -159 -106z" />
<glyph unicode="&#x451;" horiz-adv-x="1112" d="M1047 1229q-9 -63 -63 -107.5t-120 -44.5q-78 0 -124.5 57.5t-34.5 139.5q11 63 63.5 107t118.5 44q78 0 125 -57t35 -139zM596 1229q-9 -63 -62.5 -107.5t-119.5 -44.5q-78 0 -125 57.5t-35 139.5q11 63 63.5 107t118.5 44q78 0 125 -57t35 -139zM41 518 q15 105 57.5 190.5t100 141t128.5 93.5t141.5 54.5t141.5 16.5q119 0 209.5 -37t142.5 -99t76 -143t17.5 -170t-39.5 -178h-647q16 -79 91 -115t185 -36q190 0 307 57l-41 -266q-141 -58 -356 -58q-122 0 -224.5 38t-173.5 107t-103 173.5t-13 230.5zM731 596q6 18 6 39 t-7 44t-22 41t-43 30t-65 12q-77 0 -133 -48t-68 -118h332z" />
<glyph unicode="&#x2000;" horiz-adv-x="1003" />
<glyph unicode="&#x2001;" horiz-adv-x="2007" />
<glyph unicode="&#x2002;" horiz-adv-x="1003" />
<glyph unicode="&#x2003;" horiz-adv-x="2007" />
<glyph unicode="&#x2004;" horiz-adv-x="669" />
<glyph unicode="&#x2005;" horiz-adv-x="501" />
<glyph unicode="&#x2006;" horiz-adv-x="334" />
<glyph unicode="&#x2007;" horiz-adv-x="334" />
<glyph unicode="&#x2008;" horiz-adv-x="250" />
<glyph unicode="&#x2009;" horiz-adv-x="401" />
<glyph unicode="&#x200a;" horiz-adv-x="111" />
<glyph unicode="&#x2010;" horiz-adv-x="993" d="M115 637h778l-47 -287h-778z" />
<glyph unicode="&#x2011;" horiz-adv-x="993" d="M115 637h778l-47 -287h-778z" />
<glyph unicode="&#x2012;" horiz-adv-x="993" d="M115 637h778l-47 -287h-778z" />
<glyph unicode="&#x2013;" horiz-adv-x="1198" d="M1051 350h-983l47 287h983z" />
<glyph unicode="&#x2014;" horiz-adv-x="1607" d="M1460 350h-1392l47 287h1392z" />
<glyph unicode="&#x2018;" horiz-adv-x="606" d="M459 840h-373l320 594h286z" />
<glyph unicode="&#x2019;" horiz-adv-x="595" d="M389 840h-287l234 594h373z" />
<glyph unicode="&#x201a;" horiz-adv-x="583" d="M147 -293h-286l233 594h373z" />
<glyph unicode="&#x201c;" horiz-adv-x="1056" d="M909 840h-372l319 594h287zM459 840h-373l320 594h286z" />
<glyph unicode="&#x201d;" horiz-adv-x="1046" d="M840 840h-287l233 594h373zM389 840h-287l234 594h373z" />
<glyph unicode="&#x201e;" horiz-adv-x="1034" d="M598 -293h-287l234 594h373zM147 -293h-286l233 594h373z" />
<glyph unicode="&#x2026;" horiz-adv-x="1689" d="M1550 150q-14 -91 -75 -136t-146 -45q-96 0 -152 58t-38 168q14 90 76 134t145 44q97 0 151.5 -57t38.5 -166zM420 150q-14 -91 -75 -136t-146 -45q-96 0 -152.5 58.5t-38.5 167.5q14 90 76 134t145 44q97 0 152 -57t39 -166zM985 150q-14 -91 -75 -136t-146 -45 q-96 0 -152.5 58.5t-38.5 167.5q14 90 76 134t146 44q97 0 151.5 -57t38.5 -166z" />
<glyph unicode="&#x202f;" horiz-adv-x="401" />
<glyph unicode="&#x2039;" horiz-adv-x="727" d="M584 82h-340l-209 379l10 67l322 373h356l-358 -409z" />
<glyph unicode="&#x203a;" horiz-adv-x="729" d="M328 82h-357l359 410l-219 409h340l211 -379l-11 -67z" />
<glyph unicode="&#x205f;" horiz-adv-x="501" />
<glyph unicode="&#x20ac;" horiz-adv-x="1492" d="M1450 987q-65 50 -154.5 77.5t-183.5 27.5q-115 0 -215 -37.5t-168 -112.5h438l-32 -205h-510q-13 -50 -13 -82h510l-32 -204h-435q46 -73 129.5 -110.5t186.5 -37.5q105 0 208.5 34t180.5 89l-57 -371q-185 -86 -406 -86q-116 0 -223 29.5t-198.5 86.5t-156 151.5 t-86.5 214.5h-188l33 204h147q2 37 13 82h-148l33 205h176q53 121 139.5 215t192 151t220.5 86t234 29q232 0 418 -100z" />
<glyph unicode="&#x2122;" horiz-adv-x="1409" d="M858 901h-192l84 533h178l112 -238l170 238h207l-84 -533h-192l35 219l-84 -116h-146l-53 112zM457 901h-193l58 361h-148l27 172h487l-26 -172h-148z" />
<glyph unicode="&#x25fc;" horiz-adv-x="983" d="M0 983h983v-983h-983v983z" />
</font>
</defs>
</svg>
