<?xml version="1.0" standalone="no"?>
<!DOCTYPE svg PUBLIC "-//W3C//DTD SVG 1.1//EN" "http://www.w3.org/Graphics/SVG/1.1/DTD/svg11.dtd" >
<svg xmlns="http://www.w3.org/2000/svg" xmlns:xlink="http://www.w3.org/1999/xlink" version="1.1">
<metadata></metadata>
<defs>
<font id="mullerblack" horiz-adv-x="1218" >
<font-face units-per-em="2048" ascent="1597" descent="-451" />
<missing-glyph horiz-adv-x="372" />
<glyph horiz-adv-x="0" />
<glyph horiz-adv-x="682" />
<glyph unicode=" "  horiz-adv-x="372" />
<glyph unicode="&#x09;" horiz-adv-x="372" />
<glyph unicode="&#xa0;" horiz-adv-x="372" />
<glyph unicode="!" horiz-adv-x="632" d="M498 563h-363l-49 871h461zM557 199q0 -113 -68.5 -172.5t-171.5 -59.5q-102 0 -170.5 59.5t-68.5 172.5q0 112 68.5 171.5t170.5 59.5q103 0 171.5 -59t68.5 -172z" />
<glyph unicode="&#x22;" horiz-adv-x="995" d="M877 887h-306v547h375zM389 887h-305v547h375z" />
<glyph unicode="#" horiz-adv-x="1495" d="M500 0h-377l59 258h-125v291h195l70 297h-162v291h231l62 258h376l-59 -258h166l59 258h379l-61 -258h125v-291h-193l-71 -297h161v-291h-229l-62 -258h-378l61 258h-166zM700 846l-71 -297h166l69 297h-164z" />
<glyph unicode="$" horiz-adv-x="1302" d="M809 -244h-324v219q-228 27 -405 127v428q128 -84 264 -126t256 -42q92 0 128 16.5t36 53.5q0 23 -23.5 41t-63.5 31.5t-91.5 26.5t-108.5 30t-114 38t-108.5 55t-91.5 77t-63.5 107.5t-23.5 142.5q0 182 111.5 292.5t297.5 139.5v223h324v-223q211 -29 356 -106v-410 q-104 66 -229.5 102t-245.5 35q-127 0 -127 -63q0 -26 29.5 -46.5t77.5 -33t110 -29.5t126 -35t126 -51t110 -76t77.5 -112t29.5 -156q0 -111 -32.5 -194.5t-93 -136t-137.5 -82.5t-177 -42v-221z" />
<glyph unicode="%" horiz-adv-x="1968" d="M698 -123h-260l838 1679h260zM877 1077q0 -95 -33 -170.5t-90.5 -122.5t-131.5 -71.5t-159 -24.5q-86 0 -160.5 24.5t-132 71.5t-90.5 122.5t-33 170.5t33 170.5t90.5 122.5t132 71.5t160.5 24.5q85 0 159 -24.5t131.5 -71.5t90.5 -122.5t33 -170.5zM360 1077 q0 -44 23 -75t78 -31t77.5 31t22.5 75t-23 75.5t-77 31.5q-55 0 -78 -31.5t-23 -75.5zM1921 356q0 -95 -33 -170.5t-90.5 -122.5t-132 -71.5t-160.5 -24.5q-115 0 -206.5 41.5t-149 131.5t-57.5 216q0 95 33 171t90 123.5t131 72.5t159 25q86 0 160.5 -25t132 -72.5 t90.5 -123.5t33 -171zM1405 356q0 -44 22.5 -75t77.5 -31t78 31t23 75t-23.5 76.5t-77.5 32.5t-77 -32t-23 -77z" />
<glyph unicode="&#x26;" horiz-adv-x="1533" d="M1280 274l274 -274h-448l-80 76q-207 -109 -461 -109q-233 0 -370.5 106.5t-137.5 276.5q0 72 23 133.5t65 108.5t88 82t105 67q-156 168 -156 322q0 178 142 290.5t374 112.5q216 0 348 -109t132 -274q0 -54 -18.5 -104t-47.5 -89.5t-72 -77.5t-84.5 -65t-91.5 -55 l170 -170q60 102 60 215h376q0 -118 -49 -238.5t-141 -224.5zM799 1075q0 44 -28 71.5t-79 27.5q-58 0 -92.5 -33.5t-34.5 -79.5q0 -36 22 -72.5t68 -87.5q144 86 144 174zM469 395q0 -55 42 -84.5t120 -29.5q77 0 153 30l-225 217q-90 -61 -90 -133z" />
<glyph unicode="'" horiz-adv-x="507" d="M389 887h-305v547h375z" />
<glyph unicode="(" horiz-adv-x="714" d="M375 1663h313q-213 -477 -213 -946t213 -946h-313q-148 199 -235 449.5t-87 496.5t87 496.5t235 449.5z" />
<glyph unicode=")" horiz-adv-x="714" d="M27 1663h315q146 -200 233 -450.5t87 -495.5t-87 -495.5t-233 -450.5h-315q96 212 154.5 455.5t58.5 490.5t-58.5 490.5t-154.5 455.5z" />
<glyph unicode="*" horiz-adv-x="1091" d="M547 791l-119 -246l-309 211l170 153l-238 47l137 357l207 -125l-41 246h383l-39 -246l205 125l137 -357l-235 -47l168 -153l-309 -211z" />
<glyph unicode="+" horiz-adv-x="1130" d="M737 891h336v-344h-336v-336h-344v336h-336v344h336v334h344v-334z" />
<glyph unicode="," horiz-adv-x="585" d="M299 -293h-324l146 629h414z" />
<glyph unicode="-" horiz-adv-x="983" d="M92 659h799v-333h-799v333z" />
<glyph unicode="." horiz-adv-x="581" d="M530 199q0 -113 -68 -172.5t-171 -59.5q-102 0 -171 59.5t-69 172.5q0 112 69 171.5t171 59.5q103 0 171 -59t68 -172z" />
<glyph unicode="/" horiz-adv-x="1021" d="M340 -125h-301l647 1684h301z" />
<glyph unicode="0" horiz-adv-x="1447" d="M66 696q0 120 23 226t74 199t126.5 160t186.5 105.5t249 38.5q137 0 248 -38.5t186.5 -105.5t126 -160t73.5 -199t23 -226t-23 -226t-73.5 -199t-126 -160t-186.5 -105.5t-248 -38.5q-138 0 -249 38.5t-186.5 105.5t-126.5 160t-74 199t-23 226zM911 696q0 169 -45 245.5 t-141 76.5q-97 0 -142.5 -76.5t-45.5 -245.5t45 -245t143 -76q96 0 141 76t45 245z" />
<glyph unicode="1" horiz-adv-x="1034" d="M436 1393h344v-1006h215v-387h-909v387h238v559l-226 -84v402z" />
<glyph unicode="2" horiz-adv-x="1271" d="M113 1276q236 149 522 149q113 0 209 -25t174 -77t123 -141t45 -207q0 -59 -15 -111.5t-38 -92t-59 -78t-69.5 -65t-78.5 -57.5q-24 -16 -75 -49.5t-75 -50.5t-53.5 -41t-44.5 -43h510v-385h-1118v191q1 82 24.5 154t52 118.5t88 99.5t94 77.5t107.5 71.5q19 13 29 19 q33 22 87.5 54t79.5 48.5t46.5 43.5t21.5 57q0 43 -35 65.5t-98 22.5q-219 0 -454 -176v428z" />
<glyph unicode="3" horiz-adv-x="1241" d="M1122 1026q0 -103 -57 -183t-162 -116q122 -32 199.5 -118t77.5 -224q0 -90 -33 -162.5t-88.5 -119.5t-132.5 -78t-160.5 -44.5t-177.5 -13.5q-273 0 -506 88v406q199 -107 455 -107q194 3 194 101q0 37 -32 57t-91 20h-248l2 351h203q113 -3 113 67q0 84 -166 84 q-90 0 -205 -34.5t-201 -90.5v396q95 57 222.5 88.5t259.5 31.5q110 0 204 -23t169 -69t118 -125t43 -182z" />
<glyph unicode="4" horiz-adv-x="1386" d="M692 1393h463v-840h174v-367h-174v-186h-426v186h-692v377zM729 553v326l-260 -326h260z" />
<glyph unicode="5" horiz-adv-x="1239" d="M172 1393h946v-385l-534 2l-11 -142q75 11 123 11q78 0 146.5 -14t130.5 -46.5t106.5 -82t70.5 -124t26 -168.5q0 -104 -36.5 -187.5t-97.5 -136.5t-144.5 -88.5t-172.5 -50t-188 -14.5q-122 0 -244 25t-217 69v385q68 -45 175.5 -72.5t209.5 -27.5q109 0 176.5 32 t67.5 95q0 64 -71.5 95.5t-203.5 29.5q-173 0 -307 -41z" />
<glyph unicode="6" horiz-adv-x="1376" d="M526 827q146 82 320 82q76 0 145.5 -17t130 -53t104.5 -88t69.5 -126t25.5 -162q0 -126 -46.5 -223t-127 -155.5t-181.5 -88t-218 -29.5q-350 0 -516 191t-166 544q0 150 38 272t103.5 205t156 139t192.5 81.5t216 25.5q244 0 430 -92v-366q-163 96 -334 96 q-69 0 -122 -11t-98.5 -37t-76 -73t-45.5 -115zM524 528q19 -117 70 -166t129 -49q65 0 108 34.5t43 96.5q0 69 -48 102.5t-124 33.5q-85 0 -178 -52z" />
<glyph unicode="7" horiz-adv-x="1210" d="M45 1393h1137v-299l-520 -1094h-510l479 1008h-586v385z" />
<glyph unicode="8" horiz-adv-x="1368" d="M113 1010q0 78 33 150t99.5 132.5t180 96.5t260.5 36q141 0 254 -35.5t180 -94t101.5 -127.5t33.5 -142q-1 -101 -45 -166t-127 -121q105 -56 164.5 -138.5t59.5 -207.5q0 -86 -36.5 -160.5t-109.5 -135t-196.5 -95.5t-284.5 -35q-133 0 -239.5 23t-176.5 62t-116.5 93 t-66.5 112.5t-20 123.5q0 109 60 197.5t143 134.5q-151 119 -151 297zM707 524q-114 35 -142 45q-43 -54 -43 -127q2 -56 46 -94.5t132 -38.5q68 0 106 27t38 67q0 46 -34 71t-103 50zM821 981q-2 45 -38.5 73.5t-108.5 28.5q-60 0 -93.5 -24.5t-33.5 -59.5q0 -45 36.5 -69 t110.5 -47q89 -29 90 -29q40 69 37 127z" />
<glyph unicode="9" horiz-adv-x="1376" d="M55 930q0 125 47 222.5t128 155.5t182 87.5t217 29.5q350 0 516 -191t166 -544q0 -150 -38 -272t-103.5 -205t-156 -139t-192.5 -81.5t-217 -25.5q-246 0 -428 92v367q159 -96 332 -96q142 0 227.5 52t114.5 183q-146 -82 -320 -82q-96 0 -180 28t-151 81.5t-105.5 140.5 t-38.5 197zM653 1079q-64 0 -106.5 -34.5t-42.5 -96.5q0 -69 47 -102t123 -33q87 0 178 51q-19 118 -69.5 166.5t-129.5 48.5z" />
<glyph unicode=":" horiz-adv-x="604" d="M532 760q0 -109 -65.5 -166t-165.5 -57q-97 0 -163 57.5t-66 165.5q0 109 65.5 166t163.5 57q100 0 165.5 -56.5t65.5 -166.5zM532 190q0 -110 -65.5 -166.5t-165.5 -56.5q-98 0 -163.5 57t-65.5 166q0 108 66 166t163 58q100 0 165.5 -57.5t65.5 -166.5z" />
<glyph unicode=";" horiz-adv-x="626" d="M313 -293h-323l145 629h414zM563 772q0 -113 -68 -172t-171 -59q-102 0 -171 59.5t-69 171.5q0 113 69 172.5t171 59.5q103 0 171 -59.5t68 -172.5z" />
<glyph unicode="&#x3c;" horiz-adv-x="1048" d="M936 600v-375l-870 277v430l870 276v-374l-520 -117z" />
<glyph unicode="=" horiz-adv-x="1284" d="M1157 782h-1030v332h1030v-332zM1157 319h-1030v332h1030v-332z" />
<glyph unicode="&#x3e;" horiz-adv-x="1048" d="M983 502l-870 -277v375l522 117l-522 117v374l870 -276v-430z" />
<glyph unicode="?" horiz-adv-x="1040" d="M657 526h-401q0 58 19.5 112.5t49 93t63.5 76.5t63.5 65t49 56t19.5 52q0 84 -133 84q-73 0 -162.5 -26.5t-154.5 -63.5v401q188 90 409 90q82 0 152.5 -10t138.5 -36t115.5 -67t76.5 -107t29 -152q0 -77 -34.5 -150t-83.5 -128.5t-98 -105t-83.5 -97.5t-34.5 -87z M698 199q0 -113 -68 -172.5t-171 -59.5q-102 0 -171 59.5t-69 172.5q0 112 69 171.5t171 59.5q103 0 171 -59t68 -172z" />
<glyph unicode="@" horiz-adv-x="2138" d="M55 492q0 152 41 294t126 266t205 216t288.5 145t365.5 53q144 0 271.5 -28.5t226 -78.5t180.5 -118.5t138.5 -148t95.5 -167.5t57 -175.5t18 -174.5q0 -137 -37 -245t-102.5 -176.5t-153 -104t-190.5 -35.5q-268 0 -368 185q-38 -57 -105.5 -94t-161.5 -37 q-78 0 -142.5 26t-107 68t-72 97.5t-42.5 113.5t-13 116q0 59 12.5 116t40.5 112t69 97t103 67.5t138 25.5q161 0 254 -116v92h313v-471q0 -117 94 -117q31 0 53 17t33.5 42t18.5 65t8.5 74t1.5 82q0 79 -22.5 156.5t-73 151.5t-122 130.5t-178.5 91t-235 34.5 q-153 0 -280 -53.5t-208.5 -144t-126 -206.5t-44.5 -243q0 -137 41 -247t111 -183.5t168 -122t208 -70t236 -21.5q204 0 436 72v-328q-207 -73 -448 -73q-181 0 -346 38t-306.5 117.5t-245 193t-162.5 274t-59 350.5zM1178 575q-19 31 -49 48.5t-64 17.5q-68 0 -99.5 -46 t-31.5 -108q0 -59 31.5 -105t99.5 -46q71 0 113 65v174z" />
<glyph unicode="A" horiz-adv-x="1566" d="M473 0h-479l536 1434h508l535 -1434h-479l-62 190h-495zM745 838l-100 -306h281l-101 306q-29 97 -41 184q-10 -74 -39 -184z" />
<glyph unicode="B" horiz-adv-x="1433" d="M109 1434h716q508 0 508 -363q0 -230 -205 -309q263 -80 263 -352q0 -410 -584 -410h-698v1434zM920 465q0 57 -35.5 87t-102.5 30h-200v-234h200q67 0 102.5 30t35.5 87zM879 979q0 47 -30.5 76.5t-88.5 29.5h-178v-211l178 -2q57 0 88 30.5t31 76.5z" />
<glyph unicode="C" horiz-adv-x="1331" d="M51 702q-1 158 43 288t119 217t176.5 146.5t213.5 86t233 26.5q229 0 421 -86v-422q-63 43 -154 71t-183 28q-77 0 -143.5 -20t-121.5 -61t-86.5 -111t-31.5 -163q0 -81 31.5 -144t84.5 -100.5t118 -56t138 -18.5q112 0 208 26.5t151 75.5v-432q-192 -86 -420 -86 q-125 0 -239 26t-216.5 83t-178 141t-119.5 208.5t-44 276.5z" />
<glyph unicode="D" horiz-adv-x="1523" d="M109 1434h618q189 0 332.5 -52.5t232.5 -149t133.5 -226t44.5 -289.5t-44.5 -289.5t-133.5 -226t-232.5 -149t-332.5 -52.5h-618v1434zM985 717q0 168 -69 243.5t-201 75.5h-133v-639h133q132 0 201 75.5t69 244.5z" />
<glyph unicode="E" horiz-adv-x="1273" d="M109 1434h1085v-373h-612v-166h538v-348h-538v-170h624v-377h-1097v1434z" />
<glyph unicode="F" horiz-adv-x="1232" d="M109 1434h1062v-414h-589v-176h530v-402h-530v-442h-473v1434z" />
<glyph unicode="G" horiz-adv-x="1421" d="M49 717q0 153 44 279.5t119.5 212t177.5 144.5t215.5 86t236.5 27q250 0 463 -86v-422q-72 45 -175 71t-202 26q-81 0 -150 -19t-124.5 -58t-87 -106t-31.5 -155q0 -77 22 -137.5t55 -95t76 -57t80 -30.5t72 -8q25 0 57 4v408h442v-738q-246 -96 -487 -96 q-126 0 -242.5 28.5t-219 89t-178 147.5t-119.5 211.5t-44 273.5z" />
<glyph unicode="H" horiz-adv-x="1550" d="M971 1434h471v-1434h-471v510h-389v-510h-473v1434h473v-510h389v510z" />
<glyph unicode="I" horiz-adv-x="690" d="M109 1434h473v-1434h-473v1434z" />
<glyph unicode="J" horiz-adv-x="1062" d="M164 1434h803v-936q0 -117 -32.5 -209t-85.5 -150t-127.5 -95.5t-152.5 -53t-166 -15.5q-221 0 -372 62v418q117 -52 248 -52q215 0 215 154v463h-330v414z" />
<glyph unicode="K" horiz-adv-x="1490" d="M582 0h-473v1434h473v-508h118l287 508h520l-436 -711l445 -723h-521l-305 512h-108v-512z" />
<glyph unicode="L" d="M109 1434h473v-1020h612v-414h-1085v1434z" />
<glyph unicode="M" horiz-adv-x="1857" d="M1329 1434h420v-1434h-461v655l-235 -364h-248l-236 366v-657h-460v1434h419l400 -627z" />
<glyph unicode="N" horiz-adv-x="1562" d="M582 0h-473v1434h399l485 -674q-12 103 -12 246v428h473v-1434h-399l-486 672q13 -112 13 -242v-430z" />
<glyph unicode="O" horiz-adv-x="1650" d="M49 717q0 156 49.5 291t144 237.5t244.5 161.5t338 59t338 -59t245 -161.5t144.5 -237.5t49.5 -291t-49.5 -291t-144.5 -238t-245 -162t-338 -59t-338 59t-244.5 162t-144 238t-49.5 291zM1116 717q0 149 -77 235t-214 86t-213.5 -86t-76.5 -235t76.5 -235.5t213.5 -86.5 t214 86.5t77 235.5z" />
<glyph unicode="P" horiz-adv-x="1411" d="M109 1434h626q643 0 643 -531q0 -528 -643 -528h-153v-375h-473v1434zM909 903q0 141 -178 141h-149v-280h149q178 0 178 139z" />
<glyph unicode="Q" horiz-adv-x="1650" d="M1602 139l-273 -241l-139 139q-159 -70 -365 -70q-188 0 -338 59t-244.5 162t-144 238t-49.5 291t49.5 291t144 237.5t244.5 161.5t338 59t338 -59t245 -161.5t144.5 -237.5t49.5 -291q0 -261 -129 -449zM522 717q0 -155 81.5 -243.5t219.5 -88.5q29 0 41 2l-121 121 l236 233l133 -133q14 46 14 109q0 156 -82 245t-221 89q-138 0 -219.5 -89.5t-81.5 -244.5z" />
<glyph unicode="R" horiz-adv-x="1492" d="M582 0h-473v1434h665q96 0 181 -14.5t165 -51t137.5 -93t92 -145.5t34.5 -202q0 -305 -245 -428l368 -500h-520l-295 424h-110v-424zM582 1049v-271h182q68 0 106.5 37t38.5 98t-38.5 98.5t-106.5 37.5h-182z" />
<glyph unicode="S" horiz-adv-x="1300" d="M70 1022q0 110 44 196t121.5 139.5t178 81t219.5 27.5q142 0 282 -31t244 -87v-410q-104 66 -229.5 102t-245.5 35q-127 0 -127 -63q0 -24 24 -43t64 -33.5t92.5 -29.5t110 -34t115 -42.5t110 -59.5t92.5 -81t64 -111t24 -146q0 -107 -31.5 -189t-85 -133.5t-132 -84 t-164 -45.5t-189.5 -13q-327 0 -569 135v428q128 -84 264 -126t258 -42q91 0 126.5 16.5t35.5 53.5q0 29 -38.5 52t-100 42t-135.5 41.5t-148 59t-135.5 85t-100 128.5t-38.5 182z" />
<glyph unicode="T" horiz-adv-x="1290" d="M25 1434h1241v-414h-385v-1020h-471v1020h-385v414z" />
<glyph unicode="U" horiz-adv-x="1515" d="M952 1434h471v-877q0 -129 -37 -231t-99 -168t-148.5 -110t-180.5 -62.5t-200 -18.5t-200 18.5t-181 62.5t-149 110t-99 168t-37 231v877h473v-854q0 -189 193 -189q194 0 194 189v854z" />
<glyph unicode="V" horiz-adv-x="1525" d="M1006 0h-484l-526 1434h502l266 -879l264 879h502z" />
<glyph unicode="W" horiz-adv-x="2277" d="M1759 1434h510l-432 -1434h-508l-190 723l-189 -723h-510l-432 1434h508l205 -865l223 865h389l221 -865z" />
<glyph unicode="X" horiz-adv-x="1497" d="M512 0h-551l492 739l-467 695h551l213 -371l211 371h550l-467 -695l492 -739h-551l-235 403z" />
<glyph unicode="Y" horiz-adv-x="1542" d="M1006 0h-469v489l-545 945h534l246 -543l246 543h534l-546 -945v-489z" />
<glyph unicode="Z" horiz-adv-x="1323" d="M1262 0h-1207v301l533 719h-500v414h1149v-301l-532 -719h557v-414z" />
<glyph unicode="[" horiz-adv-x="788" d="M733 -225h-631v1884h631v-371h-203v-1141h203v-372z" />
<glyph unicode="\" horiz-adv-x="1019" d="M983 -125h-301l-647 1684h301z" />
<glyph unicode="]" horiz-adv-x="788" d="M686 -225h-631v372h203v1141h-203v371h631v-1884z" />
<glyph unicode="^" horiz-adv-x="1355" d="M487 659h-440l440 775h381l441 -775h-441l-190 367z" />
<glyph unicode="_" horiz-adv-x="1067" d="M1067 -416h-1067v346h1067v-346z" />
<glyph unicode="`" horiz-adv-x="729" d="M674 1540h-375l-250 336h422z" />
<glyph unicode="a" horiz-adv-x="1177" d="M1073 311q0 -53 57 -53q15 0 39 4v-252q-85 -37 -217 -37q-171 0 -245 105q-136 -111 -328 -111q-146 0 -244 78t-98 219q0 72 26 129t67.5 92t99 58t116 32t123.5 9q105 0 195 -19v23q0 108 -195 108q-164 0 -354 -69v323q218 66 403 66q106 0 188 -13t153 -45.5 t116.5 -86t71.5 -137t26 -195.5v-228zM578 387q-51 0 -87 -21t-36 -67q0 -36 27.5 -57t68.5 -21q63 0 113 33v121q-34 12 -86 12z" />
<glyph unicode="b" horiz-adv-x="1280" d="M84 1434h432v-510q99 92 268 92q113 0 201.5 -43.5t142 -118t80.5 -166.5t27 -196t-27 -196.5t-80.5 -167t-142 -118t-201.5 -43.5q-103 0 -185 42t-136 110v-119h-379v1434zM791 492q0 73 -38.5 125.5t-111.5 52.5q-42 0 -77.5 -21t-49.5 -49v-217q16 -29 50.5 -49.5 t76.5 -20.5q73 0 111.5 53t38.5 126z" />
<glyph unicode="c" horiz-adv-x="1001" d="M43 465q0 115 33 209.5t88 157.5t131 106.5t159 62.5t173 19q153 0 303 -59v-355q-110 56 -225 56q-95 0 -156.5 -41t-61.5 -129q0 -85 59 -125.5t150 -40.5q141 0 244 49v-352q-163 -56 -342 -56q-110 0 -207 29t-176 86.5t-125.5 156t-46.5 226.5z" />
<glyph unicode="d" horiz-adv-x="1280" d="M766 1434h430v-1434h-379v119q-52 -67 -133.5 -109.5t-185.5 -42.5q-92 0 -168 29t-128 78t-88 116.5t-52.5 143t-16.5 158.5q0 104 27 196t80.5 166.5t142.5 118t203 43.5q166 0 268 -92v510zM768 600q-16 29 -50.5 49.5t-76.5 20.5q-74 0 -111.5 -52.5t-37.5 -125.5 q0 -74 37.5 -126.5t111.5 -52.5q42 0 76.5 20.5t50.5 49.5v217z" />
<glyph unicode="e" horiz-adv-x="1120" d="M43 498q0 111 34 201.5t88.5 148t125.5 96.5t141 55.5t139 16.5q92 0 169.5 -19.5t132.5 -54t96.5 -82t65 -102.5t34.5 -117t9 -124t-15 -124h-606q25 -60 102 -91.5t178 -31.5q162 0 283 39v-291q-148 -51 -358 -51q-97 0 -185.5 18.5t-168.5 59.5t-138 102t-92.5 151 t-34.5 200zM713 592q9 50 -20.5 94.5t-98.5 44.5q-64 0 -102.5 -39t-38.5 -100h260z" />
<glyph unicode="f" horiz-adv-x="860" d="M621 0h-433v639h-139v344h139v82q0 90 26 161t67.5 115t98.5 73t114.5 40.5t119.5 11.5q147 0 250 -39v-329q-56 32 -123 32q-52 0 -86 -24t-34 -76v-47h215v-344h-215v-639z" />
<glyph unicode="g" horiz-adv-x="1280" d="M45 504q0 83 16.5 157t52.5 139.5t88 113t128 75t168 27.5q104 0 185.5 -42.5t133.5 -109.5v119h379v-920q0 -118 -33 -212t-89 -156t-133.5 -102.5t-163 -58t-181.5 -17.5q-244 0 -446 84v356q166 -90 368 -90q248 0 248 168v49q-101 -94 -268 -94q-114 0 -203 42 t-142.5 114.5t-80.5 163t-27 194.5zM768 606q-16 29 -50.5 49.5t-76.5 20.5q-74 0 -111.5 -52.5t-37.5 -125.5q0 -74 37.5 -126.5t111.5 -52.5q42 0 76.5 20.5t50.5 49.5v217z" />
<glyph unicode="h" d="M84 1434h432v-504q113 86 248 86q97 0 172.5 -32.5t120 -87.5t66.5 -121t22 -140v-635h-432v561q0 47 -26.5 70.5t-68.5 23.5q-64 0 -102 -49v-606h-432v1434z" />
<glyph unicode="i" horiz-adv-x="600" d="M516 0h-432v983h432v-983zM524 1300q0 -107 -64 -162t-161 -55q-96 0 -160.5 55t-64.5 162q0 105 64.5 160.5t160.5 55.5q97 0 161 -55.5t64 -160.5z" />
<glyph unicode="j" horiz-adv-x="600" d="M516 -104q0 -100 -33.5 -175t-92.5 -118.5t-131.5 -64.5t-158.5 -21q-122 0 -204 30v351q46 -11 84 -11q104 0 104 109v987h432v-1087zM526 1300q0 -107 -64 -162t-161 -55q-96 0 -160.5 55t-64.5 162q0 105 64.5 160.5t160.5 55.5q97 0 161 -55.5t64 -160.5z" />
<glyph unicode="k" horiz-adv-x="1220" d="M1233 0h-469l-186 332h-62v-332h-432v1434h432v-766h64l174 315h469l-303 -485z" />
<glyph unicode="l" horiz-adv-x="600" d="M84 1495h432v-1495h-432v1495z" />
<glyph unicode="m" horiz-adv-x="1771" d="M510 0h-426v983h379v-92q46 51 129 88t172 37q193 0 280 -131q60 60 141 95.5t167 35.5q94 0 163 -32t108 -89t57 -126t18 -151v-618h-426v584q0 35 -20.5 53t-53.5 18q-47 0 -90 -37v-28v-590h-426v584q0 35 -20.5 53t-51.5 18q-56 0 -100 -47v-608z" />
<glyph unicode="n" d="M463 885q131 131 301 131q97 0 172.5 -32.5t120 -87.5t66.5 -121t22 -140v-635h-432v561q0 47 -26.5 70.5t-68.5 23.5q-64 0 -102 -49v-606h-432v983h379v-98z" />
<glyph unicode="o" d="M43 492q0 129 45 230.5t123 165t179 96t218 32.5t218.5 -32.5t180.5 -96t124 -165t45 -230.5q0 -104 -29.5 -190.5t-82 -147.5t-124 -103.5t-155.5 -63t-177 -20.5q-117 0 -218 33t-179 96t-123 165t-45 231zM754 492q0 76 -34.5 121.5t-111.5 45.5q-75 0 -109 -46 t-34 -121t34 -121.5t109 -46.5q77 0 111.5 46t34.5 122z" />
<glyph unicode="p" horiz-adv-x="1280" d="M463 864q54 68 136 110t185 42q113 0 201.5 -43.5t142 -118t80.5 -166.5t27 -196t-27 -196.5t-80.5 -167t-142 -118t-201.5 -43.5q-166 0 -268 92v-510h-432v1434h379v-119zM791 492q0 73 -38.5 125.5t-111.5 52.5q-42 0 -76.5 -20.5t-50.5 -49.5v-217q14 -28 49.5 -49 t77.5 -21q73 0 111.5 53t38.5 126z" />
<glyph unicode="q" horiz-adv-x="1280" d="M45 492q0 104 27 196t80.5 166.5t142.5 118t203 43.5q104 0 185.5 -42.5t133.5 -109.5v119h379v-1434h-430v510q-102 -92 -268 -92q-92 0 -168 29t-128 78t-88 116.5t-52.5 143t-16.5 158.5zM768 600q-16 29 -50.5 49.5t-76.5 20.5q-74 0 -111.5 -52.5t-37.5 -125.5 q0 -74 37.5 -126.5t111.5 -52.5q42 0 76.5 20.5t50.5 49.5v217z" />
<glyph unicode="r" horiz-adv-x="858" d="M463 868q123 164 366 136v-406q-83 27 -175.5 12.5t-137.5 -63.5v-547h-432v983h379v-115z" />
<glyph unicode="s" horiz-adv-x="1005" d="M57 700q0 70 25 125.5t66 90.5t99.5 58t121 32.5t133.5 9.5q207 0 387 -84v-303q-64 39 -151.5 64.5t-159.5 25.5t-72 -35q0 -21 25.5 -36.5t66 -27.5t89.5 -26t98.5 -37t90 -55t66 -86.5t25.5 -124.5q0 -74 -27 -131t-71.5 -93t-108 -59t-131.5 -32t-148 -9 q-252 0 -411 86v330q77 -55 175 -82t179 -27q53 0 74.5 9t21.5 28t-25.5 34.5t-66.5 27.5t-90 26.5t-98.5 38.5t-90.5 56t-66.5 85t-25.5 121z" />
<glyph unicode="t" horiz-adv-x="890" d="M172 1247l432 101v-365h219v-344h-219v-227q0 -93 117 -93q67 0 117 17v-332q-144 -39 -277 -39q-61 0 -114 10t-105 36t-88.5 67t-59 108.5t-22.5 155.5v297h-137v344h137v264z" />
<glyph unicode="u" d="M702 983h433v-983h-379v98q-131 -131 -303 -131q-97 0 -172.5 32.5t-119 87.5t-65.5 121t-22 140v635h432v-561q0 -48 25.5 -71t68.5 -23q64 0 102 49v606z" />
<glyph unicode="v" horiz-adv-x="1226" d="M770 983h453l-381 -983h-457l-381 983h455l155 -571z" />
<glyph unicode="w" horiz-adv-x="1728" d="M1274 983h440l-303 -983h-420l-127 485l-127 -485h-420l-303 983h441l112 -547l133 547h328l133 -547z" />
<glyph unicode="x" horiz-adv-x="1169" d="M719 983h455l-328 -494l340 -489h-463l-137 225l-137 -225h-465l340 489l-326 494h453l135 -235z" />
<glyph unicode="y" horiz-adv-x="1236" d="M641 444l150 539h438l-375 -1042q-151 -422 -524 -422q-92 0 -215 35v348q82 -21 145 -21q124 0 182 113l-450 989h446z" />
<glyph unicode="z" horiz-adv-x="1034" d="M86 983h862v-254l-336 -385h365v-344h-922v254l338 385h-307v344z" />
<glyph unicode="{" horiz-adv-x="841" d="M784 115v-340q-274 -64 -435 34.5t-161 319.5v291q0 37 -11.5 61.5t-34.5 36t-47 15.5t-58 4v362q34 0 56.5 3.5t46.5 14t36 35t12 62.5v291q0 221 161 319.5t435 34.5v-340q-93 18 -130.5 -23.5t-37.5 -140.5v-201q0 -107 -59 -170.5t-149 -66.5q89 -3 148.5 -67 t59.5 -171v-200q0 -99 37.5 -140.5t130.5 -23.5z" />
<glyph unicode="|" horiz-adv-x="632" d="M530 -205h-428v1864h428v-1864z" />
<glyph unicode="}" horiz-adv-x="841" d="M653 129q0 -221 -161 -319.5t-435 -34.5v340q93 -18 130.5 23.5t37.5 140.5v200q0 107 59.5 171t149.5 67q-90 3 -149.5 66.5t-59.5 170.5v201q0 99 -37.5 140.5t-130.5 23.5v340q274 64 435 -34.5t161 -319.5v-291q0 -38 12 -62.5t36.5 -35t47 -14t56.5 -3.5v-362 q-34 0 -58 -4t-47 -15.5t-35 -36t-12 -61.5v-291z" />
<glyph unicode="~" horiz-adv-x="1239" d="M1159 885q28 -209 -54 -314.5t-237 -105.5q-65 0 -149 25t-151.5 49.5t-92.5 23.5q-54 0 -43 -84h-340q-14 108 2 190.5t57.5 132.5t98.5 74.5t129 24.5q68 0 151.5 -24.5t150 -49t95.5 -24.5q54 0 43 82h340z" />
<glyph unicode="&#xa1;" horiz-adv-x="614" d="M537 -451h-461l49 871h362zM547 784q0 -113 -68.5 -172t-171.5 -59q-102 0 -170.5 59.5t-68.5 171.5q0 114 68.5 173t170.5 59q104 0 172 -59t68 -173z" />
<glyph unicode="&#xa2;" horiz-adv-x="1044" d="M809 334q75 11 139 41v-352q-81 -25 -139 -37v-232h-191v213h-12q-110 0 -207 29t-176 86.5t-125.5 156t-46.5 226.5q0 113 31.5 206t85 156t127 106.5t154 64t169.5 22.5v209h191v-230q73 -16 129 -38v-355q-64 31 -129 45v-317zM618 649q-122 -34 -122 -157 q0 -122 122 -156v313z" />
<glyph unicode="&#xa3;" horiz-adv-x="1247" d="M1182 0h-1114v369h43q59 0 92 36.5t33 98.5v45h-138v307h140v66q0 128 42 226.5t116 158t169.5 89t208.5 29.5q192 0 359 -71v-357q-112 76 -252 76q-90 0 -142.5 -43.5t-52.5 -126.5v-47h338v-307h-338v-39q0 -91 -59 -141h555v-369z" />
<glyph unicode="&#xa4;" horiz-adv-x="1146" d="M369 340l-123 -123l-174 174l110 111q-55 93 -55 215q0 124 55 217l-110 113l172 174l127 -127q93 41 202 41t205 -41l125 129l172 -176l-112 -115q55 -93 55 -215q0 -123 -53 -215l110 -111l-174 -174l-123 123q-93 -41 -205 -41q-111 0 -204 41zM469 717q0 -41 26 -71 t78 -30q50 0 76.5 30t26.5 71t-26.5 71.5t-76.5 30.5q-52 0 -78 -30.5t-26 -71.5z" />
<glyph unicode="&#xa5;" horiz-adv-x="1558" d="M1012 1393h504l-379 -656h190v-225h-313v-80h313v-225h-313v-207h-469v207h-312v225h312v80h-312v225h189l-379 656h504l231 -510z" />
<glyph unicode="&#xa6;" horiz-adv-x="649" d="M539 860h-428v799h428v-799zM539 -205h-428v799h428v-799z" />
<glyph unicode="&#xa7;" horiz-adv-x="1085" d="M1006 250q0 -88 -40 -153t-111 -101t-157 -53t-190 -17q-229 0 -391 86v326q79 -54 172 -80.5t174 -26.5q54 0 75 8.5t21 28.5q0 12 -9 21.5t-32.5 19.5t-41.5 16t-58 17.5t-60 17.5q-46 15 -81.5 31t-74.5 41.5t-64.5 55.5t-42.5 74t-17 97q0 165 149 250 q-141 98 -141 242q0 67 24.5 121t67 90t102 59.5t125.5 34t142 10.5q201 0 381 -84v-299q-66 37 -155 61.5t-169 24.5q-67 0 -67 -34q0 -14 12.5 -25.5t37.5 -22t51 -19t66.5 -21t69.5 -23.5q51 -18 90.5 -40t76 -55t56 -80.5t19.5 -107.5q0 -160 -135 -258 q125 -90 125 -233zM510 637q34 -15 100 -33q46 34 49 70q3 44 -65 74q-44 20 -115 43q-48 -29 -51 -76q-3 -50 82 -78z" />
<glyph unicode="&#xa8;" horiz-adv-x="894" d="M883 1708q0 -88 -56.5 -142.5t-142.5 -54.5q-85 0 -141 54.5t-56 142.5t56 142.5t141 54.5q86 0 142.5 -54.5t56.5 -142.5zM410 1708q0 -88 -56.5 -142.5t-142.5 -54.5q-85 0 -141 54.5t-56 142.5t56 142.5t141 54.5q86 0 142.5 -54.5t56.5 -142.5z" />
<glyph unicode="&#xa9;" horiz-adv-x="1697" d="M1636 717q0 -146 -41.5 -269.5t-115 -211t-173 -149t-215.5 -91t-243 -29.5q-159 0 -299.5 48t-250 138.5t-173.5 236t-64 327.5t64 327t173.5 236t250 138.5t299.5 47.5q127 0 243 -29.5t215.5 -90.5t173 -148.5t115 -211t41.5 -269.5zM1184 365q-76 -40 -140 -55 t-167 -15q-80 0 -156 23.5t-141.5 70t-105.5 127t-40 184.5q0 91 25.5 165t68.5 124t103 84.5t127.5 50t142.5 15.5q168 0 283 -70v-252q-92 55 -209 55q-51 0 -91 -13.5t-68 -48.5t-28 -89q0 -85 55 -122.5t136 -37.5q119 0 205 57v-253zM211 717q0 -119 34.5 -220 t94.5 -173t140.5 -122.5t173.5 -75t194 -24.5t194.5 24.5t174.5 75t141 122.5t94.5 173t34.5 220q0 148 -52.5 267t-142 193.5t-203.5 114t-241 39.5t-240 -39.5t-202.5 -114t-142 -193.5t-52.5 -267z" />
<glyph unicode="&#xab;" horiz-adv-x="1376" d="M1331 66h-430l-280 389v73l280 390h430l-301 -426zM758 66h-430l-279 389v73l279 390h430l-299 -426z" />
<glyph unicode="&#xac;" horiz-adv-x="1185" d="M1087 403h-356v234h-657v346h1013v-580z" />
<glyph unicode="&#xad;" horiz-adv-x="983" d="M92 659h799v-333h-799v333z" />
<glyph unicode="&#xae;" horiz-adv-x="1689" d="M1628 717q0 -145 -41 -267.5t-114 -210.5t-171.5 -150t-214.5 -92t-243 -30q-126 0 -241.5 30t-214.5 92t-171.5 150t-114 210.5t-41.5 267.5t41.5 267.5t114 210t171.5 149.5t214.5 92t241.5 30q127 0 243 -30t214.5 -92t171.5 -149.5t114 -210t41 -267.5zM211 717 q0 -148 51.5 -267t139.5 -193.5t201 -113.5t241 -39q102 0 195.5 24t173.5 74.5t138.5 122t92 172.5t33.5 220t-33.5 220t-92 172.5t-138.5 121.5t-173.5 74t-195.5 24q-128 0 -241 -39t-201 -113t-139.5 -193t-51.5 -267zM782 324h-274v798h401q68 0 126.5 -15.5t107.5 -48 t77.5 -90t28.5 -134.5q0 -179 -141 -244l203 -266h-303l-164 227h-15h-47v-227zM782 891v-137h105q37 0 58.5 17.5t21.5 51.5q0 33 -22 50.5t-58 17.5h-105z" />
<glyph unicode="&#xaf;" horiz-adv-x="737" d="M-6 1827h743v-297h-743v297z" />
<glyph unicode="&#xb0;" horiz-adv-x="911" d="M870 1083q0 -190 -114 -291.5t-299 -101.5t-300.5 101.5t-115.5 291.5q0 179 116.5 281t299.5 102q184 0 298.5 -101.5t114.5 -281.5zM350 1079q0 -48 28 -77t79 -29t77.5 28.5t26.5 77.5q0 48 -26.5 76.5t-77.5 28.5t-79 -29t-28 -76z" />
<glyph unicode="&#xb1;" horiz-adv-x="1191" d="M768 1407v-311h336v-344h-336v-314h-344v314h-336v344h336v311h344zM1104 0h-1016v344h1016v-344z" />
<glyph unicode="&#xb4;" horiz-adv-x="710" d="M420 1540h-375l201 336h424z" />
<glyph unicode="&#xb6;" horiz-adv-x="1701" d="M981 -451h-442v961q-231 0 -361.5 122t-130.5 339q0 218 130.5 340.5t361.5 122.5h1034v-1885h-443v1471h-149v-1471z" />
<glyph unicode="&#xb7;" horiz-adv-x="593" d="M537 487q0 -113 -68.5 -172t-171.5 -59q-102 0 -171 59.5t-69 171.5q0 113 69 172.5t171 59.5q103 0 171.5 -59.5t68.5 -172.5z" />
<glyph unicode="&#xb8;" horiz-adv-x="471" d="M102 0h260l-28 -88q188 -25 188 -184q0 -56 -27 -98t-73 -66.5t-102 -36.5t-119 -12q-145 0 -242 39v215q76 -31 160 -31q117 0 117 51q0 35 -54.5 45.5t-126.5 3.5z" />
<glyph unicode="&#xbb;" horiz-adv-x="1372" d="M1047 66h-433l301 426l-301 426h433l276 -390v-73zM477 66h-432l301 426l-301 426h432l277 -390v-73z" />
<glyph unicode="&#xbc;" horiz-adv-x="1873" d="M1442 836h278v-504h103v-219h-103v-113h-256v113h-415v225zM1464 332v196l-155 -196h155zM512 -33h-123l946 1499h123zM301 1393h207v-605h141v-231h-575v231h159v336l-151 -51v242z" />
<glyph unicode="&#xbd;" horiz-adv-x="1810" d="M506 -33h-123l946 1499h123zM1110 766q142 90 313 90q68 0 125.5 -15t104.5 -46.5t73.5 -85.5t26.5 -125q0 -82 -41 -136.5t-115 -105.5q-15 -10 -44.5 -29.5t-44.5 -30t-32.5 -25t-27.5 -26.5h305v-231h-670l2 115q0 52 15.5 97.5t34 74.5t57 62t61 48.5t68.5 44.5 q19 12 52.5 31.5t48 29t27.5 25.5t13 33q0 53 -80 53q-134 0 -272 -106v258zM295 1393h207v-605h141v-231h-575v231h159v336l-151 -51v242z" />
<glyph unicode="&#xbe;" horiz-adv-x="1976" d="M614 -33h-122l946 1499h123zM1544 836h279v-504h102v-219h-102v-113h-256v113h-416v225zM1567 332v196l-156 -196h156zM692 1188q0 -63 -34 -111t-99 -69q74 -21 121 -72t47 -133q0 -67 -29.5 -117.5t-81 -79t-113 -42t-132.5 -13.5q-150 0 -303 57v244q134 -71 280 -68 q47 0 78 15.5t31 44.5q0 47 -74 47h-147l2 211l118 -2q68 0 68 41q0 51 -98 51q-54 0 -123.5 -21t-120.5 -55v238q123 73 289 73q66 0 122.5 -14t101.5 -41.5t71 -74.5t26 -109z" />
<glyph unicode="&#xbf;" horiz-adv-x="1026" d="M965 -393q-192 -90 -412 -90q-82 0 -152 10t-137.5 36t-115 67t-76.5 107t-29 152q0 77 34.5 150t83.5 128.5t98 105t83.5 97.5t34.5 87h401q0 -58 -19.5 -112.5t-49 -93t-63.5 -76t-63.5 -64.5t-49 -55.5t-19.5 -51.5q0 -86 131 -86q74 0 163.5 26.5t156.5 63.5v-401z M815 784q0 -112 -69 -171.5t-171 -59.5q-103 0 -171 59t-68 172q0 114 67.5 173t171.5 59q103 0 171.5 -59t68.5 -173z" />
<glyph unicode="&#xc0;" horiz-adv-x="1566" d="M473 0h-479l536 1434h508l535 -1434h-479l-62 190h-495zM745 838l-100 -306h281l-101 306q-29 97 -41 184q-10 -74 -39 -184zM1016 1540h-375l-250 336h422z" />
<glyph unicode="&#xc1;" horiz-adv-x="1566" d="M473 0h-479l536 1434h508l535 -1434h-479l-62 190h-495zM745 838l-100 -306h281l-101 306q-29 97 -41 184q-10 -74 -39 -184zM928 1540h-375l201 336h424z" />
<glyph unicode="&#xc2;" horiz-adv-x="1566" d="M473 0h-479l536 1434h508l535 -1434h-479l-62 190h-495zM745 838l-100 -306h281l-101 306q-29 97 -41 184q-10 -74 -39 -184zM594 1880h379l262 -350h-358l-93 117l-92 -117h-360z" />
<glyph unicode="&#xc3;" horiz-adv-x="1566" d="M473 0h-479l536 1434h508l535 -1434h-479l-62 190h-495zM745 838l-100 -306h281l-101 306q-29 97 -41 184q-10 -74 -39 -184zM1194 1872q40 -151 -29 -260t-204 -109q-59 0 -116 21.5t-99 43t-64 21.5q-29 0 -37.5 -24t-1.5 -49h-272q-40 151 28.5 259.5t204.5 108.5 q58 0 115 -21.5t98.5 -43t63.5 -21.5q30 0 38.5 23.5t2.5 50.5h272z" />
<glyph unicode="&#xc4;" horiz-adv-x="1566" d="M473 0h-479l536 1434h508l535 -1434h-479l-62 190h-495zM745 838l-100 -306h281l-101 306q-29 97 -41 184q-10 -74 -39 -184zM1221 1708q0 -88 -56.5 -142.5t-142.5 -54.5q-85 0 -141 54.5t-56 142.5t56 142.5t141 54.5q86 0 142.5 -54.5t56.5 -142.5zM748 1708 q0 -88 -56.5 -142.5t-142.5 -54.5q-85 0 -141 54.5t-56 142.5t56 142.5t141 54.5q86 0 142.5 -54.5t56.5 -142.5z" />
<glyph unicode="&#xc5;" horiz-adv-x="1566" d="M473 0h-479l536 1434h508l535 -1434h-479l-62 190h-495zM745 838l-100 -306h281l-101 306q-29 97 -41 184q-10 -74 -39 -184zM1079 1755q0 -128 -82.5 -199t-208.5 -71q-122 0 -205 71t-83 199q0 121 83.5 192.5t204.5 71.5q125 0 208 -71t83 -193zM721 1753 q0 -31 18 -51.5t52 -20.5t51.5 20.5t17.5 51.5t-17.5 50.5t-51.5 19.5t-52 -19.5t-18 -50.5z" />
<glyph unicode="&#xc6;" horiz-adv-x="2105" d="M1464 547v-170h574v-377h-1034v195h-441l-117 -195h-477l879 1434h1177v-373h-561v-166h488v-348h-488zM758 532h248v422z" />
<glyph unicode="&#xc7;" horiz-adv-x="1333" d="M1268 485v-432q-133 -60 -275 -78l-20 -63q188 -25 188 -184q0 -73 -48 -123t-118 -70t-157 -20q-143 0 -240 39v215q76 -31 160 -31q116 0 116 51q0 35 -54 45.5t-126 3.5l39 133q-111 12 -210 45.5t-186.5 93.5t-150 142t-99 197.5t-36.5 252.5q-1 158 43 288t119 217 t176.5 146.5t213.5 86t233 26.5q229 0 421 -86v-422q-63 43 -154 71t-183 28q-77 0 -143.5 -20t-121.5 -61t-86.5 -111t-31.5 -163q0 -81 31.5 -144t84.5 -100.5t118 -56t138 -18.5q112 0 208 26.5t151 75.5z" />
<glyph unicode="&#xc8;" horiz-adv-x="1273" d="M109 1434h1085v-373h-612v-166h538v-348h-538v-170h624v-377h-1097v1434zM887 1540h-375l-250 336h422z" />
<glyph unicode="&#xc9;" horiz-adv-x="1273" d="M109 1434h1085v-373h-612v-166h538v-348h-538v-170h624v-377h-1097v1434zM799 1540h-375l201 336h424z" />
<glyph unicode="&#xca;" horiz-adv-x="1273" d="M109 1434h1085v-373h-612v-166h538v-348h-538v-170h624v-377h-1097v1434zM465 1880h379l262 -350h-358l-93 117l-92 -117h-360z" />
<glyph unicode="&#xcb;" horiz-adv-x="1273" d="M109 1434h1085v-373h-612v-166h538v-348h-538v-170h624v-377h-1097v1434zM1092 1708q0 -88 -56.5 -142.5t-142.5 -54.5q-85 0 -141 54.5t-56 142.5t56 142.5t141 54.5q86 0 142.5 -54.5t56.5 -142.5zM618 1708q0 -88 -56 -142.5t-142 -54.5q-85 0 -141 54.5t-56 142.5 t56 142.5t141 54.5q86 0 142 -54.5t56 -142.5z" />
<glyph unicode="&#xcc;" horiz-adv-x="690" d="M109 1434h473v-1434h-473v1434zM575 1540h-374l-250 336h422z" />
<glyph unicode="&#xcd;" horiz-adv-x="690" d="M109 1434h473v-1434h-473v1434zM487 1540h-374l200 336h424z" />
<glyph unicode="&#xce;" horiz-adv-x="690" d="M109 1434h473v-1434h-473v1434zM154 1880h378l263 -350h-359l-92 117l-92 -117h-361z" />
<glyph unicode="&#xcf;" horiz-adv-x="690" d="M109 1434h473v-1434h-473v1434zM780 1708q0 -88 -56 -142.5t-142 -54.5q-85 0 -141 54.5t-56 142.5t56 142.5t141 54.5q86 0 142 -54.5t56 -142.5zM307 1708q0 -88 -56 -142.5t-142 -54.5q-85 0 -141 54.5t-56 142.5t56 142.5t141 54.5q86 0 142 -54.5t56 -142.5z" />
<glyph unicode="&#xd0;" horiz-adv-x="1554" d="M137 1434h619q189 0 332.5 -52.5t233 -149t134.5 -226t45 -289.5t-45 -289.5t-134.5 -226t-233 -149t-332.5 -52.5h-619v575h-121v279h121v580zM610 397h133q132 0 201.5 76t69.5 244t-69.5 243.5t-201.5 75.5h-133v-182h207v-279h-207v-178z" />
<glyph unicode="&#xd1;" horiz-adv-x="1562" d="M582 0h-473v1434h399l485 -674q-12 103 -12 246v428h473v-1434h-399l-486 672q13 -112 13 -242v-430zM1180 1872q40 -151 -29.5 -260t-204.5 -109q-59 0 -116 21.5t-98.5 43t-63.5 21.5q-29 0 -37.5 -24t-1.5 -49h-273q-40 151 29 259.5t205 108.5q58 0 115 -21.5t98 -43 t63 -21.5q30 0 38.5 23.5t2.5 50.5h273z" />
<glyph unicode="&#xd2;" horiz-adv-x="1650" d="M49 717q0 156 49.5 291t144 237.5t244.5 161.5t338 59t338 -59t245 -161.5t144.5 -237.5t49.5 -291t-49.5 -291t-144.5 -238t-245 -162t-338 -59t-338 59t-244.5 162t-144 238t-49.5 291zM1116 717q0 149 -77 235t-214 86t-213.5 -86t-76.5 -235t76.5 -235.5t213.5 -86.5 t214 86.5t77 235.5zM1055 1540h-375l-250 336h422z" />
<glyph unicode="&#xd3;" horiz-adv-x="1650" d="M49 717q0 156 49.5 291t144 237.5t244.5 161.5t338 59t338 -59t245 -161.5t144.5 -237.5t49.5 -291t-49.5 -291t-144.5 -238t-245 -162t-338 -59t-338 59t-244.5 162t-144 238t-49.5 291zM1116 717q0 149 -77 235t-214 86t-213.5 -86t-76.5 -235t76.5 -235.5t213.5 -86.5 t214 86.5t77 235.5zM967 1540h-375l201 336h424z" />
<glyph unicode="&#xd4;" horiz-adv-x="1650" d="M49 717q0 156 49.5 291t144 237.5t244.5 161.5t338 59t338 -59t245 -161.5t144.5 -237.5t49.5 -291t-49.5 -291t-144.5 -238t-245 -162t-338 -59t-338 59t-244.5 162t-144 238t-49.5 291zM1116 717q0 149 -77 235t-214 86t-213.5 -86t-76.5 -235t76.5 -235.5t213.5 -86.5 t214 86.5t77 235.5zM633 1880h379l262 -350h-359l-92 117l-92 -117h-360z" />
<glyph unicode="&#xd5;" horiz-adv-x="1650" d="M49 717q0 156 49.5 291t144 237.5t244.5 161.5t338 59t338 -59t245 -161.5t144.5 -237.5t49.5 -291t-49.5 -291t-144.5 -238t-245 -162t-338 -59t-338 59t-244.5 162t-144 238t-49.5 291zM1116 717q0 149 -77 235t-214 86t-213.5 -86t-76.5 -235t76.5 -235.5t213.5 -86.5 t214 86.5t77 235.5zM1233 1872q40 -151 -29.5 -260t-204.5 -109q-59 0 -116 21.5t-98.5 43t-63.5 21.5q-29 0 -37.5 -24t-1.5 -49h-272q-40 151 28.5 259.5t204.5 108.5q58 0 115 -21.5t98.5 -43t63.5 -21.5q30 0 38.5 23.5t2.5 50.5h272z" />
<glyph unicode="&#xd6;" horiz-adv-x="1650" d="M49 717q0 156 49.5 291t144 237.5t244.5 161.5t338 59t338 -59t245 -161.5t144.5 -237.5t49.5 -291t-49.5 -291t-144.5 -238t-245 -162t-338 -59t-338 59t-244.5 162t-144 238t-49.5 291zM1116 717q0 149 -77 235t-214 86t-213.5 -86t-76.5 -235t76.5 -235.5t213.5 -86.5 t214 86.5t77 235.5zM1260 1708q0 -88 -56.5 -142.5t-142.5 -54.5q-85 0 -141 54.5t-56 142.5t56 142.5t141 54.5q86 0 142.5 -54.5t56.5 -142.5zM786 1708q0 -88 -56 -142.5t-142 -54.5q-85 0 -141 54.5t-56 142.5t56 142.5t141 54.5q86 0 142 -54.5t56 -142.5z" />
<glyph unicode="&#xd7;" horiz-adv-x="1077" d="M539 489l-252 -249l-226 225l250 250l-250 252l226 225l252 -250l249 250l228 -225l-252 -252l252 -250l-228 -225z" />
<glyph unicode="&#xd8;" horiz-adv-x="1650" d="M1522 1532l-168 -236q122 -101 185 -251t63 -328q0 -156 -49.5 -291t-144.5 -238t-245 -162t-338 -59q-206 0 -370 74l-99 -139h-225l168 233q-123 103 -186.5 254t-63.5 328q0 156 49.5 291t144 237.5t244.5 161.5t338 59q218 0 373 -73l98 139h226zM825 1038 q-137 0 -213.5 -86t-76.5 -235q0 -110 45 -189l352 494q-53 16 -107 16zM721 414q49 -19 102 -19q137 0 214 86.5t77 235.5q0 113 -45 184z" />
<glyph unicode="&#xd9;" horiz-adv-x="1515" d="M952 1434h471v-877q0 -129 -37 -231t-99 -168t-148.5 -110t-180.5 -62.5t-200 -18.5t-200 18.5t-181 62.5t-149 110t-99 168t-37 231v877h473v-854q0 -189 193 -189q194 0 194 189v854zM989 1540h-375l-249 336h421z" />
<glyph unicode="&#xda;" horiz-adv-x="1515" d="M952 1434h471v-877q0 -129 -37 -231t-99 -168t-148.5 -110t-180.5 -62.5t-200 -18.5t-200 18.5t-181 62.5t-149 110t-99 168t-37 231v877h473v-854q0 -189 193 -189q194 0 194 189v854zM901 1540h-375l201 336h424z" />
<glyph unicode="&#xdb;" horiz-adv-x="1515" d="M952 1434h471v-877q0 -129 -37 -231t-99 -168t-148.5 -110t-180.5 -62.5t-200 -18.5t-200 18.5t-181 62.5t-149 110t-99 168t-37 231v877h473v-854q0 -189 193 -189q194 0 194 189v854zM567 1880h379l262 -350h-358l-92 117l-92 -117h-361z" />
<glyph unicode="&#xdc;" horiz-adv-x="1515" d="M952 1434h471v-877q0 -129 -37 -231t-99 -168t-148.5 -110t-180.5 -62.5t-200 -18.5t-200 18.5t-181 62.5t-149 110t-99 168t-37 231v877h473v-854q0 -189 193 -189q194 0 194 189v854zM1194 1708q0 -88 -56.5 -142.5t-142.5 -54.5q-85 0 -140.5 54.5t-55.5 142.5 t55.5 142.5t140.5 54.5q86 0 142.5 -54.5t56.5 -142.5zM721 1708q0 -88 -56.5 -142.5t-142.5 -54.5q-85 0 -140.5 54.5t-55.5 142.5t55.5 142.5t140.5 54.5q86 0 142.5 -54.5t56.5 -142.5z" />
<glyph unicode="&#xdd;" horiz-adv-x="1542" d="M1006 0h-469v489l-545 945h534l246 -543l246 543h534l-546 -945v-489zM905 1540h-375l201 336h424z" />
<glyph unicode="&#xde;" horiz-adv-x="1413" d="M582 1247h153q643 0 643 -530q0 -527 -643 -531h-153v-186h-473v1434h473v-187zM582 578h149q178 0 178 139t-178 139h-149v-278z" />
<glyph unicode="&#xdf;" horiz-adv-x="1265" d="M1241 283q0 -80 -29.5 -142t-82 -99.5t-118.5 -56t-143 -18.5q-124 0 -260 49v334q57 -31 117 -31q42 0 68 18t26 52q0 25 -23 57t-56.5 65.5t-66.5 69t-56 79t-23 85.5q0 43 16 82t36 64t36 62.5t16 78.5q0 40 -24 64t-64 24q-44 0 -69 -26t-25 -70v-1024h-432v973 q0 228 135.5 360t386.5 133q101 1 185.5 -21t139 -57.5t92.5 -81.5t54.5 -92.5t16.5 -91.5q0 -54 -22.5 -106t-49.5 -85t-49.5 -72.5t-22.5 -72.5q0 -34 30 -75t73 -84t85.5 -92t72.5 -115.5t30 -136.5z" />
<glyph unicode="&#xe0;" horiz-adv-x="1177" d="M1073 311q0 -53 57 -53q15 0 39 4v-252q-85 -37 -217 -37q-171 0 -245 105q-136 -111 -328 -111q-146 0 -244 78t-98 219q0 72 26 129t67.5 92t99 58t116 32t123.5 9q105 0 195 -19v23q0 108 -195 108q-164 0 -354 -69v323q218 66 403 66q106 0 188 -13t153 -45.5 t116.5 -86t71.5 -137t26 -195.5v-228zM578 387q-51 0 -87 -21t-36 -67q0 -36 27.5 -57t68.5 -21q63 0 113 33v121q-34 12 -86 12zM786 1110h-374l-250 336h422z" />
<glyph unicode="&#xe1;" horiz-adv-x="1177" d="M1073 311q0 -53 57 -53q15 0 39 4v-252q-85 -37 -217 -37q-171 0 -245 105q-136 -111 -328 -111q-146 0 -244 78t-98 219q0 72 26 129t67.5 92t99 58t116 32t123.5 9q105 0 195 -19v23q0 108 -195 108q-164 0 -354 -69v323q218 66 403 66q106 0 188 -13t153 -45.5 t116.5 -86t71.5 -137t26 -195.5v-228zM578 387q-51 0 -87 -21t-36 -67q0 -36 27.5 -57t68.5 -21q63 0 113 33v121q-34 12 -86 12zM698 1110h-374l200 336h424z" />
<glyph unicode="&#xe2;" horiz-adv-x="1177" d="M1073 311q0 -53 57 -53q15 0 39 4v-252q-85 -37 -217 -37q-171 0 -245 105q-136 -111 -328 -111q-146 0 -244 78t-98 219q0 72 26 129t67.5 92t99 58t116 32t123.5 9q105 0 195 -19v23q0 108 -195 108q-164 0 -354 -69v323q218 66 403 66q106 0 188 -13t153 -45.5 t116.5 -86t71.5 -137t26 -195.5v-228zM578 387q-51 0 -87 -21t-36 -67q0 -36 27.5 -57t68.5 -21q63 0 113 33v121q-34 12 -86 12zM365 1450h378l263 -350h-359l-92 117l-92 -117h-361z" />
<glyph unicode="&#xe3;" horiz-adv-x="1177" d="M1073 311q0 -53 57 -53q15 0 39 4v-252q-85 -37 -217 -37q-171 0 -245 105q-136 -111 -328 -111q-146 0 -244 78t-98 219q0 72 26 129t67.5 92t99 58t116 32t123.5 9q105 0 195 -19v23q0 108 -195 108q-164 0 -354 -69v323q218 66 403 66q106 0 188 -13t153 -45.5 t116.5 -86t71.5 -137t26 -195.5v-228zM578 387q-51 0 -87 -21t-36 -67q0 -36 27.5 -57t68.5 -21q63 0 113 33v121q-34 12 -86 12zM965 1442q40 -151 -29.5 -260t-204.5 -109q-59 0 -116 21.5t-98.5 43t-63.5 21.5q-29 0 -37.5 -24.5t-1.5 -49.5h-273q-40 151 29 260t205 109 q58 0 115 -21.5t98 -43t63 -21.5q30 0 38.5 23.5t2.5 50.5h273z" />
<glyph unicode="&#xe4;" horiz-adv-x="1177" d="M1073 311q0 -53 57 -53q15 0 39 4v-252q-85 -37 -217 -37q-171 0 -245 105q-136 -111 -328 -111q-146 0 -244 78t-98 219q0 72 26 129t67.5 92t99 58t116 32t123.5 9q105 0 195 -19v23q0 108 -195 108q-164 0 -354 -69v323q218 66 403 66q106 0 188 -13t153 -45.5 t116.5 -86t71.5 -137t26 -195.5v-228zM578 387q-51 0 -87 -21t-36 -67q0 -36 27.5 -57t68.5 -21q63 0 113 33v121q-34 12 -86 12zM991 1278q0 -88 -56 -142.5t-142 -54.5q-85 0 -141 54.5t-56 142.5t56 142.5t141 54.5q86 0 142 -54.5t56 -142.5zM518 1278 q0 -88 -56.5 -142.5t-142.5 -54.5q-85 0 -140.5 54.5t-55.5 142.5t55.5 142.5t140.5 54.5q86 0 142.5 -54.5t56.5 -142.5z" />
<glyph unicode="&#xe5;" horiz-adv-x="1177" d="M1073 311q0 -53 57 -53q15 0 39 4v-252q-85 -37 -217 -37q-171 0 -245 105q-136 -111 -328 -111q-146 0 -244 78t-98 219q0 72 26 129t67.5 92t99 58t116 32t123.5 9q105 0 195 -19v23q0 108 -195 108q-164 0 -354 -69v323q218 66 403 66q106 0 188 -13t153 -45.5 t116.5 -86t71.5 -137t26 -195.5v-228zM578 387q-51 0 -87 -21t-36 -67q0 -36 27.5 -57t68.5 -21q63 0 113 33v121q-34 12 -86 12zM850 1325q0 -128 -82.5 -199t-208.5 -71q-122 0 -205.5 71t-83.5 199q0 121 84 192.5t205 71.5q125 0 208 -71t83 -193zM492 1323 q0 -31 17.5 -51.5t51.5 -20.5t52 20.5t18 51.5t-18 50.5t-52 19.5t-51.5 -19.5t-17.5 -50.5z" />
<glyph unicode="&#xe6;" horiz-adv-x="1710" d="M842 104q-96 -70 -200 -103.5t-247 -33.5q-97 0 -177 32t-131.5 101t-51.5 164q0 74 25.5 131t67.5 92.5t100.5 58t119.5 31.5t131 9q105 0 205 -21v23q0 106 -205 106q-170 0 -360 -69v325q214 66 405 66q246 0 346 -111q137 111 326 111q83 0 154 -20t122.5 -55 t91 -82.5t62.5 -103t34.5 -117t9.5 -123.5t-15 -122h-606q25 -60 102 -91.5t178 -31.5q169 0 281 37v-291q-152 -49 -355 -49q-267 0 -413 137zM465 299q0 -37 27 -56.5t67 -19.5q84 0 166 56q-19 62 -25 98q-58 12 -102 12q-54 0 -93.5 -21t-39.5 -69zM1184 733 q-63 0 -102.5 -39.5t-39.5 -99.5h261q9 49 -21 94t-98 45z" />
<glyph unicode="&#xe7;" horiz-adv-x="1001" d="M940 375v-352q-132 -39 -192 -46l-21 -65q191 -26 191 -184q0 -73 -48.5 -123t-119 -70t-156.5 -20q-142 0 -242 39v215q76 -31 162 -31q115 0 115 51q0 35 -54 45.5t-126 3.5l40 135q-94 14 -172.5 49.5t-141 94t-97.5 147.5t-35 201q0 115 33 209.5t88 157.5t131 106.5 t159 62.5t173 19q153 0 303 -59v-355q-110 56 -225 56q-95 0 -156.5 -41t-61.5 -129q0 -85 59 -125.5t150 -40.5q141 0 244 49z" />
<glyph unicode="&#xe8;" horiz-adv-x="1120" d="M43 498q0 111 34 201.5t88.5 148t125.5 96.5t141 55.5t139 16.5q92 0 169.5 -19.5t132.5 -54t96.5 -82t65 -102.5t34.5 -117t9 -124t-15 -124h-606q25 -60 102 -91.5t178 -31.5q162 0 283 39v-291q-148 -51 -358 -51q-97 0 -185.5 18.5t-168.5 59.5t-138 102t-92.5 151 t-34.5 200zM713 592q9 50 -20.5 94.5t-98.5 44.5q-64 0 -102.5 -39t-38.5 -100h260zM797 1090h-375l-250 335h422z" />
<glyph unicode="&#xe9;" horiz-adv-x="1120" d="M43 498q0 111 34 201.5t88.5 148t125.5 96.5t141 55.5t139 16.5q92 0 169.5 -19.5t132.5 -54t96.5 -82t65 -102.5t34.5 -117t9 -124t-15 -124h-606q25 -60 102 -91.5t178 -31.5q162 0 283 39v-291q-148 -51 -358 -51q-97 0 -185.5 18.5t-168.5 59.5t-138 102t-92.5 151 t-34.5 200zM713 592q9 50 -20.5 94.5t-98.5 44.5q-64 0 -102.5 -39t-38.5 -100h260zM709 1090h-375l201 335h423z" />
<glyph unicode="&#xea;" horiz-adv-x="1120" d="M43 498q0 111 34 201.5t88.5 148t125.5 96.5t141 55.5t139 16.5q92 0 169.5 -19.5t132.5 -54t96.5 -82t65 -102.5t34.5 -117t9 -124t-15 -124h-606q25 -60 102 -91.5t178 -31.5q162 0 283 39v-291q-148 -51 -358 -51q-97 0 -185.5 18.5t-168.5 59.5t-138 102t-92.5 151 t-34.5 200zM713 592q9 50 -20.5 94.5t-98.5 44.5q-64 0 -102.5 -39t-38.5 -100h260zM375 1430h379l262 -351h-359l-92 117l-92 -117h-360z" />
<glyph unicode="&#xeb;" horiz-adv-x="1120" d="M43 498q0 111 34 201.5t88.5 148t125.5 96.5t141 55.5t139 16.5q92 0 169.5 -19.5t132.5 -54t96.5 -82t65 -102.5t34.5 -117t9 -124t-15 -124h-606q25 -60 102 -91.5t178 -31.5q162 0 283 39v-291q-148 -51 -358 -51q-97 0 -185.5 18.5t-168.5 59.5t-138 102t-92.5 151 t-34.5 200zM713 592q9 50 -20.5 94.5t-98.5 44.5q-64 0 -102.5 -39t-38.5 -100h260zM1001 1257q0 -88 -56 -142t-142 -54q-85 0 -141 54t-56 142t56 142.5t141 54.5q86 0 142 -54.5t56 -142.5zM528 1257q0 -88 -56 -142t-142 -54q-85 0 -141 54t-56 142t56 142.5t141 54.5 q86 0 142 -54.5t56 -142.5z" />
<glyph unicode="&#xec;" horiz-adv-x="600" d="M516 0h-432v983h432v-983zM510 1090h-375l-166 335h422z" />
<glyph unicode="&#xed;" horiz-adv-x="600" d="M84 983h432v-983h-432v983zM440 1090h-374l200 335h424z" />
<glyph unicode="&#xee;" horiz-adv-x="600" d="M111 1430h378l220 -351h-338l-72 127l-72 -127h-338zM84 983h432v-983h-432v983z" />
<glyph unicode="&#xef;" horiz-adv-x="600" d="M694 1257q0 -83 -53.5 -134.5t-134.5 -51.5q-80 0 -133.5 51.5t-53.5 134.5t53.5 135t133.5 52q81 0 134.5 -52t53.5 -135zM262 1257q0 -83 -53 -134.5t-133 -51.5t-133.5 51.5t-53.5 134.5t53.5 135t133.5 52t133 -52t53 -135zM84 983h432v-983h-432v983z" />
<glyph unicode="&#xf0;" horiz-adv-x="1179" d="M1126 594q0 -137 -28.5 -245t-77.5 -179t-118.5 -117t-147.5 -66t-168 -20q-115 0 -211.5 28.5t-171.5 84.5t-117.5 148t-42.5 212q0 106 33.5 190t91 136.5t130 80t153.5 27.5q190 0 278 -110q0 38 -12 78q-31 126 -160 213l-137 -137l-137 141l79 78q-79 20 -184 20 v332q257 0 449 -88l135 135l137 -139l-96 -97q155 -118 239 -297.5t84 -408.5zM457 434q0 -59 31.5 -99t97.5 -40q64 0 95.5 40t31.5 99q0 58 -31.5 97.5t-95.5 39.5q-66 0 -97.5 -39.5t-31.5 -97.5z" />
<glyph unicode="&#xf1;" d="M463 885q131 131 301 131q97 0 172.5 -32.5t120 -87.5t66.5 -121t22 -140v-635h-432v561q0 47 -26.5 70.5t-68.5 23.5q-64 0 -102 -49v-606h-432v983h379v-98zM995 1421q40 -151 -29 -259.5t-204 -108.5q-59 0 -116 21.5t-99 43t-64 21.5q-29 0 -37.5 -24.5t-1.5 -49.5 h-272q-40 151 29 260t205 109q58 0 115 -21.5t98 -43t63 -21.5q30 0 38.5 23t2.5 50h272z" />
<glyph unicode="&#xf2;" d="M43 492q0 129 45 230.5t123 165t179 96t218 32.5t218.5 -32.5t180.5 -96t124 -165t45 -230.5q0 -104 -29.5 -190.5t-82 -147.5t-124 -103.5t-155.5 -63t-177 -20.5q-117 0 -218 33t-179 96t-123 165t-45 231zM754 492q0 76 -34.5 121.5t-111.5 45.5q-75 0 -109 -46 t-34 -121t34 -121.5t109 -46.5q77 0 111.5 46t34.5 122zM840 1081h-375l-250 336h422z" />
<glyph unicode="&#xf3;" d="M43 492q0 129 45 230.5t123 165t179 96t218 32.5t218.5 -32.5t180.5 -96t124 -165t45 -230.5q0 -104 -29.5 -190.5t-82 -147.5t-124 -103.5t-155.5 -63t-177 -20.5q-117 0 -218 33t-179 96t-123 165t-45 231zM754 492q0 76 -34.5 121.5t-111.5 45.5q-75 0 -109 -46 t-34 -121t34 -121.5t109 -46.5q77 0 111.5 46t34.5 122zM752 1081h-375l201 336h423z" />
<glyph unicode="&#xf4;" d="M43 492q0 129 45 230.5t123 165t179 96t218 32.5t218.5 -32.5t180.5 -96t124 -165t45 -230.5q0 -104 -29.5 -190.5t-82 -147.5t-124 -103.5t-155.5 -63t-177 -20.5q-117 0 -218 33t-179 96t-123 165t-45 231zM754 492q0 76 -34.5 121.5t-111.5 45.5q-75 0 -109 -46 t-34 -121t34 -121.5t109 -46.5q77 0 111.5 46t34.5 122zM418 1421h379l262 -350h-359l-92 117l-92 -117h-360z" />
<glyph unicode="&#xf5;" d="M43 492q0 129 45 230.5t123 165t179 96t218 32.5t218.5 -32.5t180.5 -96t124 -165t45 -230.5q0 -104 -29.5 -190.5t-82 -147.5t-124 -103.5t-155.5 -63t-177 -20.5q-117 0 -218 33t-179 96t-123 165t-45 231zM754 492q0 76 -34.5 121.5t-111.5 45.5q-75 0 -109 -46 t-34 -121t34 -121.5t109 -46.5q77 0 111.5 46t34.5 122zM1018 1413q40 -151 -29.5 -260t-204.5 -109q-59 0 -116 21.5t-98.5 43t-63.5 21.5q-29 0 -37.5 -24t-1.5 -49h-272q-40 151 28.5 259.5t204.5 108.5q58 0 115 -21.5t98.5 -43t63.5 -21.5q30 0 38 23.5t2 50.5h273z " />
<glyph unicode="&#xf6;" d="M43 492q0 129 45 230.5t123 165t179 96t218 32.5t218.5 -32.5t180.5 -96t124 -165t45 -230.5q0 -104 -29.5 -190.5t-82 -147.5t-124 -103.5t-155.5 -63t-177 -20.5q-117 0 -218 33t-179 96t-123 165t-45 231zM754 492q0 76 -34.5 121.5t-111.5 45.5q-75 0 -109 -46 t-34 -121t34 -121.5t109 -46.5q77 0 111.5 46t34.5 122zM1044 1249q0 -88 -56 -142t-142 -54q-85 0 -141 54t-56 142t56 142.5t141 54.5q86 0 142 -54.5t56 -142.5zM571 1249q0 -88 -56 -142t-142 -54q-85 0 -141 54t-56 142t56 142.5t141 54.5q86 0 142 -54.5t56 -142.5z " />
<glyph unicode="&#xf7;" horiz-adv-x="1140" d="M1085 551h-1030v334h1030v-334zM811 238q0 -114 -68 -173t-172 -59q-102 0 -170.5 59t-68.5 173q0 112 68.5 170.5t170.5 58.5q104 0 172 -58t68 -171zM811 1200q0 -114 -68 -172.5t-172 -58.5q-103 0 -171 58.5t-68 172.5q0 112 68.5 171t170.5 59q104 0 172 -58.5 t68 -171.5z" />
<glyph unicode="&#xf8;" d="M1055 1112l-115 -178q111 -66 173.5 -177t62.5 -265q0 -104 -29.5 -190.5t-82 -147.5t-124 -103.5t-155.5 -63t-177 -20.5q-144 0 -254 45l-90 -143h-100l115 180q-110 64 -173 176.5t-63 266.5q0 129 45 230.5t123 165t179 96t218 32.5q145 0 258 -45l90 141h99z M608 659q-75 0 -109 -46t-34 -121q0 -64 27 -111l170 270q-19 8 -54 8zM559 330q42 -6 51 -6q77 0 111.5 46t34.5 122q0 56 -27 108z" />
<glyph unicode="&#xf9;" d="M702 983h433v-983h-379v98q-131 -131 -303 -131q-97 0 -172.5 32.5t-119 87.5t-65.5 121t-22 140v635h432v-561q0 -48 25.5 -71t68.5 -23q64 0 102 49v606zM836 1090h-375l-250 335h422z" />
<glyph unicode="&#xfa;" d="M702 983h433v-983h-379v98q-131 -131 -303 -131q-97 0 -172.5 32.5t-119 87.5t-65.5 121t-22 140v635h432v-561q0 -48 25.5 -71t68.5 -23q64 0 102 49v606zM748 1090h-375l200 335h424z" />
<glyph unicode="&#xfb;" d="M702 983h433v-983h-379v98q-131 -131 -303 -131q-97 0 -172.5 32.5t-119 87.5t-65.5 121t-22 140v635h432v-561q0 -48 25.5 -71t68.5 -23q64 0 102 49v606zM414 1430h379l262 -351h-359l-92 117l-92 -117h-360z" />
<glyph unicode="&#xfc;" d="M702 983h433v-983h-379v98q-131 -131 -303 -131q-97 0 -172.5 32.5t-119 87.5t-65.5 121t-22 140v635h432v-561q0 -48 25.5 -71t68.5 -23q64 0 102 49v606zM1040 1257q0 -88 -56 -142t-142 -54q-85 0 -141 54t-56 142t56 142.5t141 54.5q86 0 142 -54.5t56 -142.5z M567 1257q0 -88 -56 -142t-142 -54q-85 0 -141 54t-56 142t56 142.5t141 54.5q86 0 142 -54.5t56 -142.5z" />
<glyph unicode="&#xfd;" horiz-adv-x="1236" d="M641 444l150 539h438l-375 -1042q-151 -422 -524 -422q-92 0 -215 35v348q82 -21 145 -21q124 0 182 113l-450 989h446zM745 1090h-374l200 335h424z" />
<glyph unicode="&#xfe;" horiz-adv-x="1280" d="M84 1434h432v-521q106 103 272 103q114 0 202 -44t140 -119t78.5 -166.5t26.5 -194.5q0 -105 -27.5 -198t-81 -167t-140.5 -117t-198 -43q-166 0 -272 99v-517h-432v1885zM791 492q0 73 -37.5 125.5t-110.5 52.5q-44 0 -79.5 -21.5t-49.5 -52.5v-209q20 -29 54.5 -49 t74.5 -21q71 -1 109.5 51t38.5 124z" />
<glyph unicode="&#xff;" horiz-adv-x="1236" d="M641 444l150 539h438l-375 -1042q-151 -422 -524 -422q-92 0 -215 35v348q82 -21 145 -21q124 0 182 113l-450 989h446zM1038 1257q0 -88 -56 -142t-142 -54q-85 0 -141 54t-56 142t56 142.5t141 54.5q86 0 142 -54.5t56 -142.5zM565 1257q0 -88 -56 -142t-142 -54 q-85 0 -141 54t-56 142t56 142.5t141 54.5q86 0 142 -54.5t56 -142.5z" />
<glyph unicode="&#x100;" horiz-adv-x="1566" d="M473 0h-479l536 1434h508l535 -1434h-479l-62 190h-495zM745 838l-100 -306h281l-101 306q-29 97 -41 184q-10 -74 -39 -184zM416 1839h743v-297h-743v297z" />
<glyph unicode="&#x101;" horiz-adv-x="1177" d="M1073 311q0 -53 57 -53q15 0 39 4v-252q-85 -37 -217 -37q-171 0 -245 105q-136 -111 -328 -111q-146 0 -244 78t-98 219q0 72 26 129t67.5 92t99 58t116 32t123.5 9q105 0 195 -19v23q0 108 -195 108q-164 0 -354 -69v323q218 66 403 66q106 0 188 -13t153 -45.5 t116.5 -86t71.5 -137t26 -195.5v-228zM578 387q-51 0 -87 -21t-36 -67q0 -36 27.5 -57t68.5 -21q63 0 113 33v121q-34 12 -86 12zM186 1409h744v-297h-744v297z" />
<glyph unicode="&#x102;" horiz-adv-x="1566" d="M473 0h-479l536 1434h508l535 -1434h-479l-62 190h-495zM745 838l-100 -306h281l-101 306q-29 97 -41 184q-10 -74 -39 -184zM1157 1622q-156 -104 -371 -104q-214 0 -370 104v293q153 -94 370 -94q218 0 371 94v-293z" />
<glyph unicode="&#x103;" horiz-adv-x="1177" d="M1073 311q0 -53 57 -53q15 0 39 4v-252q-85 -37 -217 -37q-171 0 -245 105q-136 -111 -328 -111q-146 0 -244 78t-98 219q0 72 26 129t67.5 92t99 58t116 32t123.5 9q105 0 195 -19v23q0 108 -195 108q-164 0 -354 -69v323q218 66 403 66q106 0 188 -13t153 -45.5 t116.5 -86t71.5 -137t26 -195.5v-228zM578 387q-51 0 -87 -21t-36 -67q0 -36 27.5 -57t68.5 -21q63 0 113 33v121q-34 12 -86 12zM928 1192q-158 -105 -371 -105t-371 105v293q153 -94 371 -94t371 94v-293z" />
<glyph unicode="&#x104;" horiz-adv-x="1566" d="M1573 0q-54 -38 -83.5 -80.5t-29.5 -73.5q0 -49 53 -49q27 3 50 15v-246q-93 -52 -207 -49q-123 2 -201 60t-78 159q2 71 44.5 141.5t121.5 122.5h-149l-62 190h-495l-64 -190h-479l536 1434h508zM745 838l-100 -306h281l-101 306q-29 97 -41 184q-10 -74 -39 -184z" />
<glyph unicode="&#x105;" horiz-adv-x="1177" d="M1169 262v-252q-54 -39 -83 -81.5t-29 -73.5q0 -48 53 -48q23 0 49 11v-254q-84 -37 -198 -37q-128 0 -195.5 61t-65.5 154q0 62 37.5 128t100.5 120q-83 21 -131 88q-136 -111 -328 -111q-146 0 -244 78t-98 219q0 72 26 129t67.5 92t99 58t116 32t123.5 9 q105 0 195 -19v23q0 108 -195 108q-164 0 -354 -69v323q218 66 403 66q106 0 188 -13t153 -45.5t116.5 -86t71.5 -137t26 -195.5v-228q0 -53 57 -53q15 0 39 4zM551 221q63 0 113 33v121q-34 12 -86 12q-51 0 -87 -21t-36 -67q0 -36 27.5 -57t68.5 -21z" />
<glyph unicode="&#x106;" horiz-adv-x="1331" d="M51 702q-1 158 43 288t119 217t176.5 146.5t213.5 86t233 26.5q229 0 421 -86v-422q-63 43 -154 71t-183 28q-77 0 -143.5 -20t-121.5 -61t-86.5 -111t-31.5 -163q0 -81 31.5 -144t84.5 -100.5t118 -56t138 -18.5q112 0 208 26.5t151 75.5v-432q-192 -86 -420 -86 q-125 0 -239 26t-216.5 83t-178 141t-119.5 208.5t-44 276.5zM971 1540h-375l201 336h424z" />
<glyph unicode="&#x107;" horiz-adv-x="1001" d="M43 465q0 115 33 209.5t88 157.5t131 106.5t159 62.5t173 19q153 0 303 -59v-355q-110 56 -225 56q-95 0 -156.5 -41t-61.5 -129q0 -85 59 -125.5t150 -40.5q141 0 244 49v-352q-163 -56 -342 -56q-110 0 -207 29t-176 86.5t-125.5 156t-46.5 226.5zM709 1090h-375 l201 335h423z" />
<glyph unicode="&#x10a;" horiz-adv-x="1331" d="M51 702q-1 158 43 288t119 217t176.5 146.5t213.5 86t233 26.5q229 0 421 -86v-422q-63 43 -154 71t-183 28q-77 0 -143.5 -20t-121.5 -61t-86.5 -111t-31.5 -163q0 -81 31.5 -144t84.5 -100.5t118 -56t138 -18.5q112 0 208 26.5t151 75.5v-432q-192 -86 -420 -86 q-125 0 -239 26t-216.5 83t-178 141t-119.5 208.5t-44 276.5zM623 1718q0 99 59 150t149 51q91 0 150 -51t59 -150q0 -100 -59 -151t-150 -51q-90 0 -149 51t-59 151z" />
<glyph unicode="&#x10b;" horiz-adv-x="1001" d="M43 465q0 115 33 209.5t88 157.5t131 106.5t159 62.5t173 19q153 0 303 -59v-355q-110 56 -225 56q-95 0 -156.5 -41t-61.5 -129q0 -85 59 -125.5t150 -40.5q141 0 244 49v-352q-163 -56 -342 -56q-110 0 -207 29t-176 86.5t-125.5 156t-46.5 226.5zM360 1268 q0 99 59.5 149.5t149.5 50.5q91 0 150 -50.5t59 -149.5q0 -100 -59 -151.5t-150 -51.5q-90 0 -149.5 51.5t-59.5 151.5z" />
<glyph unicode="&#x10c;" horiz-adv-x="1331" d="M51 702q-1 158 43 288t119 217t176.5 146.5t213.5 86t233 26.5q229 0 421 -86v-422q-63 43 -154 71t-183 28q-77 0 -143.5 -20t-121.5 -61t-86.5 -111t-31.5 -163q0 -81 31.5 -144t84.5 -100.5t118 -56t138 -18.5q112 0 208 26.5t151 75.5v-432q-192 -86 -420 -86 q-125 0 -239 26t-216.5 83t-178 141t-119.5 208.5t-44 276.5zM1284 1890l-270 -350h-379l-270 350h358l100 -125l103 125h358z" />
<glyph unicode="&#x10d;" horiz-adv-x="1001" d="M43 465q0 115 33 209.5t88 157.5t131 106.5t159 62.5t173 19q153 0 303 -59v-355q-110 56 -225 56q-95 0 -156.5 -41t-61.5 -129q0 -85 59 -125.5t150 -40.5q141 0 244 49v-352q-163 -56 -342 -56q-110 0 -207 29t-176 86.5t-125.5 156t-46.5 226.5zM1022 1440l-270 -350 h-379l-271 350h359l100 -125l103 125h358z" />
<glyph unicode="&#x10e;" horiz-adv-x="1523" d="M109 1434h618q189 0 332.5 -52.5t232.5 -149t133.5 -226t44.5 -289.5t-44.5 -289.5t-133.5 -226t-232.5 -149t-332.5 -52.5h-618v1434zM985 717q0 168 -69 243.5t-201 75.5h-133v-639h133q132 0 201 75.5t69 244.5zM1184 1890l-271 -350h-378l-271 350h359l100 -125 l102 125h359z" />
<glyph unicode="&#x10f;" horiz-adv-x="1280" d="M1298 1434h342l-79 -441h-295zM766 1434h430v-1434h-379v119q-52 -67 -133.5 -109.5t-185.5 -42.5q-92 0 -168 29t-128 78t-88 116.5t-52.5 143t-16.5 158.5q0 104 27 196t80.5 166.5t142.5 118t203 43.5q166 0 268 -92v510zM768 600q-16 29 -50.5 49.5t-76.5 20.5 q-74 0 -111.5 -52.5t-37.5 -125.5q0 -74 37.5 -126.5t111.5 -52.5q42 0 76.5 20.5t50.5 49.5v217z" />
<glyph unicode="&#x110;" horiz-adv-x="1554" d="M137 1434h619q189 0 332.5 -52.5t233 -149t134.5 -226t45 -289.5t-45 -289.5t-134.5 -226t-233 -149t-332.5 -52.5h-619v575h-121v279h121v580zM610 397h133q132 0 201.5 76t69.5 244t-69.5 243.5t-201.5 75.5h-133v-182h207v-279h-207v-178z" />
<glyph unicode="&#x111;" horiz-adv-x="1280" d="M1196 1307h133v-211h-133v-1096h-379v119q-52 -67 -133.5 -109.5t-185.5 -42.5q-92 0 -168 29t-128 78t-88 116.5t-52.5 143t-16.5 158.5q0 104 27 196t80.5 166.5t142.5 118t203 43.5q166 0 268 -92v172h-246v211h246v127h430v-127zM641 313q42 0 76.5 20.5t50.5 49.5 v217q-16 29 -50.5 49.5t-76.5 20.5q-74 0 -111.5 -52.5t-37.5 -125.5q0 -74 37.5 -126.5t111.5 -52.5z" />
<glyph unicode="&#x112;" horiz-adv-x="1273" d="M109 1434h1085v-373h-612v-166h538v-348h-538v-170h624v-377h-1097v1434zM287 1839h743v-297h-743v297z" />
<glyph unicode="&#x113;" horiz-adv-x="1120" d="M43 498q0 111 34 201.5t88.5 148t125.5 96.5t141 55.5t139 16.5q92 0 169.5 -19.5t132.5 -54t96.5 -82t65 -102.5t34.5 -117t9 -124t-15 -124h-606q25 -60 102 -91.5t178 -31.5q162 0 283 39v-291q-148 -51 -358 -51q-97 0 -185.5 18.5t-168.5 59.5t-138 102t-92.5 151 t-34.5 200zM713 592q9 50 -20.5 94.5t-98.5 44.5q-64 0 -102.5 -39t-38.5 -100h260zM197 1389h743v-297h-743v297z" />
<glyph unicode="&#x116;" horiz-adv-x="1273" d="M109 1434h1085v-373h-612v-166h538v-348h-538v-170h624v-377h-1097v1434zM451 1718q0 99 59 150t149 51q91 0 150 -51t59 -150q0 -100 -59 -151t-150 -51q-90 0 -149 51t-59 151z" />
<glyph unicode="&#x117;" horiz-adv-x="1120" d="M43 498q0 111 34 201.5t88.5 148t125.5 96.5t141 55.5t139 16.5q92 0 169.5 -19.5t132.5 -54t96.5 -82t65 -102.5t34.5 -117t9 -124t-15 -124h-606q25 -60 102 -91.5t178 -31.5q162 0 283 39v-291q-148 -51 -358 -51q-97 0 -185.5 18.5t-168.5 59.5t-138 102t-92.5 151 t-34.5 200zM713 592q9 50 -20.5 94.5t-98.5 44.5q-64 0 -102.5 -39t-38.5 -100h260zM360 1268q0 99 59.5 149.5t149.5 50.5q91 0 150 -50.5t59 -149.5q0 -100 -59 -151.5t-150 -51.5q-90 0 -149.5 51.5t-59.5 151.5z" />
<glyph unicode="&#x118;" horiz-adv-x="1273" d="M1206 377v-377q-54 -39 -83 -82t-29 -74q0 -47 53 -47q26 0 49 10v-253q-84 -37 -199 -37q-128 0 -195 61t-65 154q0 69 45.5 141.5t118.5 126.5h-792v1434h1085v-373h-612v-166h538v-348h-538v-170h624z" />
<glyph unicode="&#x119;" horiz-adv-x="1122" d="M981 -446q-84 -37 -199 -37q-126 0 -194 61t-66 154q0 61 36 123.5t101 111.5q-37 0 -81 6q-111 8 -205.5 43t-169.5 98t-117.5 161.5t-42.5 222.5q0 111 34 201.5t88.5 148t125.5 96.5t141 55.5t139 16.5q92 0 169.5 -19.5t132.5 -54t96.5 -82t65 -102.5t34.5 -117 t9 -124t-15 -124h-606q25 -60 102 -91.5t178 -31.5q162 0 283 39v-291q-70 -39 -106.5 -86t-36.5 -86q0 -49 55 -49q26 0 49 10v-253zM594 731q-64 0 -102.5 -39t-38.5 -100h260q9 50 -20.5 94.5t-98.5 44.5z" />
<glyph unicode="&#x11a;" horiz-adv-x="1273" d="M109 1434h1085v-373h-612v-166h538v-348h-538v-170h624v-377h-1097v1434zM1112 1890l-270 -350h-379l-270 350h358l100 -125l103 125h358z" />
<glyph unicode="&#x11b;" horiz-adv-x="1120" d="M43 498q0 111 34 201.5t88.5 148t125.5 96.5t141 55.5t139 16.5q92 0 169.5 -19.5t132.5 -54t96.5 -82t65 -102.5t34.5 -117t9 -124t-15 -124h-606q25 -60 102 -91.5t178 -31.5q162 0 283 39v-291q-148 -51 -358 -51q-97 0 -185.5 18.5t-168.5 59.5t-138 102t-92.5 151 t-34.5 200zM713 592q9 50 -20.5 94.5t-98.5 44.5q-64 0 -102.5 -39t-38.5 -100h260zM1022 1440l-270 -350h-379l-271 350h359l100 -125l103 125h358z" />
<glyph unicode="&#x11e;" horiz-adv-x="1421" d="M49 717q0 153 44 279.5t119.5 212t177.5 144.5t215.5 86t236.5 27q250 0 463 -86v-422q-72 45 -175 71t-202 26q-81 0 -150 -19t-124.5 -58t-87 -106t-31.5 -155q0 -77 22 -137.5t55 -95t76 -57t80 -30.5t72 -8q25 0 57 4v408h442v-738q-246 -96 -487 -96 q-126 0 -242.5 28.5t-219 89t-178 147.5t-119.5 211.5t-44 273.5zM1167 1622q-156 -104 -370 -104q-215 0 -371 104v293q153 -94 371 -94q217 0 370 94v-293z" />
<glyph unicode="&#x11f;" horiz-adv-x="1280" d="M45 504q0 83 16.5 157t52.5 139.5t88 113t128 75t168 27.5q104 0 185.5 -42.5t133.5 -109.5v119h379v-920q0 -118 -33 -212t-89 -156t-133.5 -102.5t-163 -58t-181.5 -17.5q-244 0 -446 84v356q166 -90 368 -90q248 0 248 168v49q-101 -94 -268 -94q-114 0 -203 42 t-142.5 114.5t-80.5 163t-27 194.5zM768 606q-16 29 -50.5 49.5t-76.5 20.5q-74 0 -111.5 -52.5t-37.5 -125.5q0 -74 37.5 -126.5t111.5 -52.5q42 0 76.5 20.5t50.5 49.5v217zM989 1171q-156 -104 -371 -104q-214 0 -370 104v293q153 -94 370 -94q218 0 371 94v-293z" />
<glyph unicode="&#x120;" horiz-adv-x="1421" d="M49 717q0 153 44 279.5t119.5 212t177.5 144.5t215.5 86t236.5 27q250 0 463 -86v-422q-72 45 -175 71t-202 26q-81 0 -150 -19t-124.5 -58t-87 -106t-31.5 -155q0 -77 22 -137.5t55 -95t76 -57t80 -30.5t72 -8q25 0 57 4v408h442v-738q-246 -96 -487 -96 q-126 0 -242.5 28.5t-219 89t-178 147.5t-119.5 211.5t-44 273.5zM590 1718q0 99 59.5 150t149.5 51q91 0 150 -51t59 -150q0 -100 -59 -151t-150 -51q-90 0 -149.5 51t-59.5 151z" />
<glyph unicode="&#x121;" horiz-adv-x="1280" d="M45 504q0 83 16.5 157t52.5 139.5t88 113t128 75t168 27.5q104 0 185.5 -42.5t133.5 -109.5v119h379v-920q0 -118 -33 -212t-89 -156t-133.5 -102.5t-163 -58t-181.5 -17.5q-244 0 -446 84v356q166 -90 368 -90q248 0 248 168v49q-101 -94 -268 -94q-114 0 -203 42 t-142.5 114.5t-80.5 163t-27 194.5zM768 606q-16 29 -50.5 49.5t-76.5 20.5q-74 0 -111.5 -52.5t-37.5 -125.5q0 -74 37.5 -126.5t111.5 -52.5q42 0 76.5 20.5t50.5 49.5v217zM412 1268q0 99 59.5 149.5t149.5 50.5q91 0 149.5 -50.5t58.5 -149.5q0 -100 -58.5 -151.5 t-149.5 -51.5q-90 0 -149.5 51.5t-59.5 151.5z" />
<glyph unicode="&#x122;" horiz-adv-x="1421" d="M49 717q0 153 44 279.5t119.5 212t177.5 144.5t215.5 86t236.5 27q250 0 463 -86v-422q-72 45 -175 71t-202 26q-81 0 -150 -19t-124.5 -58t-87 -106t-31.5 -155q0 -77 22 -137.5t55 -95t76 -57t80 -30.5t72 -8q25 0 57 4v408h442v-738q-246 -96 -487 -96 q-126 0 -242.5 28.5t-219 89t-178 147.5t-119.5 211.5t-44 273.5zM895 -651h-332l82 520h391z" />
<glyph unicode="&#x123;" horiz-adv-x="1280" d="M805 1090h-354l108 442h307zM45 504q0 83 16.5 157t52.5 139.5t88 113t128 75t168 27.5q104 0 185.5 -42.5t133.5 -109.5v119h379v-920q0 -118 -33 -212t-89 -156t-133.5 -102.5t-163 -58t-181.5 -17.5q-244 0 -446 84v356q166 -90 368 -90q248 0 248 168v49 q-101 -94 -268 -94q-114 0 -203 42t-142.5 114.5t-80.5 163t-27 194.5zM768 606q-16 29 -50.5 49.5t-76.5 20.5q-74 0 -111.5 -52.5t-37.5 -125.5q0 -74 37.5 -126.5t111.5 -52.5q42 0 76.5 20.5t50.5 49.5v217z" />
<glyph unicode="&#x126;" horiz-adv-x="1619" d="M614 0h-471v1059h-135v215h135v160h471v-160h390v160h473v-160h135v-215h-135v-1059h-473v518h-390v-518zM614 1059v-146h390v146h-390z" />
<glyph unicode="&#x127;" horiz-adv-x="1216" d="M514 930q112 86 250 86q97 0 172.5 -32.5t119 -87.5t65.5 -121t22 -140v-635h-430v561q0 47 -26.5 70.5t-68.5 23.5q-61 0 -104 -49v-606h-430v1096h-121v211h121v127h430v-127h250v-211h-250v-166z" />
<glyph unicode="&#x12a;" horiz-adv-x="690" d="M109 1434h473v-1434h-473v1434zM-25 1839h744v-297h-744v297z" />
<glyph unicode="&#x12b;" horiz-adv-x="600" d="M-2 1399h602v-271h-602v271zM84 983h432v-983h-432v983z" />
<glyph unicode="&#x12e;" horiz-adv-x="690" d="M582 1434v-1434q-54 -39 -83.5 -82t-29.5 -74q0 -47 53 -47q26 0 49 10v-253q-84 -37 -198 -37q-128 0 -195 61t-65 154q0 69 45 142t118 126h-167v1434h473z" />
<glyph unicode="&#x12f;" horiz-adv-x="600" d="M524 1300q0 -107 -64 -162t-161 -55q-96 0 -160.5 55t-64.5 162q0 105 64.5 160.5t160.5 55.5q97 0 161 -55.5t64 -160.5zM219 0h-135v983h432v-983h-2q-54 -39 -83.5 -82t-29.5 -74q0 -47 54 -47q26 0 49 10v-243q-84 -47 -199 -47q-127 0 -193.5 61t-66.5 154 q0 70 47 142.5t127 125.5z" />
<glyph unicode="&#x130;" horiz-adv-x="690" d="M109 1434h473v-1434h-473v1434zM139 1718q0 99 59.5 150t149.5 51q91 0 150 -51t59 -150q0 -100 -59 -151t-150 -51q-90 0 -149.5 51t-59.5 151z" />
<glyph unicode="&#x131;" horiz-adv-x="600" d="M84 983h432v-983h-432v983z" />
<glyph unicode="&#x132;" horiz-adv-x="1753" d="M109 1434h473v-1434h-473v1434zM854 1434h803v-936q0 -117 -32 -209t-85.5 -150t-127.5 -95.5t-152 -53t-166 -15.5q-222 0 -373 62v418q117 -52 248 -52q215 0 215 154v463h-330v414z" />
<glyph unicode="&#x133;" horiz-adv-x="1200" d="M516 0h-432v983h432v-983zM524 1300q0 -107 -64 -162t-161 -55q-96 0 -160.5 55t-64.5 162q0 105 64.5 160.5t160.5 55.5q97 0 161 -55.5t64 -160.5zM1116 -104q0 -100 -33.5 -175t-92.5 -118.5t-131.5 -64.5t-158.5 -21q-122 0 -204 30v351q46 -11 84 -11q104 0 104 109 v987h432v-1087zM1126 1300q0 -107 -64 -162t-161 -55q-96 0 -160.5 55t-64.5 162q0 105 64.5 160.5t160.5 55.5q97 0 161 -55.5t64 -160.5z" />
<glyph unicode="&#x136;" horiz-adv-x="1490" d="M582 0h-473v1434h473v-508h118l287 508h520l-436 -711l445 -723h-521l-305 512h-108v-512zM834 -631h-332l82 520h391z" />
<glyph unicode="&#x137;" horiz-adv-x="1220" d="M1233 0h-469l-186 332h-62v-332h-432v1434h432v-766h64l174 315h469l-303 -485zM705 -631h-332l82 520h391z" />
<glyph unicode="&#x139;" d="M109 1434h473v-1020h612v-414h-1085v1434zM489 1540h-374l200 336h424z" />
<glyph unicode="&#x13a;" horiz-adv-x="600" d="M84 1495h432v-1495h-432v1495zM455 1597h-375l201 336h424z" />
<glyph unicode="&#x13b;" d="M109 1434h473v-1020h612v-414h-1085v1434zM723 -631h-332l82 520h391z" />
<glyph unicode="&#x13c;" horiz-adv-x="600" d="M84 1495h432v-1495h-432v1495zM348 -631h-332l82 520h391z" />
<glyph unicode="&#x13d;" horiz-adv-x="1224" d="M797 1434h342l-80 -476h-295zM109 1434h473v-1020h612v-414h-1085v1434z" />
<glyph unicode="&#x13e;" horiz-adv-x="600" d="M618 1495h343l-80 -475h-295zM84 1495h432v-1495h-432v1495z" />
<glyph unicode="&#x13f;" horiz-adv-x="1245" d="M1126 852q0 -101 -61.5 -154t-153.5 -53q-91 0 -152 53.5t-61 153.5q0 102 61 155.5t152 53.5q92 0 153.5 -53.5t61.5 -155.5zM109 1434h473v-1020h612v-414h-1085v1434z" />
<glyph unicode="&#x140;" horiz-adv-x="1050" d="M84 1495h432v-1495h-432v1495zM1065 717q0 -113 -68.5 -172.5t-171.5 -59.5q-102 0 -170.5 59.5t-68.5 172.5q0 112 68.5 171.5t170.5 59.5q103 0 171.5 -59t68.5 -172z" />
<glyph unicode="&#x141;" horiz-adv-x="1329" d="M1305 0h-1086v449l-164 -58v381l164 57v605h473v-439l266 97v-381l-266 -97v-200h613v-414z" />
<glyph unicode="&#x142;" horiz-adv-x="821" d="M195 1495h432v-567l145 55v-321l-145 -54v-608h-432v438l-146 -55v322l146 55v735z" />
<glyph unicode="&#x143;" horiz-adv-x="1562" d="M582 0h-473v1434h399l485 -674q-12 103 -12 246v428h473v-1434h-399l-486 672q13 -112 13 -242v-430zM913 1540h-374l200 336h424z" />
<glyph unicode="&#x144;" d="M463 885q131 131 301 131q97 0 172.5 -32.5t120 -87.5t66.5 -121t22 -140v-635h-432v561q0 47 -26.5 70.5t-68.5 23.5q-64 0 -102 -49v-606h-432v983h379v-98zM729 1090h-375l201 335h424z" />
<glyph unicode="&#x145;" horiz-adv-x="1562" d="M582 0h-473v1434h399l485 -674q-12 103 -12 246v428h473v-1434h-399l-486 672q13 -112 13 -242v-430zM895 -631h-332l82 520h391z" />
<glyph unicode="&#x146;" d="M463 885q131 131 301 131q97 0 172.5 -32.5t120 -87.5t66.5 -121t22 -140v-635h-432v561q0 47 -26.5 70.5t-68.5 23.5q-64 0 -102 -49v-606h-432v983h379v-98zM682 -631h-332l82 520h391z" />
<glyph unicode="&#x147;" horiz-adv-x="1562" d="M582 0h-473v1434h399l485 -674q-12 103 -12 246v428h473v-1434h-399l-486 672q13 -112 13 -242v-430zM1227 1890l-271 -350h-378l-271 350h359l100 -125l102 125h359z" />
<glyph unicode="&#x148;" d="M463 885q131 131 301 131q97 0 172.5 -32.5t120 -87.5t66.5 -121t22 -140v-635h-432v561q0 47 -26.5 70.5t-68.5 23.5q-64 0 -102 -49v-606h-432v983h379v-98zM1042 1440l-270 -350h-379l-270 350h358l101 -125l102 125h358z" />
<glyph unicode="&#x14a;" horiz-adv-x="1562" d="M1454 -23q0 -215 -112 -333.5t-312 -118.5q-63 0 -176 22v355q28 -8 51 -8q47 0 74 27t27 73v74l-437 604q13 -112 13 -242v-430h-473v1434h399l485 -674q-12 103 -12 246v428h473v-1457z" />
<glyph unicode="&#x14b;" d="M1145 -104q0 -86 -24 -153.5t-62.5 -109t-91 -68.5t-105 -37.5t-108.5 -10.5q-111 0 -179 30v324q24 -6 52 -6q86 0 86 102v594q0 47 -26.5 70.5t-68.5 23.5q-64 0 -102 -49v-606h-432v983h379v-98q131 131 301 131q97 0 172.5 -32.5t120 -87.5t66.5 -121t22 -140v-739z " />
<glyph unicode="&#x14c;" horiz-adv-x="1650" d="M49 717q0 156 49.5 291t144 237.5t244.5 161.5t338 59t338 -59t245 -161.5t144.5 -237.5t49.5 -291t-49.5 -291t-144.5 -238t-245 -162t-338 -59t-338 59t-244.5 162t-144 238t-49.5 291zM1116 717q0 149 -77 235t-214 86t-213.5 -86t-76.5 -235t76.5 -235.5t213.5 -86.5 t214 86.5t77 235.5zM455 1839h743v-297h-743v297z" />
<glyph unicode="&#x14d;" d="M43 492q0 129 45 230.5t123 165t179 96t218 32.5t218.5 -32.5t180.5 -96t124 -165t45 -230.5q0 -104 -29.5 -190.5t-82 -147.5t-124 -103.5t-155.5 -63t-177 -20.5q-117 0 -218 33t-179 96t-123 165t-45 231zM754 492q0 76 -34.5 121.5t-111.5 45.5q-75 0 -109 -46 t-34 -121t34 -121.5t109 -46.5q77 0 111.5 46t34.5 122zM240 1380h743v-297h-743v297z" />
<glyph unicode="&#x150;" horiz-adv-x="1650" d="M49 717q0 156 49.5 291t144 237.5t244.5 161.5t338 59t338 -59t245 -161.5t144.5 -237.5t49.5 -291t-49.5 -291t-144.5 -238t-245 -162t-338 -59t-338 59t-244.5 162t-144 238t-49.5 291zM1116 717q0 149 -77 235t-214 86t-213.5 -86t-76.5 -235t76.5 -235.5t213.5 -86.5 t214 86.5t77 235.5zM1190 1542h-348l174 344h375zM743 1542h-348l158 344h373z" />
<glyph unicode="&#x151;" d="M43 492q0 129 45 230.5t123 165t179 96t218 32.5t218.5 -32.5t180.5 -96t124 -165t45 -230.5q0 -104 -29.5 -190.5t-82 -147.5t-124 -103.5t-155.5 -63t-177 -20.5q-117 0 -218 33t-179 96t-123 165t-45 231zM754 492q0 76 -34.5 121.5t-111.5 45.5q-75 0 -109 -46 t-34 -121t34 -121.5t109 -46.5q77 0 111.5 46t34.5 122zM975 1083h-348l174 344h375zM528 1083h-348l158 344h373z" />
<glyph unicode="&#x152;" horiz-adv-x="2101" d="M1038 0q-109 -33 -247 -33t-257.5 38.5t-207.5 107t-151 162t-94.5 206t-31.5 236.5q0 155 50.5 291t143 238t234.5 161t314 59q138 0 247 -32h983v-373h-538v-166h465v-348h-465v-170h551v-377h-996zM532 717q0 -67 18.5 -122.5t49 -92.5t71 -62.5t84.5 -37t89 -11.5 q95 0 182 35v582q-84 34 -182 34q-58 0 -111.5 -18.5t-99.5 -56t-73.5 -102t-27.5 -148.5z" />
<glyph unicode="&#x153;" horiz-adv-x="1843" d="M961 131q-60 -82 -158 -123t-221 -41q-112 0 -208.5 33t-170.5 96.5t-116 165t-42 230.5t42 230.5t116 165t170.5 96t208.5 32.5q241 0 372 -158q71 82 168 120t203 38q100 0 181 -26.5t135 -73t91 -107t52.5 -131t15.5 -142.5t-16 -143h-604q25 -60 102 -91.5t176 -31.5 q174 0 283 39v-291q-151 -51 -344 -51q-293 0 -436 164zM467 492q0 -75 34 -121.5t109 -46.5q77 0 111.5 46t34.5 122t-34.5 121.5t-111.5 45.5q-75 0 -109 -46t-34 -121zM1315 731q-63 0 -102 -40t-39 -101h260q9 51 -21 96t-98 45z" />
<glyph unicode="&#x154;" horiz-adv-x="1492" d="M582 0h-473v1434h665q96 0 181 -14.5t165 -51t137.5 -93t92 -145.5t34.5 -202q0 -305 -245 -428l368 -500h-520l-295 424h-110v-424zM582 1049v-271h182q68 0 106.5 37t38.5 98t-38.5 98.5t-106.5 37.5h-182zM860 1540h-375l201 336h424z" />
<glyph unicode="&#x155;" horiz-adv-x="858" d="M463 868q123 164 366 136v-406q-83 27 -175.5 12.5t-137.5 -63.5v-547h-432v983h379v-115zM586 1090h-375l201 335h424z" />
<glyph unicode="&#x156;" horiz-adv-x="1492" d="M582 0h-473v1434h665q96 0 181 -14.5t165 -51t137.5 -93t92 -145.5t34.5 -202q0 -305 -245 -428l368 -500h-520l-295 424h-110v-424zM582 1049v-271h182q68 0 106.5 37t38.5 98t-38.5 98.5t-106.5 37.5h-182zM829 -631h-331l82 520h391z" />
<glyph unicode="&#x157;" horiz-adv-x="858" d="M463 868q123 164 366 136v-406q-83 27 -175.5 12.5t-137.5 -63.5v-547h-432v983h379v-115zM344 -631h-332l82 520h391z" />
<glyph unicode="&#x158;" horiz-adv-x="1492" d="M582 0h-473v1434h665q96 0 181 -14.5t165 -51t137.5 -93t92 -145.5t34.5 -202q0 -305 -245 -428l368 -500h-520l-295 424h-110v-424zM582 1049v-271h182q68 0 106.5 37t38.5 98t-38.5 98.5t-106.5 37.5h-182zM1174 1890l-271 -350h-379l-270 350h358l101 -125l102 125 h359z" />
<glyph unicode="&#x159;" horiz-adv-x="858" d="M463 868q123 164 366 136v-406q-83 27 -175.5 12.5t-137.5 -63.5v-547h-432v983h379v-115zM899 1440l-270 -350h-379l-270 350h358l100 -125l103 125h358z" />
<glyph unicode="&#x15a;" horiz-adv-x="1300" d="M70 1022q0 110 44 196t121.5 139.5t178 81t219.5 27.5q142 0 282 -31t244 -87v-410q-104 66 -229.5 102t-245.5 35q-127 0 -127 -63q0 -24 24 -43t64 -33.5t92.5 -29.5t110 -34t115 -42.5t110 -59.5t92.5 -81t64 -111t24 -146q0 -107 -31.5 -189t-85 -133.5t-132 -84 t-164 -45.5t-189.5 -13q-327 0 -569 135v428q128 -84 264 -126t258 -42q91 0 126.5 16.5t35.5 53.5q0 29 -38.5 52t-100 42t-135.5 41.5t-148 59t-135.5 85t-100 128.5t-38.5 182zM766 1540h-375l201 336h424z" />
<glyph unicode="&#x15b;" horiz-adv-x="1005" d="M57 700q0 70 25 125.5t66 90.5t99.5 58t121 32.5t133.5 9.5q207 0 387 -84v-303q-64 39 -151.5 64.5t-159.5 25.5t-72 -35q0 -21 25.5 -36.5t66 -27.5t89.5 -26t98.5 -37t90 -55t66 -86.5t25.5 -124.5q0 -74 -27 -131t-71.5 -93t-108 -59t-131.5 -32t-148 -9 q-252 0 -411 86v330q77 -55 175 -82t179 -27q53 0 74.5 9t21.5 28t-25.5 34.5t-66.5 27.5t-90 26.5t-98.5 38.5t-90.5 56t-66.5 85t-25.5 121zM637 1090h-375l201 335h424z" />
<glyph unicode="&#x15e;" horiz-adv-x="1300" d="M557 1012q0 -24 24 -43t64 -33.5t92.5 -29.5t110 -34t115 -42.5t110 -59.5t92.5 -81t64 -111t24 -146q0 -406 -454 -457l-21 -63q189 -26 189 -184q0 -73 -48.5 -123t-119 -70t-156.5 -20q-142 0 -242 39v215q76 -31 162 -31q117 0 117 51q0 35 -55 45.5t-127 3.5l39 133 q-265 22 -455 131v428q128 -84 264 -126t258 -42q91 0 126.5 16.5t35.5 53.5q0 29 -38.5 52t-100 42t-135.5 41.5t-148 59t-135.5 85t-100 128.5t-38.5 182q0 110 44 196t121.5 139.5t178 81t219.5 27.5q142 0 282 -31t244 -87v-410q-104 66 -229.5 102t-245.5 35 q-127 0 -127 -63z" />
<glyph unicode="&#x15f;" horiz-adv-x="1005" d="M506 684q0 -21 25.5 -36.5t66 -27.5t89.5 -26t98.5 -37t90 -55t66 -86.5t25.5 -124.5q0 -254 -305 -309l-23 -70q188 -25 188 -184q0 -56 -27 -98t-73 -66.5t-102 -36.5t-119 -12q-145 0 -242 39v215q76 -31 160 -31q117 0 117 51q0 35 -54.5 45.5t-126.5 3.5l39 131 q-191 9 -329 84v330q77 -55 175 -82t179 -27q53 0 74.5 9t21.5 28t-25.5 34.5t-66.5 27.5t-90 26.5t-98.5 38.5t-90.5 56t-66.5 85t-25.5 121q0 70 25 125.5t66 90.5t99.5 58t121 32.5t133.5 9.5q207 0 387 -84v-303q-64 39 -151.5 64.5t-159.5 25.5t-72 -35z" />
<glyph unicode="&#x160;" horiz-adv-x="1300" d="M70 1022q0 110 44 196t121.5 139.5t178 81t219.5 27.5q142 0 282 -31t244 -87v-410q-104 66 -229.5 102t-245.5 35q-127 0 -127 -63q0 -24 24 -43t64 -33.5t92.5 -29.5t110 -34t115 -42.5t110 -59.5t92.5 -81t64 -111t24 -146q0 -107 -31.5 -189t-85 -133.5t-132 -84 t-164 -45.5t-189.5 -13q-327 0 -569 135v428q128 -84 264 -126t258 -42q91 0 126.5 16.5t35.5 53.5q0 29 -38.5 52t-100 42t-135.5 41.5t-148 59t-135.5 85t-100 128.5t-38.5 182zM1079 1890l-270 -350h-379l-270 350h358l100 -125l103 125h358z" />
<glyph unicode="&#x161;" horiz-adv-x="1005" d="M57 700q0 70 25 125.5t66 90.5t99.5 58t121 32.5t133.5 9.5q207 0 387 -84v-303q-64 39 -151.5 64.5t-159.5 25.5t-72 -35q0 -21 25.5 -36.5t66 -27.5t89.5 -26t98.5 -37t90 -55t66 -86.5t25.5 -124.5q0 -74 -27 -131t-71.5 -93t-108 -59t-131.5 -32t-148 -9 q-252 0 -411 86v330q77 -55 175 -82t179 -27q53 0 74.5 9t21.5 28t-25.5 34.5t-66.5 27.5t-90 26.5t-98.5 38.5t-90.5 56t-66.5 85t-25.5 121zM950 1440l-270 -350h-379l-270 350h358l100 -125l103 125h358z" />
<glyph unicode="&#x162;" horiz-adv-x="1290" d="M25 1434h1241v-414h-385v-1020h-471v1020h-385v414zM713 -631h-332l82 520h391z" />
<glyph unicode="&#x163;" horiz-adv-x="890" d="M172 1247l432 101v-365h219v-344h-219v-227q0 -93 117 -93q67 0 117 17v-332q-144 -39 -277 -39q-61 0 -114 10t-105 36t-88.5 67t-59 108.5t-22.5 155.5v297h-137v344h137v264zM590 -631h-332l82 520h391z" />
<glyph unicode="&#x164;" horiz-adv-x="1290" d="M25 1434h1241v-414h-385v-1020h-471v1020h-385v414zM1108 1890l-270 -350h-379l-271 350h359l100 -125l103 125h358z" />
<glyph unicode="&#x165;" horiz-adv-x="890" d="M741 1567h342l-79 -477h-295zM172 1247l432 101v-365h219v-344h-219v-227q0 -93 117 -93q67 0 117 17v-332q-144 -39 -277 -39q-61 0 -114 10t-105 36t-88.5 67t-59 108.5t-22.5 155.5v297h-137v344h137v264z" />
<glyph unicode="&#x166;" horiz-adv-x="1314" d="M893 0h-471v487h-229l2 281h227v252h-385v414h1241v-414h-385v-252h229v-281h-229v-487z" />
<glyph unicode="&#x167;" horiz-adv-x="890" d="M604 403q0 -86 117 -86q57 0 117 17v-330q-156 -39 -277 -39q-61 0 -114 10t-105 36t-88.5 67t-59 108.5t-22.5 155.5v84h-90v149h90v84h-137v324h137v264l432 101v-365h219v-324h-219v-84h176v-149h-176v-23z" />
<glyph unicode="&#x16a;" horiz-adv-x="1515" d="M952 1434h471v-877q0 -129 -37 -231t-99 -168t-148.5 -110t-180.5 -62.5t-200 -18.5t-200 18.5t-181 62.5t-149 110t-99 168t-37 231v877h473v-854q0 -189 193 -189q194 0 194 189v854zM389 1839h744v-297h-744v297z" />
<glyph unicode="&#x16b;" d="M702 983h433v-983h-379v98q-131 -131 -303 -131q-97 0 -172.5 32.5t-119 87.5t-65.5 121t-22 140v635h432v-561q0 -48 25.5 -71t68.5 -23q64 0 102 49v606zM236 1389h743v-297h-743v297z" />
<glyph unicode="&#x16e;" horiz-adv-x="1515" d="M952 1434h471v-877q0 -129 -37 -231t-99 -168t-148.5 -110t-180.5 -62.5t-200 -18.5t-200 18.5t-181 62.5t-149 110t-99 168t-37 231v877h473v-854q0 -189 193 -189q194 0 194 189v854zM1053 1755q0 -128 -82.5 -199t-208.5 -71q-122 0 -205.5 71t-83.5 199 q0 121 84 192.5t205 71.5q125 0 208 -71t83 -193zM694 1753q0 -31 18 -51.5t52 -20.5t52 20.5t18 51.5t-18 50.5t-52 19.5t-52 -19.5t-18 -50.5z" />
<glyph unicode="&#x16f;" d="M702 983h433v-983h-379v98q-131 -131 -303 -131q-97 0 -172.5 32.5t-119 87.5t-65.5 121t-22 140v635h432v-561q0 -48 25.5 -71t68.5 -23q64 0 102 49v606zM899 1305q0 -129 -82.5 -200t-208.5 -71q-122 0 -205.5 71.5t-83.5 199.5q0 121 84 192.5t205 71.5 q125 0 208 -71t83 -193zM541 1303q0 -31 17.5 -51.5t51.5 -20.5t52 20.5t18 51.5t-18 50t-52 19t-51.5 -19t-17.5 -50z" />
<glyph unicode="&#x170;" horiz-adv-x="1515" d="M952 1434h471v-877q0 -129 -37 -231t-99 -168t-148.5 -110t-180.5 -62.5t-200 -18.5t-200 18.5t-181 62.5t-149 110t-99 168t-37 231v877h473v-854q0 -189 193 -189q194 0 194 189v854zM1124 1542h-348l174 344h375zM678 1542h-348l157 344h373z" />
<glyph unicode="&#x171;" d="M702 983h433v-983h-379v98q-131 -131 -303 -131q-97 0 -172.5 32.5t-119 87.5t-65.5 121t-22 140v635h432v-561q0 -48 25.5 -71t68.5 -23q64 0 102 49v606zM971 1092h-348l174 344h374zM524 1092h-348l158 344h373z" />
<glyph unicode="&#x172;" horiz-adv-x="1517" d="M1174 -436q-81 -47 -199 -47q-130 0 -201.5 62.5t-71.5 158.5q3 114 101 229h-43q-106 0 -200 18.5t-181 62.5t-149 110t-99 168t-37 231v877h473v-854q0 -189 193 -189q194 0 194 189v854h471v-877q0 -303 -192 -451q-95 -75 -135.5 -140.5t-40.5 -106.5 q0 -27 16.5 -40.5t42.5 -13.5q29 0 58 13v-254z" />
<glyph unicode="&#x173;" d="M1135 983v-983q-54 -39 -83.5 -82t-29.5 -74q0 -47 53 -47q28 0 49 6v-256q-86 -30 -198 -30q-128 0 -195 61t-65 154q0 69 45 142t118 126h-73v98q-131 -131 -303 -131q-97 0 -172.5 32.5t-119 87.5t-65.5 121t-22 140v635h432v-561q0 -48 25.5 -71t68.5 -23 q64 0 102 49v606h433z" />
<glyph unicode="&#x174;" horiz-adv-x="2277" d="M1759 1434h510l-432 -1434h-508l-190 723l-189 -723h-510l-432 1434h508l205 -865l223 865h389l221 -865zM944 1880h379l262 -350h-358l-92 117l-93 -117h-360z" />
<glyph unicode="&#x175;" horiz-adv-x="1728" d="M1274 983h440l-303 -983h-420l-127 485l-127 -485h-420l-303 983h441l112 -547l133 547h328l133 -547zM672 1430h379l262 -351h-359l-92 117l-92 -117h-360z" />
<glyph unicode="&#x176;" horiz-adv-x="1542" d="M1006 0h-469v489l-545 945h534l246 -543l246 543h534l-546 -945v-489zM571 1880h379l262 -350h-358l-92 117l-92 -117h-361z" />
<glyph unicode="&#x177;" horiz-adv-x="1236" d="M641 444l150 539h438l-375 -1042q-151 -422 -524 -422q-92 0 -215 35v348q82 -21 145 -21q124 0 182 113l-450 989h446zM412 1430h379l262 -351h-359l-92 117l-92 -117h-360z" />
<glyph unicode="&#x178;" horiz-adv-x="1542" d="M1006 0h-469v489l-545 945h534l246 -543l246 543h534l-546 -945v-489zM1198 1708q0 -88 -56.5 -142.5t-142.5 -54.5q-85 0 -140.5 54.5t-55.5 142.5t55.5 142.5t140.5 54.5q86 0 142.5 -54.5t56.5 -142.5zM725 1708q0 -88 -56.5 -142.5t-142.5 -54.5q-85 0 -140.5 54.5 t-55.5 142.5t55.5 142.5t140.5 54.5q86 0 142.5 -54.5t56.5 -142.5z" />
<glyph unicode="&#x179;" horiz-adv-x="1323" d="M1262 0h-1207v301l533 719h-500v414h1149v-301l-532 -719h557v-414zM809 1540h-375l201 336h424z" />
<glyph unicode="&#x17a;" horiz-adv-x="1034" d="M86 983h862v-254l-336 -385h365v-344h-922v254l338 385h-307v344zM680 1090h-375l201 335h424z" />
<glyph unicode="&#x17b;" horiz-adv-x="1323" d="M1262 0h-1207v301l533 719h-500v414h1149v-301l-532 -719h557v-414zM461 1718q0 99 59.5 150t149.5 51q91 0 150 -51t59 -150q0 -100 -59 -151t-150 -51q-90 0 -149.5 51t-59.5 151z" />
<glyph unicode="&#x17c;" horiz-adv-x="1034" d="M86 983h862v-254l-336 -385h365v-344h-922v254l338 385h-307v344zM332 1268q0 99 59.5 149.5t149.5 50.5q91 0 150 -50.5t59 -149.5q0 -100 -59 -151.5t-150 -51.5q-90 0 -149.5 51.5t-59.5 151.5z" />
<glyph unicode="&#x17d;" horiz-adv-x="1323" d="M1262 0h-1207v301l533 719h-500v414h1149v-301l-532 -719h557v-414zM1122 1890l-270 -350h-379l-270 350h358l101 -125l102 125h358z" />
<glyph unicode="&#x17e;" horiz-adv-x="1034" d="M86 983h862v-254l-336 -385h365v-344h-922v254l338 385h-307v344zM993 1440l-270 -350h-379l-270 350h358l100 -125l103 125h358z" />
<glyph unicode="&#x2c6;" horiz-adv-x="856" d="M238 1880h378l263 -350h-359l-92 117l-92 -117h-361z" />
<glyph unicode="&#x2da;" horiz-adv-x="567" d="M573 1755q0 -128 -82 -199t-208 -71q-122 0 -205.5 71t-83.5 199q0 121 84 192.5t205 71.5q125 0 207.5 -71t82.5 -193zM215 1753q0 -31 18 -51.5t52 -20.5t51.5 20.5t17.5 51.5t-17.5 50.5t-51.5 19.5t-52 -19.5t-18 -50.5z" />
<glyph unicode="&#x2dc;" horiz-adv-x="921" d="M872 1872q40 -151 -29 -260t-204 -109q-59 0 -116 21.5t-99 43t-64 21.5q-29 0 -38 -26.5t0 -46.5h-273q-40 151 29 259.5t205 108.5q58 0 115 -21.5t98 -43t63 -21.5q30 0 38.5 23.5t2.5 50.5h272z" />
<glyph unicode="&#x401;" horiz-adv-x="1273" d="M1092 1708q0 -88 -56.5 -142.5t-142.5 -54.5q-85 0 -141 54.5t-56 142.5t56 142.5t141 54.5q86 0 142.5 -54.5t56.5 -142.5zM618 1708q0 -88 -56 -142.5t-142 -54.5q-85 0 -141 54.5t-56 142.5t56 142.5t141 54.5q86 0 142 -54.5t56 -142.5zM109 1434h1085v-373h-612 v-166h538v-348h-538v-170h624v-377h-1097v1434z" />
<glyph unicode="&#x410;" horiz-adv-x="1566" d="M473 0h-479l536 1434h508l535 -1434h-479l-62 190h-495zM745 838l-100 -306h281l-101 306q-29 97 -41 184q-10 -74 -39 -184z" />
<glyph unicode="&#x411;" horiz-adv-x="1398" d="M582 920h229q551 0 551 -461q0 -459 -551 -459h-702v1434h1132v-379h-659v-135zM582 344h170q68 0 104.5 25t36.5 90t-36.5 90.5t-104.5 25.5h-170v-231z" />
<glyph unicode="&#x412;" horiz-adv-x="1431" d="M109 1434h716q508 0 508 -363q0 -230 -205 -309q263 -80 263 -352q0 -410 -584 -410h-698v1434zM920 465q0 57 -35.5 87t-102.5 30h-200v-234h200q67 0 102.5 30t35.5 87zM879 979q0 47 -30.5 76.5t-88.5 29.5h-178v-211l178 -2q57 0 88 30.5t31 76.5z" />
<glyph unicode="&#x413;" horiz-adv-x="1204" d="M582 0h-473v1434h1075v-414h-602v-1020z" />
<glyph unicode="&#x414;" horiz-adv-x="1740" d="M457 -279h-420v676h170q65 119 108.5 249t65 265.5t29.5 256t8 266.5h1089v-1037h187v-676h-420v279h-817v-279zM836 1032q-17 -208 -48.5 -358.5t-95.5 -276.5h348v635h-204z" />
<glyph unicode="&#x415;" horiz-adv-x="1273" d="M109 1434h1085v-373h-612v-166h538v-348h-538v-170h624v-377h-1097v1434z" />
<glyph unicode="&#x416;" horiz-adv-x="2140" d="M510 0h-520l383 723l-375 711h520l236 -508h80v508h473v-508h79l234 508h520l-373 -711l383 -723h-520l-254 512h-69v-512h-473v512h-72z" />
<glyph unicode="&#x417;" horiz-adv-x="1292" d="M1243 393q0 -81 -24.5 -147t-69 -112t-102 -79t-129 -52t-144.5 -27.5t-153 -8.5q-275 0 -558 94v420q229 -112 500 -112q207 0 207 104q0 82 -123 82h-342v344h303q107 0 107 72q0 92 -178 92q-98 0 -223 -30t-226 -81v420q235 94 492 94q289 0 447.5 -101.5 t158.5 -303.5q0 -106 -56 -187t-165 -118q278 -94 278 -363z" />
<glyph unicode="&#x418;" horiz-adv-x="1562" d="M1454 0h-473v430q0 139 12 242l-485 -672h-399v1434h473v-428q0 -134 -13 -246l486 674h399v-1434z" />
<glyph unicode="&#x419;" horiz-adv-x="1562" d="M981 0h473v1434h-399l-486 -674q13 112 13 246v428h-473v-1434h399l485 672q-12 -103 -12 -242v-430zM1161 1622q-156 -104 -370 -104q-215 0 -371 104v293q153 -94 371 -94q217 0 370 94v-293z" />
<glyph unicode="&#x41a;" horiz-adv-x="1490" d="M582 0h-473v1434h473v-508h118l287 508h520l-436 -711l445 -723h-521l-305 512h-108v-512z" />
<glyph unicode="&#x41b;" horiz-adv-x="1556" d="M344 1434h1104v-1434h-473v1020h-199q-7 -95 -15 -172.5t-21 -167.5t-29 -161.5t-40.5 -147t-53.5 -132.5t-69.5 -109t-88 -85t-108.5 -52.5t-132 -19.5q-110 0 -215 31v410q81 -26 143 12q38 18 67.5 62t48.5 112.5t31.5 139.5t20 169t11.5 175t9 182.5t9 167.5z" />
<glyph unicode="&#x41c;" horiz-adv-x="1857" d="M1329 1434h420v-1434h-461v655l-235 -364h-248l-236 366v-657h-460v1434h419l400 -627z" />
<glyph unicode="&#x41d;" horiz-adv-x="1550" d="M971 1434h471v-1434h-471v510h-389v-510h-473v1434h473v-510h389v510z" />
<glyph unicode="&#x41e;" horiz-adv-x="1650" d="M49 717q0 156 49.5 291t144 237.5t244.5 161.5t338 59t338 -59t245 -161.5t144.5 -237.5t49.5 -291t-49.5 -291t-144.5 -238t-245 -162t-338 -59t-338 59t-244.5 162t-144 238t-49.5 291zM1116 717q0 149 -77 235t-214 86t-213.5 -86t-76.5 -235t76.5 -235.5t213.5 -86.5 t214 86.5t77 235.5z" />
<glyph unicode="&#x41f;" horiz-adv-x="1560" d="M580 0h-471v1434h1343v-1434h-471v1020h-401v-1020z" />
<glyph unicode="&#x420;" horiz-adv-x="1415" d="M109 1434h626q643 0 643 -531q0 -528 -643 -528h-153v-375h-473v1434zM909 903q0 141 -178 141h-149v-280h149q178 0 178 139z" />
<glyph unicode="&#x421;" horiz-adv-x="1331" d="M51 702q-1 158 43 288t119 217t176.5 146.5t213.5 86t233 26.5q229 0 421 -86v-422q-63 43 -154 71t-183 28q-77 0 -143.5 -20t-121.5 -61t-86.5 -111t-31.5 -163q0 -81 31.5 -144t84.5 -100.5t118 -56t138 -18.5q112 0 208 26.5t151 75.5v-432q-192 -86 -420 -86 q-125 0 -239 26t-216.5 83t-178 141t-119.5 208.5t-44 276.5z" />
<glyph unicode="&#x422;" horiz-adv-x="1290" d="M25 1434h1241v-414h-385v-1020h-471v1020h-385v414z" />
<glyph unicode="&#x423;" horiz-adv-x="1460" d="M954 330q-91 -196 -213.5 -279.5t-304.5 -83.5q-110 0 -260 43v381q82 -29 168 -29q130 0 166 82l22 45l-544 945h506l262 -564l211 564h503z" />
<glyph unicode="&#x424;" horiz-adv-x="1824" d="M1128 -96h-428v184q-322 23 -504 188t-182 441t182 441t504 188v184h428v-184q320 -23 501 -188t181 -441t-181 -441t-501 -188v-184zM479 717q0 -46 11 -85t35.5 -76t70.5 -62t111 -33v512q-65 -8 -111 -33t-70.5 -62t-35.5 -76t-11 -85zM1122 973v-512q63 9 108 34 t69 61.5t34 75.5t10 85t-10 85t-34 75.5t-69 61.5t-108 34z" />
<glyph unicode="&#x425;" horiz-adv-x="1497" d="M512 0h-551l492 739l-467 695h551l213 -371l211 371h550l-467 -695l492 -739h-551l-235 403z" />
<glyph unicode="&#x426;" horiz-adv-x="1671" d="M1620 -279h-420v279h-1091v1434h473v-1020h391v1020h473v-1020h174v-693z" />
<glyph unicode="&#x427;" horiz-adv-x="1454" d="M1346 0h-474v455q-140 -45 -290 -45q-155 0 -270.5 52t-183 163t-67.5 272v537h474v-480q0 -68 48.5 -100.5t125.5 -32.5q88 0 163 35v578h474v-1434z" />
<glyph unicode="&#x428;" horiz-adv-x="2125" d="M2017 0h-1908v1434h473v-1020h245v1020h473v-1020h246v1020h471v-1434z" />
<glyph unicode="&#x429;" horiz-adv-x="2244" d="M2193 -279h-419v279h-1665v1434h473v-1020h245v1020h473v-1020h246v1020h471v-1020h176v-693z" />
<glyph unicode="&#x42a;" horiz-adv-x="1619" d="M967 0h-627v1020h-311v414h784v-410h154q620 0 620 -512t-620 -512zM813 635v-246h150q68 0 111.5 30.5t43.5 92.5t-43.5 92.5t-111.5 30.5h-150z" />
<glyph unicode="&#x42b;" horiz-adv-x="2023" d="M735 0h-626v1434h473v-410h153q619 0 619 -512t-619 -512zM582 635v-246h149q68 0 112 30.5t44 92.5t-44 92.5t-112 30.5h-149zM1915 0h-473v1434h473v-1434z" />
<glyph unicode="&#x42c;" horiz-adv-x="1386" d="M735 0h-626v1434h473v-410h153q619 0 619 -512t-619 -512zM582 635v-246h149q68 0 112 30.5t44 92.5t-44 92.5t-112 30.5h-149z" />
<glyph unicode="&#x42d;" horiz-adv-x="1331" d="M76 1380q192 86 422 86q121 0 232.5 -26.5t213.5 -86t176.5 -146.5t118.5 -217t43 -288q0 -152 -44 -276.5t-119.5 -208.5t-178 -141t-216.5 -83t-239 -26q-217 0 -409 86v408q58 -49 153.5 -75t202.5 -26q304 0 375 179h-524v358h520q-43 99 -137.5 138.5t-235.5 41.5 q-96 0 -192.5 -26.5t-161.5 -69.5v399z" />
<glyph unicode="&#x42e;" horiz-adv-x="2293" d="M2245 717q0 -156 -50 -291t-145 -238t-245.5 -162t-338.5 -59q-152 0 -279.5 41.5t-217.5 115.5t-149.5 171.5t-86.5 214.5h-151v-510h-473v1434h473v-510h151q27 117 86.5 214.5t149.5 171.5t217.5 115t279.5 41q188 0 338.5 -59t245.5 -161.5t145 -237.5t50 -291z M1178 717q0 -149 76.5 -235.5t213.5 -86.5t214 86.5t77 235.5t-77 235t-214 86t-213.5 -86t-76.5 -235z" />
<glyph unicode="&#x42f;" horiz-adv-x="1484" d="M530 0h-532l364 506q-262 128 -262 418q0 111 34 199t91 145.5t136 95.5t165.5 54t184.5 16h665v-1434h-471v424h-80zM578 913q0 -62 41 -98.5t118 -36.5h168v271h-168q-77 0 -118 -37t-41 -99z" />
<glyph unicode="&#x430;" horiz-adv-x="1196" d="M1073 311q0 -53 57 -53q15 0 39 4v-252q-85 -37 -217 -37q-171 0 -245 105q-136 -111 -328 -111q-146 0 -244 78t-98 219q0 72 26 129t67.5 92t99 58t116 32t123.5 9q105 0 195 -19v23q0 108 -195 108q-164 0 -354 -69v323q218 66 403 66q106 0 188 -13t153 -45.5 t116.5 -86t71.5 -137t26 -195.5v-228zM578 387q-51 0 -87 -21t-36 -67q0 -36 27.5 -57t68.5 -21q63 0 113 33v121q-34 12 -86 12z" />
<glyph unicode="&#x431;" horiz-adv-x="1202" d="M1155 426q0 -92 -28.5 -168.5t-78 -129.5t-117.5 -90t-146 -54t-164 -17q-91 0 -169.5 17.5t-153 61.5t-127 112.5t-84.5 177t-32 248.5q0 135 21.5 242.5t63.5 185.5t94 133.5t122 99.5q78 49 168.5 79t166 42t146 21.5t129 27.5t93.5 51v-379q-41 -36 -98 -54.5 t-107.5 -22.5t-115.5 -14.5t-111 -30.5q-63 -26 -104.5 -85t-43.5 -122q107 116 283 116q81 0 151.5 -28t125 -82t85.5 -141t31 -197zM477 444q0 -59 29.5 -102t99.5 -43q69 0 98 43.5t29 101.5t-29 101t-98 43q-70 0 -99.5 -43t-29.5 -101z" />
<glyph unicode="&#x432;" horiz-adv-x="1144" d="M737 0h-653v983h631q86 0 152.5 -18t104.5 -44.5t62.5 -63t32.5 -68.5t8 -66q0 -167 -149 -229q182 -64 182 -236q0 -36 -9.5 -69.5t-35 -69t-65.5 -61t-107 -42t-154 -16.5zM489 385v-139h119q40 0 63 18.5t23 50.5q0 70 -88 70h-117zM489 735v-139h105q40 0 63 18.5 t23 51.5q0 32 -22.5 50.5t-63.5 18.5h-105z" />
<glyph unicode="&#x433;" horiz-adv-x="899" d="M516 0h-432v983h786v-344h-354v-639z" />
<glyph unicode="&#x434;" horiz-adv-x="1378" d="M420 -252h-387v555h135q77 139 104.5 304.5t24.5 375.5h897v-680h139v-555h-387v252h-526v-252zM657 678q-6 -208 -82 -375h218v375h-136z" />
<glyph unicode="&#x435;" horiz-adv-x="1120" d="M43 498q0 111 34 201.5t88.5 148t125.5 96.5t141 55.5t139 16.5q92 0 169.5 -19.5t132.5 -54t96.5 -82t65 -102.5t34.5 -117t9 -124t-15 -124h-606q25 -60 102 -91.5t178 -31.5q162 0 283 39v-291q-148 -51 -358 -51q-97 0 -185.5 18.5t-168.5 59.5t-138 102t-92.5 151 t-34.5 200zM713 592q9 50 -20.5 94.5t-98.5 44.5q-64 0 -102.5 -39t-38.5 -100h260z" />
<glyph unicode="&#x436;" horiz-adv-x="1759" d="M1751 0h-448l-152 313h-64v-313h-415v313h-64l-151 -313h-449l256 487l-246 496h449l151 -334h54v334h415v-334h54l151 334h449l-246 -496z" />
<glyph unicode="&#x437;" horiz-adv-x="1019" d="M975 274q0 -46 -14.5 -88t-52 -82.5t-95 -70t-150 -48t-210.5 -18.5q-235 0 -402 80v293q63 -31 159.5 -53.5t180.5 -22.5q137 0 137 64q0 31 -28 42t-82 11h-197v231h180q107 0 107 52q0 57 -123 57q-72 0 -164 -21.5t-147 -50.5v295q66 31 181.5 52.5t229.5 21.5 q113 -1 199 -20.5t136 -48.5t81.5 -69t42 -77t10.5 -78q0 -82 -44 -140t-115 -81q91 -28 135.5 -88t44.5 -142z" />
<glyph unicode="&#x438;" horiz-adv-x="1239" d="M422 0h-338v983h405v-397l328 397h338v-983h-405v397z" />
<glyph unicode="&#x439;" horiz-adv-x="1239" d="M963 1161q-143 -84 -345 -84q-199 0 -342 84v277q137 -74 342 -74t345 74v-277zM422 0h-338v983h405v-397l328 397h338v-983h-405v397z" />
<glyph unicode="&#x43a;" horiz-adv-x="1222" d="M516 0h-432v983h432v-315h64l174 315h469l-303 -485l313 -498h-469l-186 332h-62v-332z" />
<glyph unicode="&#x43b;" horiz-adv-x="1257" d="M625 647q-12 -134 -30.5 -234t-50.5 -186t-76 -140t-108 -84t-147 -30q-101 0 -199 31v348q48 -12 84 -6q83 16 115 173q21 100 35 387v3q3 49 4 74h922v-983h-433v647h-116z" />
<glyph unicode="&#x43c;" horiz-adv-x="1402" d="M475 0h-391v983h352l264 -422l267 422h352v-983h-391v414l-152 -242h-149l-152 242v-414z" />
<glyph unicode="&#x43d;" horiz-adv-x="1230" d="M516 0h-432v983h432v-326h199v326h432v-983h-432v326h-199v-326z" />
<glyph unicode="&#x43e;" d="M43 492q0 129 45 230.5t123 165t179 96t218 32.5t218.5 -32.5t180.5 -96t124 -165t45 -230.5q0 -104 -29.5 -190.5t-82 -147.5t-124 -103.5t-155.5 -63t-177 -20.5q-117 0 -218 33t-179 96t-123 165t-45 231zM754 492q0 76 -34.5 121.5t-111.5 45.5q-75 0 -109 -46 t-34 -121t34 -121.5t109 -46.5q77 0 111.5 46t34.5 122z" />
<glyph unicode="&#x43f;" horiz-adv-x="1222" d="M516 0h-432v983h1055v-983h-430v639h-193v-639z" />
<glyph unicode="&#x440;" horiz-adv-x="1280" d="M463 864q54 68 136 110t185 42q113 0 201.5 -43.5t142 -118t80.5 -166.5t27 -196t-27 -196.5t-80.5 -167t-142 -118t-201.5 -43.5q-166 0 -268 92v-510h-432v1434h379v-119zM791 492q0 73 -38.5 125.5t-111.5 52.5q-42 0 -76.5 -20.5t-50.5 -49.5v-217q14 -28 49.5 -49 t77.5 -21q73 0 111.5 53t38.5 126z" />
<glyph unicode="&#x441;" horiz-adv-x="1003" d="M43 465q0 115 33 209.5t88 157.5t131 106.5t159 62.5t173 19q153 0 303 -59v-355q-110 56 -225 56q-95 0 -156.5 -41t-61.5 -129q0 -85 59 -125.5t150 -40.5q141 0 244 49v-352q-163 -56 -342 -56q-110 0 -207 29t-176 86.5t-125.5 156t-46.5 226.5z" />
<glyph unicode="&#x442;" horiz-adv-x="999" d="M715 0h-430v639h-254v344h938v-344h-254v-639z" />
<glyph unicode="&#x443;" horiz-adv-x="1236" d="M641 444l150 539h438l-375 -1042q-151 -422 -524 -422q-92 0 -215 35v348q82 -21 145 -21q124 0 182 113l-450 989h446z" />
<glyph unicode="&#x444;" horiz-adv-x="1638" d="M1018 -451h-400v418q-257 12 -417 152.5t-160 372.5q0 154 74.5 271t204 181t298.5 72v418h400v-418q259 -12 419 -152t160 -372t-160 -372.5t-419 -152.5v-418zM459 492q0 -75 41 -125.5t125 -59.5v369q-85 -9 -125.5 -58.5t-40.5 -125.5zM1014 676v-369q83 9 124.5 60 t41.5 125q0 75 -41 125t-125 59z" />
<glyph unicode="&#x445;" horiz-adv-x="1169" d="M719 983h455l-328 -494l340 -489h-463l-137 225l-137 -225h-465l340 489l-326 494h453l135 -235z" />
<glyph unicode="&#x446;" horiz-adv-x="1329" d="M1280 -252h-387v252h-809v983h432v-639h193v639h430v-643h141v-592z" />
<glyph unicode="&#x447;" horiz-adv-x="1171" d="M1087 0h-432v266q-86 -30 -223 -30q-56 0 -109.5 12.5t-103.5 41t-87.5 70t-60 104t-22.5 138.5v381h432v-326q0 -77 86 -77q45 0 88 16v387h432v-983z" />
<glyph unicode="&#x448;" horiz-adv-x="1755" d="M1671 0h-1587v983h432v-639h146v639h432v-639h147v639h430v-983z" />
<glyph unicode="&#x449;" horiz-adv-x="1861" d="M1812 -252h-387v252h-1341v983h432v-639h146v639h432v-639h147v639h430v-643h141v-592z" />
<glyph unicode="&#x44a;" horiz-adv-x="1335" d="M694 731h193q202 0 310 -101.5t108 -262.5t-108.5 -264t-309.5 -103h-623v662h-235v321h665v-252zM694 274h72q54 0 83.5 26.5t29.5 70.5q0 45 -29.5 71.5t-83.5 26.5h-72v-195z" />
<glyph unicode="&#x44b;" horiz-adv-x="1744" d="M707 0h-623v983h432v-252h191q202 0 309.5 -101.5t107.5 -262.5t-108 -264t-309 -103zM514 469v-195h72q54 0 83 26.5t29 70.5q0 45 -29 71.5t-83 26.5h-72zM1661 0h-432v983h432v-983z" />
<glyph unicode="&#x44c;" horiz-adv-x="1155" d="M707 0h-623v983h432v-252h191q202 0 309.5 -101.5t107.5 -262.5t-108 -264t-309 -103zM514 469v-195h72q54 0 83 26.5t29 70.5q0 45 -29 71.5t-83 26.5h-72z" />
<glyph unicode="&#x44d;" horiz-adv-x="1056" d="M1014 469q0 -102 -33.5 -187.5t-88.5 -142.5t-128 -96.5t-151 -57.5t-158 -18q-131 0 -215.5 19t-180.5 67v305q57 -40 135 -62t154 -22q201 0 248 97h-367v241h367q-48 97 -242 97q-69 0 -147 -22t-137 -62v307q167 84 364 84q94 0 179 -20t158.5 -63.5t127.5 -107 t84.5 -154.5t30.5 -202z" />
<glyph unicode="&#x44e;" horiz-adv-x="1744" d="M1702 492q0 -129 -45 -231t-123 -165t-179 -96t-218 -33q-186 0 -329 93.5t-192 269.5h-104v-330h-428v983h428v-330h104q49 176 192 269.5t329 93.5q117 0 218 -32.5t179 -96t123 -165t45 -230.5zM991 492q0 -71 33.5 -118.5t110.5 -47.5q79 0 112 47t33 119t-33 118.5 t-112 46.5q-77 0 -110.5 -47t-33.5 -118z" />
<glyph unicode="&#x44f;" horiz-adv-x="1187" d="M467 0h-451l228 313q-89 48 -133.5 129t-44.5 176q0 70 25.5 133.5t75 116t134 84t193.5 31.5h610v-983h-406v258h-59zM487 602q0 -88 107 -88h104v178h-104q-53 0 -80 -24t-27 -66z" />
<glyph unicode="&#x451;" horiz-adv-x="1120" d="M1001 1257q0 -88 -56 -142t-142 -54q-85 0 -141 54t-56 142t56 142.5t141 54.5q86 0 142 -54.5t56 -142.5zM528 1257q0 -88 -56 -142t-142 -54q-85 0 -141 54t-56 142t56 142.5t141 54.5q86 0 142 -54.5t56 -142.5zM43 498q0 111 34 201.5t88.5 148t125.5 96.5t141 55.5 t139 16.5q92 0 169.5 -19.5t132.5 -54t96.5 -82t65 -102.5t34.5 -117t9 -124t-15 -124h-606q25 -60 102 -91.5t178 -31.5q162 0 283 39v-291q-148 -51 -358 -51q-97 0 -185.5 18.5t-168.5 59.5t-138 102t-92.5 151t-34.5 200zM713 592q9 50 -20.5 94.5t-98.5 44.5 q-64 0 -102.5 -39t-38.5 -100h260z" />
<glyph unicode="&#x2000;" horiz-adv-x="1009" />
<glyph unicode="&#x2001;" horiz-adv-x="2019" />
<glyph unicode="&#x2002;" horiz-adv-x="1009" />
<glyph unicode="&#x2003;" horiz-adv-x="2019" />
<glyph unicode="&#x2004;" horiz-adv-x="673" />
<glyph unicode="&#x2005;" horiz-adv-x="504" />
<glyph unicode="&#x2006;" horiz-adv-x="336" />
<glyph unicode="&#x2007;" horiz-adv-x="336" />
<glyph unicode="&#x2008;" horiz-adv-x="252" />
<glyph unicode="&#x2009;" horiz-adv-x="403" />
<glyph unicode="&#x200a;" horiz-adv-x="112" />
<glyph unicode="&#x2010;" horiz-adv-x="983" d="M92 659h799v-333h-799v333z" />
<glyph unicode="&#x2011;" horiz-adv-x="983" d="M92 659h799v-333h-799v333z" />
<glyph unicode="&#x2012;" horiz-adv-x="983" d="M92 659h799v-333h-799v333z" />
<glyph unicode="&#x2013;" horiz-adv-x="1198" d="M1106 326h-1014v333h1014v-333z" />
<glyph unicode="&#x2014;" horiz-adv-x="1619" d="M1528 326h-1436v333h1436v-333z" />
<glyph unicode="&#x2018;" horiz-adv-x="608" d="M438 805h-415l237 629h322z" />
<glyph unicode="&#x2019;" horiz-adv-x="598" d="M365 805h-324l145 629h414z" />
<glyph unicode="&#x201a;" horiz-adv-x="585" d="M299 -293h-324l146 629h414z" />
<glyph unicode="&#x201c;" horiz-adv-x="1093" d="M924 805h-416l237 629h322zM438 805h-415l237 629h322z" />
<glyph unicode="&#x201d;" horiz-adv-x="1083" d="M850 805h-324l146 629h413zM365 805h-324l145 629h414z" />
<glyph unicode="&#x201e;" horiz-adv-x="1071" d="M784 -293h-323l145 629h414zM299 -293h-324l146 629h414z" />
<glyph unicode="&#x2026;" horiz-adv-x="1814" d="M1763 199q0 -113 -68 -172.5t-171 -59.5q-102 0 -171 59.5t-69 172.5q0 112 69 171.5t171 59.5q103 0 171 -59t68 -172zM530 199q0 -113 -68 -172.5t-171 -59.5q-102 0 -171 59.5t-69 172.5q0 112 69 171.5t171 59.5q103 0 171 -59t68 -172zM1147 199 q0 -113 -68.5 -172.5t-171.5 -59.5q-102 0 -170.5 59.5t-68.5 172.5q0 112 68.5 171.5t170.5 59.5q103 0 171.5 -59t68.5 -172z" />
<glyph unicode="&#x202f;" horiz-adv-x="403" />
<glyph unicode="&#x2039;" horiz-adv-x="802" d="M758 66h-430l-279 389v73l279 390h430l-299 -426z" />
<glyph unicode="&#x203a;" horiz-adv-x="802" d="M477 66h-432l301 426l-301 426h432l277 -390v-73z" />
<glyph unicode="&#x205f;" horiz-adv-x="504" />
<glyph unicode="&#x20ac;" horiz-adv-x="1478" d="M1378 53q-192 -86 -409 -86q-132 0 -250.5 30.5t-220 91t-175 160.5t-106.5 230h-162v183h135v34v35h-135v182h162q26 104 79.5 189.5t124 145t158 99.5t182 59t195.5 19q230 0 422 -86v-409q-62 43 -154 70.5t-186 27.5q-190 0 -290 -115h387v-182h-455q-2 -10 -2 -35 q0 -24 2 -34h455v-183h-385q96 -108 280 -108q105 0 199.5 27t148.5 75v-420z" />
<glyph unicode="&#x2122;" horiz-adv-x="1431" d="M836 895h-224v539h205l154 -222l151 222h207v-539h-225v229l-76 -112h-117l-75 112v-229zM430 895h-235v330h-136v209h506v-209h-135v-330z" />
<glyph unicode="&#x25fc;" horiz-adv-x="983" d="M0 983h983v-983h-983v983z" />
</font>
</defs>
</svg>
