<?xml version="1.0" standalone="no"?>
<!DOCTYPE svg PUBLIC "-//W3C//DTD SVG 1.1//EN" "http://www.w3.org/Graphics/SVG/1.1/DTD/svg11.dtd" >
<svg xmlns="http://www.w3.org/2000/svg" xmlns:xlink="http://www.w3.org/1999/xlink" version="1.1">
<metadata></metadata>
<defs>
<font id="mullerhairline" horiz-adv-x="1167" >
<font-face units-per-em="2048" ascent="1597" descent="-451" />
<missing-glyph horiz-adv-x="557" />
<glyph horiz-adv-x="0" />
<glyph horiz-adv-x="682" />
<glyph unicode=" "  horiz-adv-x="557" />
<glyph unicode="&#x09;" horiz-adv-x="557" />
<glyph unicode="&#xa0;" horiz-adv-x="557" />
<glyph unicode="!" horiz-adv-x="380" d="M201 328h-21v1106h21v-1106zM221 20q0 -12 -9 -21t-22 -9q-12 0 -21 9t-9 21t9 21.5t21 9.5q13 0 22 -9.5t9 -21.5z" />
<glyph unicode="&#x22;" horiz-adv-x="468" d="M324 1188h-17v246h25zM160 1188h-17v246h25z" />
<glyph unicode="#" horiz-adv-x="1318" d="M221 0h-22l94 399h-207v21h211l133 555h-242v20h246l94 400h23l-94 -400h549l94 400h22l-94 -400h205v-20h-209l-133 -555h239v-21h-243l-94 -399h-23l94 399h-549zM453 975l-134 -555h549l133 555h-548z" />
<glyph unicode="$" horiz-adv-x="1173" d="M618 -266h-20v246q-123 3 -246 34t-217 84v21q103 -56 230.5 -87.5t250.5 -31.5q74 0 138 10.5t121 34t98 59.5t64.5 90t23.5 121q0 80 -31.5 141t-84.5 99.5t-122 67.5t-145.5 51t-153 43.5t-145.5 50t-122 67t-84.5 99t-31.5 139.5q0 87 38 154t103 106.5t144.5 59.5 t169.5 20v246h20v-246q103 -3 203 -28t176 -68v-21q-79 44 -189 70.5t-210 26.5q-87 0 -163 -19t-138 -56.5t-97.5 -100.5t-35.5 -144q0 -76 31.5 -134t84.5 -94t122 -64t145.5 -49.5t152.5 -43.5t145 -52.5t122 -70.5t84.5 -103.5t31.5 -146.5q0 -71 -24.5 -128.5 t-67.5 -95.5t-102 -64t-126 -37t-143 -10v-246z" />
<glyph unicode="%" horiz-adv-x="1773" d="M479 -123h-22l837 1679h23zM664 1167q0 -135 -85.5 -210.5t-207.5 -75.5t-208.5 75.5t-86.5 210.5t86.5 211t208.5 76t207.5 -75.5t85.5 -211.5zM96 1167q0 -126 80 -196t195 -70q113 0 192.5 70t79.5 196t-79.5 196.5t-192.5 70.5q-114 0 -194.5 -70.5t-80.5 -196.5z M1698 266q0 -135 -86 -210.5t-207 -75.5q-123 0 -209 75t-86 211t86 211.5t209 75.5q121 0 207 -76t86 -211zM1130 266q0 -126 80 -196t195 -70q113 0 192.5 70t79.5 196t-79.5 196t-192.5 70q-115 0 -195 -70t-80 -196z" />
<glyph unicode="&#x26;" horiz-adv-x="1386" d="M1098 225l254 -225h-27l-238 211q-90 -107 -220.5 -169t-297.5 -62q-207 0 -327.5 99t-120.5 247q0 71 26.5 134.5t78 117t107.5 96t134 88.5q-213 201 -213 362q0 64 26.5 122.5t75 105t125 74.5t170.5 28q148 0 242 -75t94 -193q0 -33 -12 -65.5t-29.5 -58.5t-50.5 -56 t-60.5 -50.5t-75 -49.5t-78.5 -46.5t-86.5 -48t-84.5 -47.5q-8 -4 -10 -6q36 -36 94 -86l489 -434q67 87 102.5 190t35.5 207h20q0 -107 -36.5 -214t-106.5 -196zM651 1434q-175 0 -276 -91.5t-101 -218.5q0 -155 209 -352q3 1 8.5 4t8.5 4q26 15 84.5 47t86.5 48t76.5 45.5 t73 48.5t58 48t49 53.5t27.5 54.5t12 61q0 109 -88.5 178.5t-227.5 69.5zM141 326q0 -139 114.5 -232.5t313.5 -93.5q162 0 289 59.5t213 163.5l-489 434q-12 11 -46.5 41.5t-54.5 49.5q-77 -46 -132 -87.5t-105.5 -94t-76.5 -113t-26 -127.5z" />
<glyph unicode="'" horiz-adv-x="305" d="M160 1188h-17v246h25z" />
<glyph unicode="(" horiz-adv-x="483" d="M416 1655h24q-143 -197 -227 -445.5t-84 -492.5t84 -492.5t227 -445.5h-24q-141 199 -224 447t-83 491t83 491t224 447z" />
<glyph unicode=")" horiz-adv-x="483" d="M43 1655h25q141 -199 224 -447t83 -491q0 -241 -83 -490t-224 -448h-25q143 197 227 445.5t84 492.5t-84 492.5t-227 445.5z" />
<glyph unicode="*" horiz-adv-x="860" d="M430 1118l-178 -239l-16 12l178 242l-283 94l8 20l281 -96v283h20v-283l281 96l8 -20l-283 -94l179 -242l-17 -12z" />
<glyph unicode="+" horiz-adv-x="1110" d="M565 727h420v-20h-420v-420h-20v420h-420v20h420v420h20v-420z" />
<glyph unicode="," horiz-adv-x="301" d="M84 -287h-21l101 430h20z" />
<glyph unicode="-" horiz-adv-x="995" d="M150 504h696v-21h-696v21z" />
<glyph unicode="." horiz-adv-x="294" d="M178 20q0 -12 -9 -21t-22 -9q-12 0 -21 9t-9 21t9 21.5t21 9.5q13 0 22 -9.5t9 -21.5z" />
<glyph unicode="/" horiz-adv-x="811" d="M111 -117h-21l608 1667h21z" />
<glyph unicode="0" horiz-adv-x="1441" d="M127 696q0 160 37 290.5t109.5 226t186.5 148t261 52.5t261 -52.5t186.5 -148t109.5 -226t37 -290.5q0 -127 -23 -236t-71 -197.5t-118 -151.5t-167 -97t-215 -34t-215 34t-167 97t-118 151.5t-71 197.5t-23 236zM1294 696q0 155 -35.5 282t-105.5 220t-180 144t-252 51 t-252.5 -51t-180.5 -144t-105.5 -220t-35.5 -282t35.5 -282t105.5 -219.5t180.5 -143.5t252.5 -51q189 0 319.5 89.5t192 243.5t61.5 363z" />
<glyph unicode="1" horiz-adv-x="806" d="M453 1393h10v-1373h299v-20h-647v20h327v1346l-327 -123v21z" />
<glyph unicode="2" horiz-adv-x="1138" d="M156 1290q184 123 409 123q192 0 313 -90t121 -240q0 -85 -28 -152.5t-100.5 -130.5t-116.5 -92.5t-155 -95.5l-9 -6q-165 -97 -218 -135q-162 -117 -215 -264q-31 -84 -32 -187h895v-20h-916v20q0 117 34 208t113 164.5t134.5 111.5t169.5 105q6 4 9.5 6t8.5 5t9 5 q169 100 235 153q146 120 160 269q2 18 2 36q0 139 -115 224.5t-299 85.5q-213 0 -409 -123v20z" />
<glyph unicode="3" horiz-adv-x="1210" d="M1028 1049q0 -75 -29.5 -140t-98.5 -116.5t-169 -69.5q159 -23 257.5 -113.5t98.5 -247.5q0 -180 -125.5 -281t-330.5 -101q-301 0 -486 90v20q198 -90 486 -90q197 0 316.5 96.5t119.5 265.5q0 89 -36 157.5t-99 109.5t-143 61.5t-173 20.5h-196v20h196 q101 0 178.5 27.5t123 73.5t68 101t22.5 116q0 143 -112 243.5t-302 100.5q-125 0 -222.5 -21.5t-201.5 -66.5v20q190 88 424 88q199 0 316.5 -106t117.5 -258z" />
<glyph unicode="4" horiz-adv-x="1302" d="M897 1393h23v-1014h309v-21h-309v-358h-21v358h-838v17zM899 379v983l-807 -983h807z" />
<glyph unicode="5" horiz-adv-x="1171" d="M213 1393h778v-21h-758l-43 -651q180 59 367 59q104 0 193.5 -23.5t160.5 -70t111.5 -124.5t40.5 -179q0 -179 -129 -291t-354 -112q-123 0 -240 25t-205 69v20q199 -94 445 -94q216 0 339 105.5t123 277.5q0 96 -38.5 170t-106 118t-153.5 66.5t-187 22.5 q-192 0 -387 -68z" />
<glyph unicode="6" horiz-adv-x="1226" d="M152 571q101 121 240 190.5t286 69.5q91 0 170.5 -25.5t142.5 -76t100 -132.5t37 -187q0 -132 -61.5 -231t-164.5 -149t-232 -50q-261 0 -401 178.5t-140 488.5q0 766 602 766q157 0 283 -74v-20q-129 74 -283 74q-581 0 -581 -746q0 -51 2 -76zM154 541 q24 -255 155.5 -398t360.5 -143q190 0 314 110t124 300q0 99 -35 177.5t-95 126.5t-136.5 72.5t-163.5 24.5q-147 0 -287 -72.5t-237 -197.5z" />
<glyph unicode="7" horiz-adv-x="1046" d="M90 1393h922v-13l-678 -1380h-23l674 1372h-895v21z" />
<glyph unicode="8" horiz-adv-x="1308" d="M174 1085q0 64 28.5 121.5t85 104.5t151.5 74.5t216 27.5q114 0 207.5 -31t152 -81t90.5 -111t32 -125q0 -134 -68.5 -237.5t-187.5 -163.5q70 -25 121.5 -53t95.5 -67.5t67 -94t23 -121.5t-34 -128.5t-98 -111t-168 -79t-233 -29.5q-257 0 -394.5 109t-137.5 280 q0 137 77 246t216 169q-115 46 -178.5 118.5t-63.5 182.5zM653 709q-144 39 -215 65q-138 -54 -216.5 -162t-78.5 -243q0 -162 131.5 -265.5t380.5 -103.5q125 0 225 28t161.5 75t93.5 104.5t32 120.5q0 51 -16 94.5t-36 74t-64.5 60t-74.5 46.5t-95 39t-97.5 31.5 t-108.5 29.5q-7 2 -12 3.5t-10 2.5zM1116 1065q0 60 -30 117.5t-86 105t-146 76.5t-199 29q-117 0 -208 -26t-144.5 -70t-80.5 -98t-27 -114q0 -66 27.5 -119.5t67 -87t100.5 -62t111 -44.5t116 -34q23 -6 34 -9q48 -13 203 -57q122 57 192 159t70 234z" />
<glyph unicode="9" horiz-adv-x="1226" d="M98 983q0 198 130.5 314t328.5 116q261 0 401 -179t140 -489q0 -765 -602 -765q-159 0 -283 73v21q129 -74 283 -74q581 0 581 745q0 51 -2 76q-101 -121 -240 -190.5t-286 -69.5q-91 0 -170.5 26t-143 76t-100.5 132.5t-37 187.5zM119 983q0 -99 35 -177.5t95 -126.5 t136.5 -72.5t163.5 -24.5q147 0 287 72.5t237 197.5q-24 255 -155.5 398t-360.5 143q-190 0 -314 -110t-124 -300z" />
<glyph unicode=":" horiz-adv-x="360" d="M211 840q0 -12 -9 -21.5t-22 -9.5q-12 0 -21 9.5t-9 21.5t9 21t21 9q13 0 22 -9t9 -21zM211 20q0 -12 -9 -21t-22 -9q-12 0 -21 9t-9 21t9 21.5t21 9.5q13 0 22 -9.5t9 -21.5z" />
<glyph unicode=";" horiz-adv-x="198" d="M29 -287h-21l101 430h20zM127 932q0 -12 -9 -21.5t-22 -9.5q-12 0 -21 9.5t-9 21.5t9 21.5t21 9.5q13 0 22 -9.5t9 -21.5z" />
<glyph unicode="&#x3c;" horiz-adv-x="999" d="M825 393v-22l-719 334v24l719 334v-23l-696 -323z" />
<glyph unicode="=" horiz-adv-x="1089" d="M934 891h-778v20h778v-20zM934 522h-778v21h778v-21z" />
<glyph unicode="&#x3e;" horiz-adv-x="999" d="M893 705l-719 -334v22l696 324l-696 323v23l719 -334v-24z" />
<glyph unicode="?" horiz-adv-x="1005" d="M494 373h-21q0 56 23 113.5t60 107.5t81.5 100.5t89 102t81.5 102.5t60 111t23 120q0 139 -111 221.5t-301 82.5q-200 0 -393 -117v20q177 117 393 117q197 0 314.5 -87.5t117.5 -236.5q0 -70 -31 -142t-77 -129t-100.5 -120.5t-100.5 -118t-77 -120t-31 -127.5zM514 20 q0 -12 -9 -21t-22 -9q-12 0 -21 9t-9 21t9 21.5t21 9.5q13 0 22 -9.5t9 -21.5z" />
<glyph unicode="@" horiz-adv-x="2168" d="M111 492q0 149 41 289.5t124 262.5t199 213.5t277 144t348 52.5q178 0 334 -54t266.5 -143.5t190.5 -204.5t118.5 -238t38.5 -243q0 -267 -97 -409t-253 -142q-129 0 -200 73t-71 212q-49 -104 -148 -169.5t-224 -65.5q-173 0 -285.5 113.5t-112.5 303.5t113 304t285 114 q125 0 224 -65.5t148 -169.5v217h21v-598q0 -116 65.5 -182t184.5 -66q146 0 238 136t92 394q0 97 -27.5 197.5t-79.5 197t-132.5 181.5t-180.5 149t-231.5 101t-276.5 37q-182 0 -339.5 -51.5t-271.5 -140.5t-195.5 -208.5t-122 -257.5t-40.5 -284q0 -177 54 -329.5 t149 -264t221.5 -191t275 -119t306.5 -39.5q256 0 458 74v-20q-202 -74 -458 -74q-162 0 -313 40t-280.5 121.5t-226 195t-151.5 269.5t-55 337zM1427 616q-39 118 -140 193.5t-232 75.5q-164 0 -270.5 -108t-106.5 -290t106.5 -289.5t270.5 -107.5q132 0 232.5 75.5 t139.5 192.5v258z" />
<glyph unicode="A" horiz-adv-x="1437" d="M59 0h-22l668 1434h28l668 -1434h-23l-217 465h-885zM707 1389l-422 -904h866l-420 904q-2 4 -6 13t-6 13q-2 -4 -6 -13t-6 -13z" />
<glyph unicode="B" horiz-adv-x="1370" d="M221 1434h498q106 0 191.5 -20.5t150 -63t100 -112t35.5 -161.5q0 -75 -25 -134t-69.5 -97t-99 -60.5t-119.5 -31.5q54 -8 101 -21.5t98 -42t87 -67.5t59.5 -101t24.5 -139q0 -71 -20 -129t-51 -97.5t-77.5 -68.5t-93.5 -45.5t-106 -26.5t-107 -13t-104 -3h-473v1434z M1233 383q0 75 -23 135t-62.5 98t-85 64.5t-100 39t-98.5 18t-88 5.5h-534v-723h452q66 0 121 4.5t120.5 17t115 38t92.5 64t66.5 99.5t23.5 140zM1176 1077q0 171 -122 253.5t-335 82.5h-477v-649h559q73 0 138 18t119.5 54t86 98t31.5 143z" />
<glyph unicode="C" horiz-adv-x="1351" d="M113 696q0 146 42 271.5t113.5 213.5t165.5 150.5t198 92.5t212 30q228 0 399 -100v-21q-180 101 -399 101q-105 0 -206.5 -29t-193 -90.5t-161 -147t-110 -207.5t-40.5 -264q0 -139 41 -255t110 -196.5t161.5 -136.5t193.5 -82t207 -26q234 0 418 102v-20 q-172 -102 -418 -102q-108 0 -212 26.5t-199 84.5t-166 140t-113.5 202t-42.5 263z" />
<glyph unicode="D" horiz-adv-x="1490" d="M221 1434h391q152 0 278 -35t215.5 -98.5t150.5 -153t90.5 -197.5t29.5 -233t-29.5 -233t-90.5 -197.5t-150.5 -153t-215.5 -98.5t-278 -35h-391v1434zM1356 717q0 153 -46 278.5t-135.5 219.5t-233.5 146t-329 52h-370v-1393h370q185 0 329 52t233.5 146.5t135.5 220 t46 278.5z" />
<glyph unicode="E" horiz-adv-x="1298" d="M221 1434h924v-21h-903v-682h841v-20h-841v-691h923v-20h-944v1434z" />
<glyph unicode="F" horiz-adv-x="1212" d="M221 1434h926v-21h-905v-694h845v-21h-845v-698h-21v1434z" />
<glyph unicode="G" horiz-adv-x="1452" d="M113 717q0 152 43 277t115 209t169.5 141.5t203.5 83.5t220 26q224 0 410 -94v-21q-86 44 -196 69.5t-214 25.5q-111 0 -214.5 -25t-198 -81t-165 -137.5t-112 -203.5t-41.5 -270q0 -147 42 -268.5t113.5 -203t168 -138t202.5 -82t220 -25.5q222 0 413 90v653h21v-665 q-198 -98 -434 -98q-117 0 -226 26t-208 84t-172 142.5t-116.5 209t-43.5 275.5z" />
<glyph unicode="H" horiz-adv-x="1568" d="M1327 1434h21v-1434h-21v711h-1085v-711h-21v1434h21v-703h1085v703z" />
<glyph unicode="I" horiz-adv-x="462" d="M221 1434h21v-1434h-21v1434z" />
<glyph unicode="J" horiz-adv-x="1069" d="M358 1434h506v-1065q0 -190 -117 -289.5t-309 -99.5q-229 0 -366 88v20q140 -88 366 -88q185 0 295.5 94.5t110.5 274.5v1044h-486v21z" />
<glyph unicode="K" horiz-adv-x="1333" d="M242 0h-21v1434h21v-686h473l520 686h27l-531 -699l590 -735h-27l-583 727h-469v-727z" />
<glyph unicode="L" horiz-adv-x="1177" d="M221 1434h21v-1414h897v-20h-918v1434z" />
<glyph unicode="M" horiz-adv-x="1830" d="M1597 1434h13v-1434h-21v1386l-667 -968h-13l-667 968v-1386h-21v1434h12l682 -990z" />
<glyph unicode="N" horiz-adv-x="1568" d="M242 0h-21v1434h15l1091 -1393v123v1270h21v-1434h-15l-1091 1395v-123v-1272z" />
<glyph unicode="O" horiz-adv-x="1691" d="M109 717q0 107 28.5 211t89 199.5t146 168t208 115.5t265.5 43t265.5 -43t208 -115.5t146 -168t89 -199.5t28.5 -211t-28.5 -211t-89 -199.5t-146 -168t-208 -115.5t-265.5 -43t-265.5 43t-208 115.5t-146 168t-89 199.5t-28.5 211zM1563 717q0 105 -28 206.5t-87 194 t-142 163t-202 112t-258 41.5t-258 -41.5t-202 -112t-142 -163t-87 -194t-28 -206.5t28 -206.5t87 -194t142 -163t202 -112t258 -41.5t258 41.5t202 112t142 163t87 194t28 206.5z" />
<glyph unicode="P" horiz-adv-x="1327" d="M221 1434h434q99 0 182.5 -12.5t161.5 -44t132 -80.5t86 -126.5t32 -177.5q0 -84 -22 -152t-63 -115.5t-94.5 -81.5t-122 -53.5t-139.5 -28.5t-153 -9h-413v-553h-21v1434zM1229 993q0 420 -574 420h-413v-840h413q574 0 574 420z" />
<glyph unicode="Q" horiz-adv-x="1691" d="M1587 -102l-14 -15l-254 254q-195 -157 -473 -157q-143 0 -265.5 43t-208 115.5t-146 168t-89 199.5t-28.5 211t28.5 211t89 199.5t146 168t208 115.5t265.5 43t265.5 -43t208 -115.5t146 -168t89 -199.5t28.5 -211q0 -159 -64 -309t-186 -256zM129 717q0 -105 28 -206.5 t87 -194t142 -163t202 -112t258 -41.5q269 0 459 152l-353 352l15 14l352 -352q119 101 181.5 248t62.5 303q0 105 -28 206.5t-87 194t-142 163t-202 112t-258 41.5t-258 -41.5t-202 -112t-142 -163t-87 -194t-28 -206.5z" />
<glyph unicode="R" horiz-adv-x="1388" d="M242 0h-21v1434h533q72 0 140.5 -13.5t133.5 -44.5t113.5 -77.5t78 -117.5t29.5 -159q0 -106 -42 -187t-112 -128t-151 -71t-170 -26l563 -610h-26l-563 610h-506v-610zM242 1413v-782h512q69 0 134.5 12.5t128 42t109 73t75 111.5t28.5 152t-28.5 152t-75 111.5t-109 73 t-128 42t-134.5 12.5h-512z" />
<glyph unicode="S" horiz-adv-x="1136" d="M125 1114q0 86 37.5 153.5t100.5 107t138 59.5t158 20q107 0 213 -25.5t186 -70.5v-21q-79 44 -189 70.5t-210 26.5q-80 0 -152 -19t-131.5 -56t-95 -100.5t-35.5 -144.5q0 -76 31 -135t84 -98t121 -70t143.5 -55.5t151 -50t143.5 -59t121 -76t84 -107.5t31 -148 q0 -88 -37.5 -154.5t-103.5 -105t-147 -57t-177 -18.5q-129 0 -258.5 31.5t-227.5 86.5v21q103 -56 232 -87.5t254 -31.5q93 0 170.5 17t140 53t98 98.5t35.5 146.5q0 101 -50 174.5t-130.5 116.5t-177 76.5t-193.5 67t-177.5 76t-130.5 115.5t-50 173z" />
<glyph unicode="T" horiz-adv-x="1216" d="M35 1434h1147v-21h-564v-1413h-20v1413h-563v21z" />
<glyph unicode="U" horiz-adv-x="1531" d="M1309 1434h20v-949q0 -137 -42.5 -237t-120.5 -157.5t-176.5 -84t-223.5 -26.5t-223.5 26.5t-176.5 84t-120.5 157.5t-42.5 237v949h20v-949q0 -132 40.5 -228t115.5 -151t170.5 -80.5t216.5 -25.5t216.5 25.5t170.5 80.5t115.5 151t40.5 228v949z" />
<glyph unicode="V" horiz-adv-x="1380" d="M700 0h-20l-635 1434h23l622 -1409l623 1409h22z" />
<glyph unicode="W" horiz-adv-x="2002" d="M1919 1434h23l-461 -1434h-21l-459 1380l-458 -1380h-21l-461 1434h23l448 -1399l459 1378h21l458 -1378z" />
<glyph unicode="X" horiz-adv-x="1216" d="M49 0h-24l571 737l-541 697h25l528 -682l529 682h24l-540 -697l571 -737h-25l-559 721z" />
<glyph unicode="Y" horiz-adv-x="1261" d="M641 0h-20v592l-566 842h25l551 -820l551 820h24l-565 -842v-592z" />
<glyph unicode="Z" horiz-adv-x="1153" d="M1094 0h-1053v16l1014 1397h-969v21h997v-17l-1013 -1397h1024v-20z" />
<glyph unicode="[" horiz-adv-x="456" d="M422 -225h-258v1884h258v-21h-238v-1843h238v-20z" />
<glyph unicode="\" horiz-adv-x="811" d="M721 -117h-21l-608 1667h21z" />
<glyph unicode="]" horiz-adv-x="456" d="M293 -225h-258v20h237v1843h-237v21h258v-1884z" />
<glyph unicode="^" horiz-adv-x="978" d="M152 840h-23l350 594h21l350 -594h-23l-338 573z" />
<glyph unicode="_" horiz-adv-x="860" d="M860 -248h-860v21h860v-21z" />
<glyph unicode="`" horiz-adv-x="327" d="M266 1597h-26l-179 267h27z" />
<glyph unicode="a" horiz-adv-x="1099" d="M899 127q0 -56 32 -81.5t81 -25.5q38 0 75 15v-21q-40 -14 -75 -14q-56 0 -94.5 31t-38.5 96v121q-66 -126 -192 -197t-271 -71q-64 0 -122 17t-105.5 50t-76 87t-28.5 122q0 80 35 140t95 94.5t132 51.5t154 17q188 0 379 -67v124q0 170 -96.5 268.5t-278.5 98.5 q-184 0 -344 -57v20q159 58 344 58q190 0 292.5 -104.5t102.5 -283.5v-489zM104 256q0 -63 26.5 -113t70.5 -80.5t99 -46.5t116 -16q146 0 272 74.5t191 212.5v182q-196 70 -379 70q-78 0 -146.5 -15.5t-125.5 -47.5t-90.5 -88.5t-33.5 -131.5z" />
<glyph unicode="b" horiz-adv-x="1251" d="M176 1434h21v-729q61 132 184.5 215.5t277.5 83.5q214 0 351 -138.5t137 -373.5t-137 -373.5t-351 -138.5q-154 0 -277.5 83.5t-184.5 215.5v-279h-21v1434zM1126 492q0 114 -35.5 207t-98 155t-148 95.5t-185.5 33.5q-162 0 -287.5 -95t-174.5 -241v-311 q49 -146 174.5 -241t287.5 -95q205 0 336 133t131 359z" />
<glyph unicode="c" horiz-adv-x="1013" d="M104 481q0 107 30.5 195.5t81.5 148.5t119.5 101t143 59.5t152.5 18.5q166 0 284 -80v-21q-59 39 -135 59.5t-149 20.5q-96 0 -184 -30t-161.5 -88.5t-117 -157.5t-43.5 -226q0 -119 40 -213.5t107.5 -151.5t151.5 -86.5t178 -29.5q183 0 324 78v-21q-137 -77 -324 -77 q-77 0 -148 18.5t-135 58.5t-111.5 97.5t-75.5 141.5t-28 185z" />
<glyph unicode="d" horiz-adv-x="1251" d="M1055 1434h20v-1434h-20v279q-61 -132 -185 -215.5t-278 -83.5q-214 0 -351 138.5t-137 373.5t137 373.5t351 138.5q154 0 278 -83.5t185 -215.5v729zM1055 647q-49 146 -174.5 241t-288.5 95q-100 0 -185.5 -33.5t-148 -95.5t-98 -155t-35.5 -207q0 -226 131 -359 t336 -133q163 0 288.5 95t174.5 241v311z" />
<glyph unicode="e" horiz-adv-x="1116" d="M104 492q0 118 39.5 216.5t106.5 162t152.5 98.5t179.5 35q74 0 138 -18t110 -49t83 -73t57.5 -90t35 -100t14 -102.5t-5.5 -98.5h-889q2 -122 45 -215t115.5 -148t161 -82.5t190.5 -27.5q187 0 317 76v-21q-129 -75 -317 -75q-107 0 -200.5 30t-169 89.5t-119.5 160.5 t-44 232zM997 494q6 66 -3.5 132.5t-39 131.5t-77 114.5t-123.5 80t-172 30.5q-90 0 -171.5 -32.5t-145 -92.5t-101.5 -154.5t-39 -209.5h872z" />
<glyph unicode="f" horiz-adv-x="696" d="M236 0h-21v963h-164v20h164v182q0 76 25 133.5t68.5 90.5t96 49t113.5 16q65 0 128 -13.5t102 -35.5v-21q-37 22 -101.5 36t-128.5 14q-123 0 -202.5 -66t-79.5 -203v-182h452v-20h-452v-963z" />
<glyph unicode="g" horiz-adv-x="1251" d="M104 492q0 235 137 373.5t351 138.5q154 0 278 -83.5t185 -215.5v278h20v-983q0 -119 -42.5 -212t-115 -148t-162 -83t-190.5 -28q-201 0 -381 94v21q192 -95 381 -95q98 0 184 27t155.5 80t110 141.5t40.5 202.5v279q-61 -132 -185 -215.5t-278 -83.5q-214 0 -351 138.5 t-137 373.5zM1055 647q-49 146 -174.5 241t-288.5 95q-100 0 -185.5 -33.5t-148 -95.5t-98 -155t-35.5 -207q0 -226 131 -359t336 -133q163 0 288.5 95t174.5 241v311z" />
<glyph unicode="h" d="M176 1434h21v-691q28 45 65.5 86.5t91 83t126 66.5t151.5 25q162 0 268.5 -107.5t106.5 -292.5v-604h-21v604q0 176 -100 277.5t-254 101.5q-80 0 -152 -25.5t-125 -68t-91.5 -89.5t-65.5 -98v-702h-21v1434z" />
<glyph unicode="i" horiz-adv-x="389" d="M205 0h-21v983h21v-983zM219 1251q0 -11 -7 -17.5t-17 -6.5t-17.5 6.5t-7.5 17.5t7.5 18t17.5 7t17 -7t7 -18z" />
<glyph unicode="j" horiz-adv-x="389" d="M205 -252q0 -116 -65.5 -167.5t-162.5 -51.5q-73 0 -137 22v21q67 -23 137 -23q89 0 148 46.5t59 152.5v1235h21v-1235zM219 1251q0 -11 -7 -17.5t-17 -6.5t-17.5 6.5t-7.5 17.5t7.5 18t17.5 7t17 -7t7 -18z" />
<glyph unicode="k" horiz-adv-x="987" d="M979 0h-27l-473 502h-282v-502h-21v1434h21v-912h286l408 461h27l-418 -473z" />
<glyph unicode="l" horiz-adv-x="389" d="M184 1495h21v-1495h-21v1495z" />
<glyph unicode="m" horiz-adv-x="1830" d="M197 0h-21v983h21v-227q27 43 64 83t87.5 79t116 62.5t135.5 23.5q120 0 207.5 -65.5t118.5 -174.5q28 43 65 81.5t86.5 76t114 60t133.5 22.5q150 0 246 -99.5t96 -255.5v-649h-20v645q0 146 -88 242t-234 96q-127 0 -228 -73t-163 -175q8 -36 8 -86v-649h-20v645 q0 146 -88 242t-234 96q-70 0 -135.5 -24.5t-116 -65.5t-87.5 -85.5t-64 -92.5v-715z" />
<glyph unicode="n" d="M197 743q28 45 65.5 86.5t91 83t126 66.5t151.5 25q162 0 268.5 -107.5t106.5 -292.5v-604h-21v604q0 176 -100 277.5t-254 101.5q-80 0 -152 -25.5t-125 -68t-91.5 -89.5t-65.5 -98v-702h-21v983h21v-240z" />
<glyph unicode="o" horiz-adv-x="1212" d="M104 492q0 119 41 217t111 161.5t160 98.5t190 35t190 -35t160 -98.5t111 -161.5t41 -217t-41 -217t-111 -161.5t-160 -98.5t-190 -35t-190 35t-160 98.5t-111 161.5t-41 217zM1087 492q0 114 -39.5 208t-106 155t-153 94.5t-182.5 33.5t-182.5 -33.5t-153 -94.5 t-106 -155t-39.5 -208q0 -151 68 -265t176 -170.5t237 -56.5t237 56.5t176 170.5t68 265z" />
<glyph unicode="p" horiz-adv-x="1251" d="M197 705q61 132 184.5 215.5t277.5 83.5q214 0 351 -138.5t137 -373.5t-137 -373.5t-351 -138.5q-154 0 -277.5 83.5t-184.5 215.5v-730h-21v1434h21v-278zM1126 492q0 226 -131 358.5t-336 132.5q-162 0 -287.5 -95t-174.5 -241v-311q49 -146 174.5 -241t287.5 -95 q204 0 335.5 132.5t131.5 359.5z" />
<glyph unicode="q" horiz-adv-x="1251" d="M104 492q0 235 137 373.5t351 138.5q154 0 278 -83.5t185 -215.5v278h20v-1434h-20v730q-61 -132 -185 -215.5t-278 -83.5q-214 0 -351 138.5t-137 373.5zM1055 647q-49 146 -174.5 241t-288.5 95q-205 0 -336 -132.5t-131 -358.5q0 -227 131.5 -359.5t335.5 -132.5 q163 0 288.5 95t174.5 241v311z" />
<glyph unicode="r" horiz-adv-x="673" d="M197 651q49 148 167 250.5t287 102.5v-21q-94 0 -175 -36t-136.5 -95.5t-91.5 -130t-51 -146.5v-575h-21v983h21v-332z" />
<glyph unicode="s" horiz-adv-x="919" d="M113 762q0 63 29.5 111t78.5 75.5t107 41.5t121 14q89 0 177.5 -23.5t151.5 -62.5v-21q-62 38 -152 62t-177 24q-83 0 -152 -21.5t-116.5 -73t-47.5 -126.5q0 -62 30 -108.5t79 -72t112 -47t128 -35.5t128 -36t112 -49t79 -75.5t30 -113.5q0 -62 -29.5 -110.5t-80.5 -77 t-114 -43t-134 -14.5q-98 0 -203.5 28t-169.5 72v20q70 -45 173.5 -72.5t199.5 -27.5q93 0 167 23t122.5 75t48.5 127q0 55 -24 97t-64.5 68t-92.5 45.5t-110 34t-116 29.5t-110 36t-92.5 49t-64.5 73.5t-24 104.5z" />
<glyph unicode="t" horiz-adv-x="714" d="M209 1311l20 10v-338h451v-20h-451v-697q0 -127 66.5 -194.5t196.5 -67.5q124 0 208 49v-20q-74 -49 -208 -49q-137 0 -210 73t-73 209v697h-184v20h184v328z" />
<glyph unicode="u" d="M971 983h20v-983h-20v240q-28 -45 -65.5 -86.5t-91 -82.5t-126 -66t-151.5 -25q-162 0 -268.5 107t-106.5 292v604h20v-604q0 -176 100.5 -277.5t254.5 -101.5q80 0 152 25.5t125 68t91.5 89.5t65.5 98v702z" />
<glyph unicode="v" horiz-adv-x="1060" d="M989 983h23l-469 -983h-25l-469 983h23l458 -960z" />
<glyph unicode="w" horiz-adv-x="1634" d="M1552 983h23l-389 -983h-17l-352 938l-352 -938h-16l-390 983h23l375 -948l348 928h24l349 -928z" />
<glyph unicode="x" horiz-adv-x="985" d="M897 983h27l-418 -479l440 -504h-26l-428 489l-429 -489h-26l442 504l-420 479h27l406 -463z" />
<glyph unicode="y" horiz-adv-x="1081" d="M569 18l439 965h22l-530 -1171q-70 -155 -144 -219t-172 -64q-46 0 -98 12v23q66 -15 98 -15q94 0 164 65.5t135 211.5l76 170l-520 987h22z" />
<glyph unicode="z" horiz-adv-x="894" d="M86 983h725v-14l-723 -949h743v-20h-774v14l723 949h-694v20z" />
<glyph unicode="{" horiz-adv-x="499" d="M424 -205v-20q-94 -17 -135 29t-41 145v543q0 101 -60 158t-135 57v20q75 0 135 57t60 158v543q0 208 176 174v-21q-88 14 -122 -23.5t-34 -129.5v-543q0 -93 -45 -151t-112 -74q67 -16 112 -74t45 -151v-543q0 -92 34 -130t122 -24z" />
<glyph unicode="|" horiz-adv-x="348" d="M184 -205h-20v1864h20v-1864z" />
<glyph unicode="}" horiz-adv-x="497" d="M252 -51q0 -99 -41 -145t-135 -29v20q88 -14 121.5 24t33.5 130v543q0 92 45.5 150.5t112.5 74.5q-67 16 -112.5 74.5t-45.5 150.5v543q0 92 -33.5 129.5t-121.5 23.5v21q176 34 176 -174v-543q0 -101 59.5 -158t134.5 -57v-20q-75 0 -134.5 -57t-59.5 -158v-543z" />
<glyph unicode="~" horiz-adv-x="1175" d="M1020 739q0 -65 -42.5 -108t-115.5 -43q-51 0 -127 23.5t-142.5 52t-142.5 52t-126 23.5q-65 0 -101.5 -36.5t-36.5 -94.5h-20q0 66 42.5 109t115.5 43q64 0 167.5 -38t206 -76t164.5 -38q64 0 100.5 37t36.5 94h21z" />
<glyph unicode="&#xa1;" horiz-adv-x="348" d="M184 -440h-20v1106h20v-1106zM205 973q0 -12 -9 -21.5t-22 -9.5q-12 0 -21.5 9.5t-9.5 21.5t9.5 21.5t21.5 9.5q13 0 22 -9.5t9 -21.5z" />
<glyph unicode="&#xa2;" horiz-adv-x="1050" d="M631 0q172 6 303 78v-21q-133 -74 -303 -77v-226h-21v226q-77 0 -148 18.5t-135 58.5t-111 97.5t-75 141.5t-28 185q0 128 42.5 228.5t114.5 162t158 94.5t182 38v225h21v-225h8q167 0 285 -80v-21q-59 39 -135.5 59.5t-149.5 20.5h-8v-983zM610 983q-74 -4 -142 -24 t-129.5 -60.5t-107 -97.5t-72 -139.5t-26.5 -180.5q0 -119 40 -213.5t107.5 -151.5t151.5 -86.5t178 -29.5v983z" />
<glyph unicode="&#xa3;" horiz-adv-x="1255" d="M1141 0h-1065v20h61q80 0 127 53.5t47 153.5v459h-164v21h164v247q0 95 25 173t66.5 130t98.5 87.5t119 51t130 15.5q77 0 152 -21t128 -59v-20q-125 80 -280 80q-84 0 -156.5 -24.5t-132.5 -75t-94.5 -137t-34.5 -200.5v-247h542v-21h-542v-459q0 -158 -107 -207h916 v-20z" />
<glyph unicode="&#xa4;" horiz-adv-x="1171" d="M324 432l-134 -133l-14 14l133 133q-114 107 -114 271q0 163 114 270l-133 133l14 15l134 -134q112 95 262 95t262 -95l133 134l14 -15l-133 -133q115 -108 115 -270q0 -163 -115 -271l133 -133l-14 -14l-133 133q-111 -94 -262 -94t-262 94zM215 717q0 -105 52.5 -188.5 t137 -127t181.5 -43.5q150 0 260 100.5t110 258.5q0 157 -109.5 257.5t-260.5 100.5q-152 0 -261.5 -99.5t-109.5 -258.5z" />
<glyph unicode="&#xa5;" horiz-adv-x="1249" d="M1149 1393h25l-527 -783h387v-20h-399v-221h399v-21h-399v-348h-21v348h-399v21h399v221h-399v20h387l-526 783h24l525 -779z" />
<glyph unicode="&#xa6;" horiz-adv-x="389" d="M205 963h-21v696h21v-696zM205 -205h-21v697h21v-697z" />
<glyph unicode="&#xa7;" horiz-adv-x="983" d="M846 164q0 -105 -99.5 -169.5t-242.5 -64.5q-99 0 -190 24t-152 66v21q62 -41 154.5 -65.5t187.5 -24.5q136 0 228.5 59t92.5 154q0 36 -10 67t-25 53.5t-42.5 43t-51 33.5t-63 27t-67 22t-72.5 20q-163 43 -225 74q-141 72 -142 207q0 54 21.5 101.5t57 80t72.5 54.5 t76 36q-47 17 -82 36t-64.5 46.5t-45 65.5t-15.5 86q0 109 93.5 173t228.5 64q90 0 176 -22t139 -58v-20q-60 36 -144.5 58t-170.5 22q-128 0 -214.5 -59t-86.5 -158q0 -35 10.5 -65t27 -52t43.5 -41.5t54 -32.5t64.5 -25.5t69.5 -21.5t75 -20q13 -3 20 -5q61 -16 99.5 -28 t88.5 -35t78 -49.5t48 -68t20 -93.5q0 -45 -16 -84.5t-41 -67t-59.5 -50.5t-65.5 -37t-66 -25q108 -37 168 -94.5t60 -157.5zM498 451q15 -4 43 -12.5t43 -12.5q262 76 262 254q0 40 -11 72.5t-35 57t-49.5 42.5t-67 34t-73.5 25.5t-82 22.5q-87 22 -141 39 q-37 -11 -74.5 -30.5t-77 -50.5t-64 -78.5t-24.5 -102.5q0 -41 10.5 -73.5t41 -58.5t49.5 -41.5t74.5 -34.5t74.5 -24.5t87 -23.5q9 -3 14 -4z" />
<glyph unicode="&#xa8;" horiz-adv-x="552" d="M512 1710q0 -12 -9 -21.5t-22 -9.5q-12 0 -21 9.5t-9 21.5t9 21.5t21 9.5q13 0 22 -9.5t9 -21.5zM102 1710q0 -12 -8.5 -21.5t-21.5 -9.5q-12 0 -21.5 9.5t-9.5 21.5t9.5 21.5t21.5 9.5q13 0 21.5 -9.5t8.5 -21.5z" />
<glyph unicode="&#xa9;" horiz-adv-x="1753" d="M1634 717q0 -142 -44.5 -264t-120 -207.5t-173.5 -146.5t-204.5 -90t-214.5 -29t-215 29t-205 90t-173 146.5t-120 207.5t-45 264t45 264t120 207.5t173 146.5t205 90t215 29t214.5 -29t204.5 -90t173.5 -146.5t120 -207.5t44.5 -264zM1169 377q-127 -70 -266 -70 q-76 0 -145.5 24t-126.5 70.5t-91 124t-34 174.5q0 108 36.5 192t97.5 133.5t134 75t152 25.5q139 0 243 -71v-21q-107 72 -243 72q-76 0 -145.5 -24t-127.5 -71.5t-92.5 -127.5t-34.5 -183q0 -92 32 -165t85.5 -117t120 -67t139.5 -23q144 0 266 69v-20zM139 717 q0 -138 43.5 -256.5t116.5 -201.5t168.5 -142.5t200 -88t209.5 -28.5t209.5 28.5t199.5 88t168 142.5t116.5 201.5t43.5 256.5t-43.5 256.5t-116.5 201.5t-168 142.5t-199.5 88t-209.5 28.5t-209.5 -28.5t-200 -88t-168.5 -142.5t-116.5 -201.5t-43.5 -256.5z" />
<glyph unicode="&#xab;" horiz-adv-x="811" d="M662 147h-25l-240 338v13l240 338h25l-244 -344zM375 147h-25l-239 338v13l239 338h25l-244 -344z" />
<glyph unicode="&#xac;" horiz-adv-x="1189" d="M1034 635h-20v328h-840v20h860v-348z" />
<glyph unicode="&#xad;" horiz-adv-x="995" d="M150 504h696v-21h-696v21z" />
<glyph unicode="&#xae;" horiz-adv-x="1753" d="M1634 717q0 -142 -44.5 -264t-120 -207.5t-173.5 -146.5t-204.5 -90t-214.5 -29t-215 29t-205 90t-173 146.5t-120 207.5t-45 264t45 264t120 207.5t173 146.5t205 90t215 29t214.5 -29t204.5 -90t173.5 -146.5t120 -207.5t44.5 -264zM139 717q0 -138 43.5 -256.5 t116.5 -201.5t168.5 -142.5t200 -88t209.5 -28.5t209.5 28.5t199.5 88t168 142.5t116.5 201.5t43.5 256.5t-43.5 256.5t-116.5 201.5t-168 142.5t-199.5 88t-209.5 28.5t-209.5 -28.5t-200 -88t-168.5 -142.5t-116.5 -201.5t-43.5 -256.5zM639 303h-21v809h300q35 0 70 -5.5 t76.5 -22t72.5 -42.5t52 -72t21 -106q0 -186 -194 -219l241 -342h-22l-238 338q-31 -4 -79 -4h-279v-334zM639 1092v-435h279q272 0 272 207q0 55 -19.5 97.5t-48 66.5t-67 39t-71.5 20t-66 5h-279z" />
<glyph unicode="&#xaf;" horiz-adv-x="573" d="M41 1696h491v-21h-491v21z" />
<glyph unicode="&#xb0;" horiz-adv-x="794" d="M686 1190q0 -128 -86.5 -206.5t-202.5 -78.5t-202 78.5t-86 206.5t86 206.5t202 78.5t202.5 -78.5t86.5 -206.5zM129 1190q0 -119 80 -191.5t188 -72.5q109 0 189 72.5t80 191.5t-80 191.5t-189 72.5q-108 0 -188 -72.5t-80 -191.5z" />
<glyph unicode="&#xb1;" horiz-adv-x="1208" d="M614 1147v-420h420v-20h-420v-420h-20v420h-420v20h420v420h20zM1034 0h-860v20h860v-20z" />
<glyph unicode="&#xb4;" horiz-adv-x="327" d="M88 1597h-27l179 267h26z" />
<glyph unicode="&#xb6;" horiz-adv-x="1183" d="M530 -451h-20v1065q-203 0 -318.5 108.5t-115.5 301.5t115.5 301.5t318.5 108.5h491v-1885h-20v1864h-451v-1864z" />
<glyph unicode="&#xb7;" horiz-adv-x="360" d="M211 489q0 -12 -9 -21t-22 -9t-21.5 9t-8.5 21t8.5 21.5t21.5 9.5t22 -9.5t9 -21.5z" />
<glyph unicode="&#xb8;" horiz-adv-x="428" d="M195 0h20l-53 -215q63 14 120.5 10t98 -36t41.5 -83q2 -65 -55 -106t-166 -41q-116 0 -201 47v21q86 -48 201 -48q101 0 151.5 36t48.5 91q-1 46 -40.5 73t-98 28t-127.5 -17z" />
<glyph unicode="&#xbb;" horiz-adv-x="811" d="M461 147h-25l244 345l-244 344h25l239 -338v-13zM174 147h-24l243 345l-243 344h24l240 -338v-13z" />
<glyph unicode="&#xbc;" horiz-adv-x="1875" d="M1589 836h23v-605h186v-18h-186v-213h-21v213h-499v16zM1591 231v574l-471 -574h471zM406 -20h-27l932 1474h26zM342 1393h14v-815h166v-21h-405v21h219v790l-197 -74v21z" />
<glyph unicode="&#xbd;" horiz-adv-x="1775" d="M399 -20h-26l932 1474h26zM1157 774q114 74 248 74q117 0 189.5 -54t72.5 -147q0 -41 -15 -78.5t-33.5 -62.5t-57 -55t-63.5 -45.5t-75 -45.5q-9 -5 -26 -15q-114 -67 -159 -110q-88 -86 -89 -215h530v-20h-553v16q0 56 18 105t34.5 78t65.5 68.5t66.5 50.5t81.5 49 q13 8 19 12q116 69 154 103q82 72 82 165q0 82 -67 131t-175 49q-131 0 -248 -73v20zM336 1393h14v-815h166v-21h-405v21h219v790l-197 -74v21z" />
<glyph unicode="&#xbe;" horiz-adv-x="1970" d="M563 -20h-26l931 1474h27zM1686 836h22v-605h186v-18h-186v-213h-20v213h-500v16zM1688 231v574l-471 -574h471zM666 1194q0 -70 -43.5 -124.5t-130.5 -70.5q93 -15 150.5 -68.5t57.5 -146.5q0 -108 -76 -169.5t-200 -61.5q-179 0 -291 53v21q121 -54 291 -54 q116 0 186 55.5t70 155.5q0 101 -74 152t-188 51h-121v21h119q115 0 172 54.5t57 131.5q0 83 -65.5 141t-178.5 58q-131 0 -254 -54v21q112 53 256 53q120 0 191.5 -63.5t71.5 -155.5z" />
<glyph unicode="&#xbf;" horiz-adv-x="972" d="M899 -344q-177 -117 -393 -117q-197 0 -314.5 87.5t-117.5 236.5q0 61 23 122.5t60 113.5t81.5 104.5t89 103t81.5 100t60 105t23 109.5h20q0 -56 -23 -113.5t-60 -107.5t-81.5 -101t-89 -102.5t-81.5 -102.5t-60 -111t-23 -120q0 -139 111 -221t301 -82q201 0 393 116 v-20zM532 973q0 -12 -9 -21.5t-21 -9.5q-13 0 -22 9.5t-9 21.5t9 21.5t22 9.5q12 0 21 -9.5t9 -21.5z" />
<glyph unicode="&#xc0;" horiz-adv-x="1437" d="M59 0h-22l668 1434h28l668 -1434h-23l-217 465h-885zM707 1389l-422 -904h866l-420 904q-2 4 -6 13t-6 13q-2 -4 -6 -13t-6 -13zM770 1597h-27l-178 267h27z" />
<glyph unicode="&#xc1;" horiz-adv-x="1437" d="M59 0h-22l668 1434h28l668 -1434h-23l-217 465h-885zM707 1389l-422 -904h866l-420 904q-2 4 -6 13t-6 13q-2 -4 -6 -13t-6 -13zM684 1597h-27l179 267h26z" />
<glyph unicode="&#xc2;" horiz-adv-x="1437" d="M59 0h-22l668 1434h28l668 -1434h-23l-217 465h-885zM707 1389l-422 -904h866l-420 904q-2 4 -6 13t-6 13q-2 -4 -6 -13t-6 -13zM711 1843h16l256 -246h-27l-237 228l-238 -228h-26z" />
<glyph unicode="&#xc3;" horiz-adv-x="1437" d="M59 0h-22l668 1434h28l668 -1434h-23l-217 465h-885zM707 1389l-422 -904h866l-420 904q-2 4 -6 13t-6 13q-2 -4 -6 -13t-6 -13zM1001 1759q6 -57 -20.5 -94t-83.5 -37q-53 0 -178 61.5t-176 61.5q-44 0 -67 -31t-17 -82h-21q-8 55 21.5 94.5t83.5 39.5q52 0 177.5 -61.5 t176.5 -61.5q46 0 67.5 29t16.5 81h20z" />
<glyph unicode="&#xc4;" horiz-adv-x="1437" d="M59 0h-22l668 1434h28l668 -1434h-23l-217 465h-885zM707 1389l-422 -904h866l-420 904q-2 4 -6 13t-6 13q-2 -4 -6 -13t-6 -13zM954 1710q0 -12 -8.5 -21.5t-21.5 -9.5q-12 0 -21.5 9.5t-9.5 21.5t9.5 21.5t21.5 9.5q13 0 21.5 -9.5t8.5 -21.5zM545 1710q0 -12 -9 -21.5 t-22 -9.5q-12 0 -21.5 9.5t-9.5 21.5t9.5 21.5t21.5 9.5q13 0 22 -9.5t9 -21.5z" />
<glyph unicode="&#xc5;" horiz-adv-x="1437" d="M59 0h-22l668 1434h28l668 -1434h-23l-217 465h-885zM707 1389l-422 -904h866l-420 904q-2 4 -6 13t-6 13q-2 -4 -6 -13t-6 -13zM877 1712q0 -67 -47 -110t-111 -43t-111 43t-47 110t47 110.5t111 43.5t111 -43.5t47 -110.5zM582 1712q0 -59 41 -96t96 -37t96 37t41 96 t-41 96t-96 37t-96 -37t-41 -96z" />
<glyph unicode="&#xc6;" horiz-adv-x="2033" d="M1047 711v-691h854v-20h-875v465h-684l-336 -465h-26l1036 1434h872v-21h-841v-682h780v-20h-780zM356 485h670v926z" />
<glyph unicode="&#xc7;" horiz-adv-x="1351" d="M1264 102v-20q-171 -99 -408 -102l-49 -195q63 14 120.5 10t98 -36t41.5 -83q2 -65 -55 -106t-166 -41q-116 0 -201 47v21q86 -48 201 -48q102 0 152.5 36t48.5 91q-1 46 -40.5 73t-98.5 28t-128 -17l56 220q-108 1 -210.5 28.5t-196 85.5t-163.5 140t-111.5 201.5 t-41.5 260.5q0 146 42 271.5t113.5 213.5t165.5 150.5t198 92.5t212 30q228 0 399 -100v-21q-180 101 -399 101q-105 0 -206.5 -29t-193 -90.5t-161 -147t-110 -207.5t-40.5 -264q0 -139 41 -255t110 -196.5t161.5 -136.5t193.5 -82t207 -26q234 0 418 102z" />
<glyph unicode="&#xc8;" horiz-adv-x="1298" d="M221 1434h924v-21h-903v-682h841v-20h-841v-691h923v-20h-944v1434zM733 1597h-26l-179 267h27z" />
<glyph unicode="&#xc9;" horiz-adv-x="1298" d="M221 1434h924v-21h-903v-682h841v-20h-841v-691h923v-20h-944v1434zM647 1597h-26l178 267h26z" />
<glyph unicode="&#xca;" horiz-adv-x="1298" d="M221 1434h924v-21h-903v-682h841v-20h-841v-691h923v-20h-944v1434zM674 1843h16l256 -246h-26l-238 228l-238 -228h-26z" />
<glyph unicode="&#xcb;" horiz-adv-x="1298" d="M221 1434h924v-21h-903v-682h841v-20h-841v-691h923v-20h-944v1434zM918 1710q0 -12 -9 -21.5t-22 -9.5q-12 0 -21.5 9.5t-9.5 21.5t9.5 21.5t21.5 9.5q13 0 22 -9.5t9 -21.5zM508 1710q0 -12 -9 -21.5t-22 -9.5q-12 0 -21.5 9.5t-9.5 21.5t9.5 21.5t21.5 9.5 q13 0 22 -9.5t9 -21.5z" />
<glyph unicode="&#xcc;" horiz-adv-x="462" d="M221 1434h21v-1434h-21v1434zM283 1597h-27l-178 267h26z" />
<glyph unicode="&#xcd;" horiz-adv-x="462" d="M221 1434h21v-1434h-21v1434zM197 1597h-27l178 267h27z" />
<glyph unicode="&#xce;" horiz-adv-x="462" d="M221 1434h21v-1434h-21v1434zM223 1843h17l256 -246h-27l-238 228l-237 -228h-27z" />
<glyph unicode="&#xcf;" horiz-adv-x="462" d="M221 1434h21v-1434h-21v1434zM467 1710q0 -12 -9 -21.5t-22 -9.5q-12 0 -21 9.5t-9 21.5t9 21.5t21 9.5q13 0 22 -9.5t9 -21.5zM57 1710q0 -12 -8.5 -21.5t-21.5 -9.5q-12 0 -21.5 9.5t-9.5 21.5t9.5 21.5t21.5 9.5q13 0 21.5 -9.5t8.5 -21.5z" />
<glyph unicode="&#xd0;" horiz-adv-x="1490" d="M221 1434h391q152 0 278 -35t215.5 -98.5t150.5 -153t90.5 -197.5t29.5 -233t-29.5 -233t-90.5 -197.5t-150.5 -153t-215.5 -98.5t-278 -35h-391v707h-164v20h164v707zM242 20h370q185 0 329 52t233.5 146.5t135.5 220t46 278.5t-46 278.5t-135.5 219.5t-233.5 146 t-329 52h-370v-686h512v-20h-512v-687z" />
<glyph unicode="&#xd1;" horiz-adv-x="1568" d="M242 0h-21v1434h15l1091 -1393v123v1270h21v-1434h-15l-1091 1395v-123v-1272zM1067 1759q6 -57 -20.5 -94t-83.5 -37q-35 0 -85.5 19t-93.5 42.5t-92.5 42.5t-83.5 19q-44 0 -67 -31t-17 -82h-20q-8 56 21 95t83 39q52 0 178 -61.5t177 -61.5q46 0 67.5 29t16.5 81h20z " />
<glyph unicode="&#xd2;" horiz-adv-x="1691" d="M109 717q0 107 28.5 211t89 199.5t146 168t208 115.5t265.5 43t265.5 -43t208 -115.5t146 -168t89 -199.5t28.5 -211t-28.5 -211t-89 -199.5t-146 -168t-208 -115.5t-265.5 -43t-265.5 43t-208 115.5t-146 168t-89 199.5t-28.5 211zM1563 717q0 105 -28 206.5t-87 194 t-142 163t-202 112t-258 41.5t-258 -41.5t-202 -112t-142 -163t-87 -194t-28 -206.5t28 -206.5t87 -194t142 -163t202 -112t258 -41.5t258 41.5t202 112t142 163t87 194t28 206.5zM897 1597h-27l-178 267h27z" />
<glyph unicode="&#xd3;" horiz-adv-x="1691" d="M109 717q0 107 28.5 211t89 199.5t146 168t208 115.5t265.5 43t265.5 -43t208 -115.5t146 -168t89 -199.5t28.5 -211t-28.5 -211t-89 -199.5t-146 -168t-208 -115.5t-265.5 -43t-265.5 43t-208 115.5t-146 168t-89 199.5t-28.5 211zM1563 717q0 105 -28 206.5t-87 194 t-142 163t-202 112t-258 41.5t-258 -41.5t-202 -112t-142 -163t-87 -194t-28 -206.5t28 -206.5t87 -194t142 -163t202 -112t258 -41.5t258 41.5t202 112t142 163t87 194t28 206.5zM811 1597h-27l179 267h26z" />
<glyph unicode="&#xd4;" horiz-adv-x="1691" d="M109 717q0 107 28.5 211t89 199.5t146 168t208 115.5t265.5 43t265.5 -43t208 -115.5t146 -168t89 -199.5t28.5 -211t-28.5 -211t-89 -199.5t-146 -168t-208 -115.5t-265.5 -43t-265.5 43t-208 115.5t-146 168t-89 199.5t-28.5 211zM1563 717q0 105 -28 206.5t-87 194 t-142 163t-202 112t-258 41.5t-258 -41.5t-202 -112t-142 -163t-87 -194t-28 -206.5t28 -206.5t87 -194t142 -163t202 -112t258 -41.5t258 41.5t202 112t142 163t87 194t28 206.5zM838 1843h16l256 -246h-27l-237 228l-238 -228h-26z" />
<glyph unicode="&#xd5;" horiz-adv-x="1691" d="M109 717q0 107 28.5 211t89 199.5t146 168t208 115.5t265.5 43t265.5 -43t208 -115.5t146 -168t89 -199.5t28.5 -211t-28.5 -211t-89 -199.5t-146 -168t-208 -115.5t-265.5 -43t-265.5 43t-208 115.5t-146 168t-89 199.5t-28.5 211zM1563 717q0 105 -28 206.5t-87 194 t-142 163t-202 112t-258 41.5t-258 -41.5t-202 -112t-142 -163t-87 -194t-28 -206.5t28 -206.5t87 -194t142 -163t202 -112t258 -41.5t258 41.5t202 112t142 163t87 194t28 206.5zM1128 1759q6 -57 -20.5 -94t-83.5 -37q-44 0 -111.5 31t-134 61.5t-108.5 30.5 q-44 0 -67 -31t-17 -82h-21q-8 55 21.5 94.5t83.5 39.5q52 0 177.5 -61.5t176.5 -61.5q46 0 67.5 29t16.5 81h20z" />
<glyph unicode="&#xd6;" horiz-adv-x="1691" d="M109 717q0 107 28.5 211t89 199.5t146 168t208 115.5t265.5 43t265.5 -43t208 -115.5t146 -168t89 -199.5t28.5 -211t-28.5 -211t-89 -199.5t-146 -168t-208 -115.5t-265.5 -43t-265.5 43t-208 115.5t-146 168t-89 199.5t-28.5 211zM1563 717q0 105 -28 206.5t-87 194 t-142 163t-202 112t-258 41.5t-258 -41.5t-202 -112t-142 -163t-87 -194t-28 -206.5t28 -206.5t87 -194t142 -163t202 -112t258 -41.5t258 41.5t202 112t142 163t87 194t28 206.5zM1081 1710q0 -12 -8.5 -21.5t-21.5 -9.5q-12 0 -21.5 9.5t-9.5 21.5t9.5 21.5t21.5 9.5 q13 0 21.5 -9.5t8.5 -21.5zM672 1710q0 -12 -9 -21.5t-22 -9.5q-12 0 -21.5 9.5t-9.5 21.5t9.5 21.5t21.5 9.5q13 0 22 -9.5t9 -21.5z" />
<glyph unicode="&#xd7;" horiz-adv-x="890" d="M446 702l-280 -280l-14 16l278 279l-278 278l14 17l280 -279l279 279l14 -17l-278 -278l278 -279l-14 -16z" />
<glyph unicode="&#xd8;" horiz-adv-x="1691" d="M1464 1532l-161 -223q135 -106 207.5 -264.5t72.5 -327.5q0 -107 -28.5 -211t-89 -199.5t-146 -168t-208 -115.5t-265.5 -43q-242 0 -422 120l-145 -198h-25l154 211q-145 103 -222 266t-77 338q0 107 28.5 211t89 199.5t146 168t208 115.5t265.5 43q253 0 440 -133 l154 211h24zM846 1434q-139 0 -258 -41.5t-202 -112t-142 -163t-87 -194t-28 -206.5q0 -171 75 -330t216 -258l854 1176q-179 129 -428 129zM436 117q172 -117 410 -117q139 0 258 41.5t202 112t142 163t87 194t28 206.5q0 166 -70.5 320t-202.5 255z" />
<glyph unicode="&#xd9;" horiz-adv-x="1531" d="M1309 1434h20v-949q0 -137 -42.5 -237t-120.5 -157.5t-176.5 -84t-223.5 -26.5t-223.5 26.5t-176.5 84t-120.5 157.5t-42.5 237v949h20v-949q0 -132 40.5 -228t115.5 -151t170.5 -80.5t216.5 -25.5t216.5 25.5t170.5 80.5t115.5 151t40.5 228v949zM827 1597h-26l-178 267 h26z" />
<glyph unicode="&#xda;" horiz-adv-x="1531" d="M1309 1434h20v-949q0 -137 -42.5 -237t-120.5 -157.5t-176.5 -84t-223.5 -26.5t-223.5 26.5t-176.5 84t-120.5 157.5t-42.5 237v949h20v-949q0 -132 40.5 -228t115.5 -151t170.5 -80.5t216.5 -25.5t216.5 25.5t170.5 80.5t115.5 151t40.5 228v949zM741 1597h-26l178 267 h27z" />
<glyph unicode="&#xdb;" horiz-adv-x="1531" d="M1309 1434h20v-949q0 -137 -42.5 -237t-120.5 -157.5t-176.5 -84t-223.5 -26.5t-223.5 26.5t-176.5 84t-120.5 157.5t-42.5 237v949h20v-949q0 -132 40.5 -228t115.5 -151t170.5 -80.5t216.5 -25.5t216.5 25.5t170.5 80.5t115.5 151t40.5 228v949zM768 1843h16l256 -246 h-26l-238 228l-237 -228h-27z" />
<glyph unicode="&#xdc;" horiz-adv-x="1531" d="M1309 1434h20v-949q0 -137 -42.5 -237t-120.5 -157.5t-176.5 -84t-223.5 -26.5t-223.5 26.5t-176.5 84t-120.5 157.5t-42.5 237v949h20v-949q0 -132 40.5 -228t115.5 -151t170.5 -80.5t216.5 -25.5t216.5 25.5t170.5 80.5t115.5 151t40.5 228v949zM1012 1710 q0 -12 -9 -21.5t-22 -9.5q-12 0 -21.5 9.5t-9.5 21.5t9.5 21.5t21.5 9.5q13 0 22 -9.5t9 -21.5zM602 1710q0 -12 -9 -21.5t-22 -9.5q-12 0 -21 9.5t-9 21.5t9 21.5t21 9.5q13 0 22 -9.5t9 -21.5z" />
<glyph unicode="&#xdd;" horiz-adv-x="1261" d="M641 0h-20v592l-566 842h25l551 -820l551 820h24l-565 -842v-592zM598 1597h-27l179 267h26z" />
<glyph unicode="&#xde;" horiz-adv-x="1325" d="M242 1157h413q82 0 153 -9t139.5 -28.5t122 -53.5t94.5 -81.5t63 -115.5t22 -152q0 -100 -32 -177.5t-86 -126.5t-132 -80.5t-161.5 -44t-182.5 -12.5h-413v-276h-21v1434h21v-277zM242 297h413q574 0 574 420t-574 420h-413v-840z" />
<glyph unicode="&#xdf;" horiz-adv-x="1200" d="M1118 309q0 -110 -58.5 -186t-150 -109.5t-207.5 -33.5q-163 0 -270 69v21q114 -70 270 -70q112 0 199 31.5t142 103t55 174.5q0 59 -24.5 114t-61 95t-79.5 81.5t-79.5 74.5t-61 71.5t-24.5 75.5t17.5 70t42 60t49 55.5t42 69.5t17.5 89q0 102 -92 185.5t-244 83.5 q-178 0 -290.5 -106t-112.5 -292v-1036h-21v1036q0 194 118.5 306t305.5 112q81 0 149.5 -25.5t112.5 -67t69 -92.5t25 -104q0 -51 -17.5 -93.5t-42 -71.5t-49 -55.5t-42 -57.5t-17.5 -66q0 -33 24.5 -69.5t61 -68.5t79.5 -74t79.5 -83.5t61 -98.5t24.5 -118z" />
<glyph unicode="&#xe0;" horiz-adv-x="1099" d="M899 127q0 -56 32 -81.5t81 -25.5q38 0 75 15v-21q-40 -14 -75 -14q-56 0 -94.5 31t-38.5 96v121q-66 -126 -192 -197t-271 -71q-64 0 -122 17t-105.5 50t-76 87t-28.5 122q0 80 35 140t95 94.5t132 51.5t154 17q188 0 379 -67v124q0 170 -96.5 268.5t-278.5 98.5 q-184 0 -344 -57v20q159 58 344 58q190 0 292.5 -104.5t102.5 -283.5v-489zM104 256q0 -63 26.5 -113t70.5 -80.5t99 -46.5t116 -16q146 0 272 74.5t191 212.5v182q-196 70 -379 70q-78 0 -146.5 -15.5t-125.5 -47.5t-90.5 -88.5t-33.5 -131.5zM567 1147h-26l-179 266h27z " />
<glyph unicode="&#xe1;" horiz-adv-x="1099" d="M899 127q0 -56 32 -81.5t81 -25.5q38 0 75 15v-21q-40 -14 -75 -14q-56 0 -94.5 31t-38.5 96v121q-66 -126 -192 -197t-271 -71q-64 0 -122 17t-105.5 50t-76 87t-28.5 122q0 80 35 140t95 94.5t132 51.5t154 17q188 0 379 -67v124q0 170 -96.5 268.5t-278.5 98.5 q-184 0 -344 -57v20q159 58 344 58q190 0 292.5 -104.5t102.5 -283.5v-489zM104 256q0 -63 26.5 -113t70.5 -80.5t99 -46.5t116 -16q146 0 272 74.5t191 212.5v182q-196 70 -379 70q-78 0 -146.5 -15.5t-125.5 -47.5t-90.5 -88.5t-33.5 -131.5zM481 1147h-26l178 266h26z " />
<glyph unicode="&#xe2;" horiz-adv-x="1099" d="M899 127q0 -56 32 -81.5t81 -25.5q38 0 75 15v-21q-40 -14 -75 -14q-56 0 -94.5 31t-38.5 96v121q-66 -126 -192 -197t-271 -71q-64 0 -122 17t-105.5 50t-76 87t-28.5 122q0 80 35 140t95 94.5t132 51.5t154 17q188 0 379 -67v124q0 170 -96.5 268.5t-278.5 98.5 q-184 0 -344 -57v20q159 58 344 58q190 0 292.5 -104.5t102.5 -283.5v-489zM104 256q0 -63 26.5 -113t70.5 -80.5t99 -46.5t116 -16q146 0 272 74.5t191 212.5v182q-196 70 -379 70q-78 0 -146.5 -15.5t-125.5 -47.5t-90.5 -88.5t-33.5 -131.5zM508 1393h16l256 -246h-26 l-238 227l-237 -227h-27z" />
<glyph unicode="&#xe3;" horiz-adv-x="1099" d="M899 127q0 -56 32 -81.5t81 -25.5q38 0 75 15v-21q-40 -14 -75 -14q-56 0 -94.5 31t-38.5 96v121q-66 -126 -192 -197t-271 -71q-64 0 -122 17t-105.5 50t-76 87t-28.5 122q0 80 35 140t95 94.5t132 51.5t154 17q188 0 379 -67v124q0 170 -96.5 268.5t-278.5 98.5 q-184 0 -344 -57v20q159 58 344 58q190 0 292.5 -104.5t102.5 -283.5v-489zM104 256q0 -63 26.5 -113t70.5 -80.5t99 -46.5t116 -16q146 0 272 74.5t191 212.5v182q-196 70 -379 70q-78 0 -146.5 -15.5t-125.5 -47.5t-90.5 -88.5t-33.5 -131.5zM799 1309q6 -57 -20.5 -94 t-84.5 -37q-44 0 -111.5 30.5t-134 61t-108.5 30.5q-44 0 -67 -30.5t-17 -81.5h-20q-8 55 21 94t83 39q52 0 177.5 -61.5t176.5 -61.5q46 0 67.5 29.5t16.5 81.5h21z" />
<glyph unicode="&#xe4;" horiz-adv-x="1099" d="M899 127q0 -56 32 -81.5t81 -25.5q38 0 75 15v-21q-40 -14 -75 -14q-56 0 -94.5 31t-38.5 96v121q-66 -126 -192 -197t-271 -71q-64 0 -122 17t-105.5 50t-76 87t-28.5 122q0 80 35 140t95 94.5t132 51.5t154 17q188 0 379 -67v124q0 170 -96.5 268.5t-278.5 98.5 q-184 0 -344 -57v20q159 58 344 58q190 0 292.5 -104.5t102.5 -283.5v-489zM104 256q0 -63 26.5 -113t70.5 -80.5t99 -46.5t116 -16q146 0 272 74.5t191 212.5v182q-196 70 -379 70q-78 0 -146.5 -15.5t-125.5 -47.5t-90.5 -88.5t-33.5 -131.5zM752 1260q0 -12 -9 -21.5 t-22 -9.5q-12 0 -21.5 9.5t-9.5 21.5t9.5 21t21.5 9q13 0 22 -9t9 -21zM342 1260q0 -12 -9 -21.5t-22 -9.5q-12 0 -21 9.5t-9 21.5t9 21t21 9q13 0 22 -9t9 -21z" />
<glyph unicode="&#xe5;" horiz-adv-x="1099" d="M899 127q0 -56 32 -81.5t81 -25.5q38 0 75 15v-21q-40 -14 -75 -14q-56 0 -94.5 31t-38.5 96v121q-66 -126 -192 -197t-271 -71q-64 0 -122 17t-105.5 50t-76 87t-28.5 122q0 80 35 140t95 94.5t132 51.5t154 17q188 0 379 -67v124q0 170 -96.5 268.5t-278.5 98.5 q-184 0 -344 -57v20q159 58 344 58q190 0 292.5 -104.5t102.5 -283.5v-489zM104 256q0 -63 26.5 -113t70.5 -80.5t99 -46.5t116 -16q146 0 272 74.5t191 212.5v182q-196 70 -379 70q-78 0 -146.5 -15.5t-125.5 -47.5t-90.5 -88.5t-33.5 -131.5zM674 1262q0 -67 -47 -110.5 t-111 -43.5t-111 43.5t-47 110.5t47 110t111 43t111 -43t47 -110zM379 1262q0 -59 41 -96.5t96 -37.5t96 37.5t41 96.5t-41 96t-96 37t-96 -37t-41 -96z" />
<glyph unicode="&#xe6;" horiz-adv-x="1851" d="M924 256q-85 -132 -220.5 -204t-287.5 -72q-64 0 -122 17t-105.5 50t-76 87t-28.5 122q0 80 35 140t95 94.5t132 51.5t154 17q191 0 381 -70v127q0 167 -95 267t-282 100q-184 0 -344 -57v20q159 58 344 58q187 0 288 -97t109 -264q26 112 95.5 195.5t160 124.5t189.5 41 q80 0 147.5 -23.5t112.5 -63.5t79 -93.5t48.5 -113.5t20 -123.5t-6.5 -123.5h-846q2 -95 30.5 -173t76 -131t110 -89.5t131.5 -53t142 -16.5q72 0 154 20t143 56v-21q-61 -36 -142.5 -55.5t-154.5 -19.5q-150 0 -278 69.5t-189 206.5zM104 256q0 -63 26.5 -113t70.5 -80.5 t99 -46.5t116 -16q147 0 279.5 71t219.5 205q-31 76 -34 193q-196 70 -381 70q-78 0 -146.5 -15.5t-125.5 -47.5t-90.5 -88.5t-33.5 -131.5zM1346 983q-86 0 -165 -32.5t-141 -93.5t-100 -158t-39 -216h830q8 72 -0.5 141.5t-36.5 135t-73 115t-116 79t-159 29.5z" />
<glyph unicode="&#xe7;" horiz-adv-x="1013" d="M926 78v-21q-133 -74 -314 -77l-49 -195q63 14 120.5 10t98 -36t41.5 -83q2 -65 -55 -106t-166 -41q-116 0 -201 47v21q86 -48 201 -48q102 0 152.5 36t48.5 91q-1 46 -40.5 73t-98 28t-127.5 -17l55 220q-96 2 -181.5 33t-155 90.5t-110.5 157t-41 220.5 q0 107 30.5 195.5t81.5 148.5t119.5 101t143 59.5t152.5 18.5q166 0 284 -80v-21q-59 39 -135 59.5t-149 20.5q-96 0 -184 -30t-161.5 -88.5t-117 -157.5t-43.5 -226q0 -119 40 -213.5t107.5 -151.5t151.5 -86.5t178 -29.5q183 0 324 78z" />
<glyph unicode="&#xe8;" horiz-adv-x="1116" d="M104 492q0 118 39.5 216.5t106.5 162t152.5 98.5t179.5 35q74 0 138 -18t110 -49t83 -73t57.5 -90t35 -100t14 -102.5t-5.5 -98.5h-889q2 -122 45 -215t115.5 -148t161 -82.5t190.5 -27.5q187 0 317 76v-21q-129 -75 -317 -75q-107 0 -200.5 30t-169 89.5t-119.5 160.5 t-44 232zM997 494q6 66 -3.5 132.5t-39 131.5t-77 114.5t-123.5 80t-172 30.5q-90 0 -171.5 -32.5t-145 -92.5t-101.5 -154.5t-39 -209.5h872zM629 1147h-27l-178 266h27z" />
<glyph unicode="&#xe9;" horiz-adv-x="1116" d="M104 492q0 118 39.5 216.5t106.5 162t152.5 98.5t179.5 35q74 0 138 -18t110 -49t83 -73t57.5 -90t35 -100t14 -102.5t-5.5 -98.5h-889q2 -122 45 -215t115.5 -148t161 -82.5t190.5 -27.5q187 0 317 76v-21q-129 -75 -317 -75q-107 0 -200.5 30t-169 89.5t-119.5 160.5 t-44 232zM997 494q6 66 -3.5 132.5t-39 131.5t-77 114.5t-123.5 80t-172 30.5q-90 0 -171.5 -32.5t-145 -92.5t-101.5 -154.5t-39 -209.5h872zM543 1147h-27l178 266h27z" />
<glyph unicode="&#xea;" horiz-adv-x="1116" d="M104 492q0 118 39.5 216.5t106.5 162t152.5 98.5t179.5 35q74 0 138 -18t110 -49t83 -73t57.5 -90t35 -100t14 -102.5t-5.5 -98.5h-889q2 -122 45 -215t115.5 -148t161 -82.5t190.5 -27.5q187 0 317 76v-21q-129 -75 -317 -75q-107 0 -200.5 30t-169 89.5t-119.5 160.5 t-44 232zM997 494q6 66 -3.5 132.5t-39 131.5t-77 114.5t-123.5 80t-172 30.5q-90 0 -171.5 -32.5t-145 -92.5t-101.5 -154.5t-39 -209.5h872zM569 1393h17l256 -246h-27l-237 227l-238 -227h-27z" />
<glyph unicode="&#xeb;" horiz-adv-x="1116" d="M104 492q0 118 39.5 216.5t106.5 162t152.5 98.5t179.5 35q74 0 138 -18t110 -49t83 -73t57.5 -90t35 -100t14 -102.5t-5.5 -98.5h-889q2 -122 45 -215t115.5 -148t161 -82.5t190.5 -27.5q187 0 317 76v-21q-129 -75 -317 -75q-107 0 -200.5 30t-169 89.5t-119.5 160.5 t-44 232zM997 494q6 66 -3.5 132.5t-39 131.5t-77 114.5t-123.5 80t-172 30.5q-90 0 -171.5 -32.5t-145 -92.5t-101.5 -154.5t-39 -209.5h872zM813 1260q0 -12 -9 -21.5t-22 -9.5q-12 0 -21 9.5t-9 21.5t9 21t21 9q13 0 22 -9t9 -21zM403 1260q0 -12 -8.5 -21.5t-21.5 -9.5 q-12 0 -21.5 9.5t-9.5 21.5t9.5 21t21.5 9q13 0 21.5 -9t8.5 -21z" />
<glyph unicode="&#xec;" horiz-adv-x="389" d="M205 0h-21v983h21v-983zM270 1147h-22l-178 266h22z" />
<glyph unicode="&#xed;" horiz-adv-x="389" d="M184 983h21v-983h-21v983zM160 1147h-27l178 266h27z" />
<glyph unicode="&#xee;" horiz-adv-x="389" d="M186 1372h17l194 -225h-24l-178 207l-179 -207h-24zM184 983h21v-983h-21v983z" />
<glyph unicode="&#xef;" horiz-adv-x="389" d="M369 1260q0 -12 -9 -21.5t-22 -9.5q-12 0 -21.5 9.5t-9.5 21.5t9.5 21t21.5 9q13 0 22 -9t9 -21zM82 1260q0 -12 -9 -21.5t-22 -9.5q-12 0 -21.5 9.5t-9.5 21.5t9.5 21t21.5 9q13 0 22 -9t9 -21zM184 983h21v-983h-21v983z" />
<glyph unicode="&#xf0;" horiz-adv-x="1220" d="M1098 543q0 -253 -137.5 -408t-364.5 -155q-217 0 -354.5 131.5t-137.5 349.5q0 100 39 187t104.5 146.5t153 93.5t183.5 34q83 0 162.5 -26t148.5 -77t117.5 -135.5t62.5 -191.5q2 16 2 51q0 144 -30.5 266.5t-80 208t-120 154t-142 110.5t-153.5 72l-258 -258l-14 14 l249 250q-156 53 -321 53v21q169 0 338 -58l172 172l14 -14l-166 -166q84 -31 157 -74.5t144 -113.5t121 -157.5t80.5 -211t30.5 -268.5zM125 461q0 -210 132 -335.5t339 -125.5q184 0 308.5 109t160.5 297q-2 124 -45 221.5t-113 155.5t-152.5 88t-170.5 30 q-123 0 -227.5 -54t-168 -156t-63.5 -230z" />
<glyph unicode="&#xf1;" d="M197 743q28 45 65.5 86.5t91 83t126 66.5t151.5 25q162 0 268.5 -107.5t106.5 -292.5v-604h-21v604q0 176 -100 277.5t-254 101.5q-80 0 -152 -25.5t-125 -68t-91.5 -89.5t-65.5 -98v-702h-21v983h21v-240zM858 1309q6 -57 -20.5 -94t-83.5 -37q-54 0 -179 61t-176 61 q-44 0 -67 -30.5t-17 -81.5h-20q-8 55 21 94t83 39q52 0 178 -61.5t177 -61.5q46 0 67.5 29.5t16.5 81.5h20z" />
<glyph unicode="&#xf2;" horiz-adv-x="1212" d="M104 492q0 119 41 217t111 161.5t160 98.5t190 35t190 -35t160 -98.5t111 -161.5t41 -217t-41 -217t-111 -161.5t-160 -98.5t-190 -35t-190 35t-160 98.5t-111 161.5t-41 217zM1087 492q0 114 -39.5 208t-106 155t-153 94.5t-182.5 33.5t-182.5 -33.5t-153 -94.5 t-106 -155t-39.5 -208q0 -151 68 -265t176 -170.5t237 -56.5t237 56.5t176 170.5t68 265zM657 1126h-26l-178 267h26z" />
<glyph unicode="&#xf3;" horiz-adv-x="1212" d="M104 492q0 119 41 217t111 161.5t160 98.5t190 35t190 -35t160 -98.5t111 -161.5t41 -217t-41 -217t-111 -161.5t-160 -98.5t-190 -35t-190 35t-160 98.5t-111 161.5t-41 217zM1087 492q0 114 -39.5 208t-106 155t-153 94.5t-182.5 33.5t-182.5 -33.5t-153 -94.5 t-106 -155t-39.5 -208q0 -151 68 -265t176 -170.5t237 -56.5t237 56.5t176 170.5t68 265zM571 1126h-26l178 267h27z" />
<glyph unicode="&#xf4;" horiz-adv-x="1212" d="M104 492q0 119 41 217t111 161.5t160 98.5t190 35t190 -35t160 -98.5t111 -161.5t41 -217t-41 -217t-111 -161.5t-160 -98.5t-190 -35t-190 35t-160 98.5t-111 161.5t-41 217zM1087 492q0 114 -39.5 208t-106 155t-153 94.5t-182.5 33.5t-182.5 -33.5t-153 -94.5 t-106 -155t-39.5 -208q0 -151 68 -265t176 -170.5t237 -56.5t237 56.5t176 170.5t68 265zM598 1372h16l256 -246h-26l-238 228l-237 -228h-27z" />
<glyph unicode="&#xf5;" horiz-adv-x="1212" d="M104 492q0 119 41 217t111 161.5t160 98.5t190 35t190 -35t160 -98.5t111 -161.5t41 -217t-41 -217t-111 -161.5t-160 -98.5t-190 -35t-190 35t-160 98.5t-111 161.5t-41 217zM1087 492q0 114 -39.5 208t-106 155t-153 94.5t-182.5 33.5t-182.5 -33.5t-153 -94.5 t-106 -155t-39.5 -208q0 -151 68 -265t176 -170.5t237 -56.5t237 56.5t176 170.5t68 265zM889 1288q6 -57 -20.5 -94t-84.5 -37q-35 0 -85.5 19t-93 42.5t-92 42.5t-83.5 19q-44 0 -67 -31t-17 -82h-20q-8 55 21 94t83 39q52 0 177.5 -61t176.5 -61q46 0 67.5 29t16.5 81h21 z" />
<glyph unicode="&#xf6;" horiz-adv-x="1212" d="M104 492q0 119 41 217t111 161.5t160 98.5t190 35t190 -35t160 -98.5t111 -161.5t41 -217t-41 -217t-111 -161.5t-160 -98.5t-190 -35t-190 35t-160 98.5t-111 161.5t-41 217zM1087 492q0 114 -39.5 208t-106 155t-153 94.5t-182.5 33.5t-182.5 -33.5t-153 -94.5 t-106 -155t-39.5 -208q0 -151 68 -265t176 -170.5t237 -56.5t237 56.5t176 170.5t68 265zM842 1239q0 -12 -9 -21.5t-22 -9.5q-12 0 -21.5 9.5t-9.5 21.5t9.5 21.5t21.5 9.5q13 0 22 -9.5t9 -21.5zM432 1239q0 -12 -9 -21.5t-22 -9.5q-12 0 -21 9.5t-9 21.5t9 21.5t21 9.5 q13 0 22 -9.5t9 -21.5z" />
<glyph unicode="&#xf7;" horiz-adv-x="1323" d="M1153 707h-983v20h983v-20zM692 256q0 -12 -8.5 -21.5t-21.5 -9.5q-12 0 -21.5 9.5t-9.5 21.5t9.5 21.5t21.5 9.5q13 0 21.5 -9.5t8.5 -21.5zM692 1171q0 -12 -8.5 -21t-21.5 -9q-12 0 -21.5 9t-9.5 21t9.5 21.5t21.5 9.5q13 0 21.5 -9.5t8.5 -21.5z" />
<glyph unicode="&#xf8;" horiz-adv-x="1212" d="M1006 1112l-119 -188q102 -66 161.5 -176t59.5 -256q0 -119 -41 -217t-111 -161.5t-160 -98.5t-190 -35q-151 0 -270 73l-107 -170h-22l112 180q-99 66 -157 175.5t-58 253.5q0 119 41 217t111 161.5t160 98.5t190 35q143 0 264 -70l113 178h23zM606 983 q-96 0 -182.5 -33.5t-153 -94.5t-106 -155t-39.5 -208q0 -138 55.5 -243t151.5 -169l528 838q-115 65 -254 65zM348 70q118 -70 258 -70q129 0 237 56.5t176 170.5t68 265q0 140 -56 245.5t-154 169.5z" />
<glyph unicode="&#xf9;" d="M971 983h20v-983h-20v240q-28 -45 -65.5 -86.5t-91 -82.5t-126 -66t-151.5 -25q-162 0 -268.5 107t-106.5 292v604h20v-604q0 -176 100.5 -277.5t254.5 -101.5q80 0 152 25.5t125 68t91.5 89.5t65.5 98v702zM645 1147h-27l-178 266h27z" />
<glyph unicode="&#xfa;" d="M971 983h20v-983h-20v240q-28 -45 -65.5 -86.5t-91 -82.5t-126 -66t-151.5 -25q-162 0 -268.5 107t-106.5 292v604h20v-604q0 -176 100.5 -277.5t254.5 -101.5q80 0 152 25.5t125 68t91.5 89.5t65.5 98v702zM559 1147h-27l179 266h26z" />
<glyph unicode="&#xfb;" d="M971 983h20v-983h-20v240q-28 -45 -65.5 -86.5t-91 -82.5t-126 -66t-151.5 -25q-162 0 -268.5 107t-106.5 292v604h20v-604q0 -176 100.5 -277.5t254.5 -101.5q80 0 152 25.5t125 68t91.5 89.5t65.5 98v702zM586 1393h16l256 -246h-27l-237 227l-238 -227h-26z" />
<glyph unicode="&#xfc;" d="M971 983h20v-983h-20v240q-28 -45 -65.5 -86.5t-91 -82.5t-126 -66t-151.5 -25q-162 0 -268.5 107t-106.5 292v604h20v-604q0 -176 100.5 -277.5t254.5 -101.5q80 0 152 25.5t125 68t91.5 89.5t65.5 98v702zM829 1260q0 -12 -8.5 -21.5t-21.5 -9.5q-12 0 -21.5 9.5 t-9.5 21.5t9.5 21t21.5 9q13 0 21.5 -9t8.5 -21zM420 1260q0 -12 -9 -21.5t-22 -9.5q-12 0 -21.5 9.5t-9.5 21.5t9.5 21t21.5 9q13 0 22 -9t9 -21z" />
<glyph unicode="&#xfd;" horiz-adv-x="1081" d="M569 18l439 965h22l-530 -1171q-70 -155 -144 -219t-172 -64q-46 0 -98 12v23q66 -15 98 -15q94 0 164 65.5t135 211.5l76 170l-520 987h22zM494 1147h-27l178 266h27z" />
<glyph unicode="&#xfe;" horiz-adv-x="1251" d="M176 1434h21v-729q61 132 184.5 215.5t277.5 83.5q214 0 351 -138.5t137 -373.5t-137 -373.5t-351 -138.5q-154 0 -277.5 83.5t-184.5 215.5v-730h-21v1885zM1126 492q0 226 -131 358.5t-336 132.5q-162 0 -287.5 -95t-174.5 -241v-311q49 -146 174.5 -241t287.5 -95 q204 0 335.5 132.5t131.5 359.5z" />
<glyph unicode="&#xff;" horiz-adv-x="1081" d="M569 18l439 965h22l-530 -1171q-70 -155 -144 -219t-172 -64q-46 0 -98 12v23q66 -15 98 -15q94 0 164 65.5t135 211.5l76 170l-520 987h22zM764 1260q0 -12 -9 -21.5t-22 -9.5q-12 0 -21.5 9.5t-9.5 21.5t9.5 21t21.5 9q13 0 22 -9t9 -21zM354 1260q0 -12 -8.5 -21.5 t-21.5 -9.5q-12 0 -21.5 9.5t-9.5 21.5t9.5 21t21.5 9q13 0 21.5 -9t8.5 -21z" />
<glyph unicode="&#x100;" horiz-adv-x="1437" d="M59 0h-22l668 1434h28l668 -1434h-23l-217 465h-885zM707 1389l-422 -904h866l-420 904q-2 4 -6 13t-6 13q-2 -4 -6 -13t-6 -13zM473 1696h492v-21h-492v21z" />
<glyph unicode="&#x101;" horiz-adv-x="1099" d="M899 127q0 -56 32 -81.5t81 -25.5q38 0 75 15v-21q-40 -14 -75 -14q-56 0 -94.5 31t-38.5 96v121q-66 -126 -192 -197t-271 -71q-64 0 -122 17t-105.5 50t-76 87t-28.5 122q0 80 35 140t95 94.5t132 51.5t154 17q188 0 379 -67v124q0 170 -96.5 268.5t-278.5 98.5 q-184 0 -344 -57v20q159 58 344 58q190 0 292.5 -104.5t102.5 -283.5v-489zM104 256q0 -63 26.5 -113t70.5 -80.5t99 -46.5t116 -16q146 0 272 74.5t191 212.5v182q-196 70 -379 70q-78 0 -146.5 -15.5t-125.5 -47.5t-90.5 -88.5t-33.5 -131.5zM270 1245h492v-20h-492v20z " />
<glyph unicode="&#x102;" horiz-adv-x="1437" d="M59 0h-22l668 1434h28l668 -1434h-23l-217 465h-885zM707 1389l-422 -904h866l-420 904q-2 4 -6 13t-6 13q-2 -4 -6 -13t-6 -13zM965 1692q-96 -84 -246 -84t-246 84v26q98 -90 246 -90t246 90v-26z" />
<glyph unicode="&#x103;" horiz-adv-x="1099" d="M899 127q0 -56 32 -81.5t81 -25.5q38 0 75 15v-21q-40 -14 -75 -14q-56 0 -94.5 31t-38.5 96v121q-66 -126 -192 -197t-271 -71q-64 0 -122 17t-105.5 50t-76 87t-28.5 122q0 80 35 140t95 94.5t132 51.5t154 17q188 0 379 -67v124q0 170 -96.5 268.5t-278.5 98.5 q-184 0 -344 -57v20q159 58 344 58q190 0 292.5 -104.5t102.5 -283.5v-489zM104 256q0 -63 26.5 -113t70.5 -80.5t99 -46.5t116 -16q146 0 272 74.5t191 212.5v182q-196 70 -379 70q-78 0 -146.5 -15.5t-125.5 -47.5t-90.5 -88.5t-33.5 -131.5zM762 1241q-96 -84 -246 -84 t-246 84v27q98 -90 246 -90t246 90v-27z" />
<glyph unicode="&#x104;" horiz-adv-x="1437" d="M1137 -317q0 -62 40 -98t111 -36q79 0 156 39v-20q-70 -39 -156 -39q-79 0 -125.5 41.5t-46.5 112.5q0 80 68.5 158.5t191.5 162.5l-215 461h-885l-217 -465h-22l668 1434h28l668 -1434q-120 -83 -192 -161t-72 -156zM707 1389l-422 -904h868l-422 904q-2 4 -6 13t-6 13 q-2 -4 -6 -13t-6 -13z" />
<glyph unicode="&#x105;" horiz-adv-x="1099" d="M416 0q146 0 272 74.5t191 212.5v182q-196 70 -379 70q-78 0 -146.5 -15.5t-125.5 -47.5t-90.5 -88.5t-33.5 -131.5q0 -63 26.5 -113t70.5 -80.5t99 -46.5t116 -16zM1083 -418v-20q-52 -19 -108 -19q-79 0 -125.5 41.5t-46.5 112.5q0 144 235 305q-8 -2 -26 -2 q-56 0 -94.5 31t-38.5 96v121q-66 -126 -192 -197t-271 -71q-64 0 -122 17t-105.5 50t-76 87t-28.5 122q0 80 35 140t95 94.5t132 51.5t154 17q188 0 379 -67v124q0 170 -96.5 268.5t-278.5 98.5q-184 0 -344 -57v20q159 58 344 58q190 0 292.5 -104.5t102.5 -283.5v-489 q0 -56 32 -81.5t81 -25.5q38 0 75 15v-21q-120 -83 -192 -161t-72 -156q0 -62 40 -97.5t112 -35.5q55 0 108 18z" />
<glyph unicode="&#x106;" horiz-adv-x="1351" d="M113 696q0 146 42 271.5t113.5 213.5t165.5 150.5t198 92.5t212 30q228 0 399 -100v-21q-180 101 -399 101q-105 0 -206.5 -29t-193 -90.5t-161 -147t-110 -207.5t-40.5 -264q0 -139 41 -255t110 -196.5t161.5 -136.5t193.5 -82t207 -26q234 0 418 102v-20 q-172 -102 -418 -102q-108 0 -212 26.5t-199 84.5t-166 140t-113.5 202t-42.5 263zM795 1597h-27l178 267h27z" />
<glyph unicode="&#x107;" horiz-adv-x="1013" d="M104 481q0 107 30.5 195.5t81.5 148.5t119.5 101t143 59.5t152.5 18.5q166 0 284 -80v-21q-59 39 -135 59.5t-149 20.5q-96 0 -184 -30t-161.5 -88.5t-117 -157.5t-43.5 -226q0 -119 40 -213.5t107.5 -151.5t151.5 -86.5t178 -29.5q183 0 324 78v-21q-137 -77 -324 -77 q-77 0 -148 18.5t-135 58.5t-111.5 97.5t-75.5 141.5t-28 185zM563 1147h-26l178 266h26z" />
<glyph unicode="&#x10a;" horiz-adv-x="1351" d="M113 696q0 146 42 271.5t113.5 213.5t165.5 150.5t198 92.5t212 30q228 0 399 -100v-21q-180 101 -399 101q-105 0 -206.5 -29t-193 -90.5t-161 -147t-110 -207.5t-40.5 -264q0 -139 41 -255t110 -196.5t161.5 -136.5t193.5 -82t207 -26q234 0 418 102v-20 q-172 -102 -418 -102q-108 0 -212 26.5t-199 84.5t-166 140t-113.5 202t-42.5 263zM788 1669q0 17 12 29t29 12t29 -12t12 -29t-12 -29t-29 -12t-29 12t-12 29z" />
<glyph unicode="&#x10b;" horiz-adv-x="1013" d="M104 481q0 107 30.5 195.5t81.5 148.5t119.5 101t143 59.5t152.5 18.5q166 0 284 -80v-21q-59 39 -135 59.5t-149 20.5q-96 0 -184 -30t-161.5 -88.5t-117 -157.5t-43.5 -226q0 -119 40 -213.5t107.5 -151.5t151.5 -86.5t178 -29.5q183 0 324 78v-21q-137 -77 -324 -77 q-77 0 -148 18.5t-135 58.5t-111.5 97.5t-75.5 141.5t-28 185zM557 1219q0 17 12 29t29 12t29 -12t12 -29t-12 -29t-29 -12t-29 12t-12 29z" />
<glyph unicode="&#x10c;" horiz-adv-x="1351" d="M113 696q0 146 42 271.5t113.5 213.5t165.5 150.5t198 92.5t212 30q228 0 399 -100v-21q-180 101 -399 101q-105 0 -206.5 -29t-193 -90.5t-161 -147t-110 -207.5t-40.5 -264q0 -139 41 -255t110 -196.5t161.5 -136.5t193.5 -82t207 -26q234 0 418 102v-20 q-172 -102 -418 -102q-108 0 -212 26.5t-199 84.5t-166 140t-113.5 202t-42.5 263zM1094 1823l-256 -246h-17l-256 246h27l237 -228l238 228h27z" />
<glyph unicode="&#x10d;" horiz-adv-x="1013" d="M104 481q0 107 30.5 195.5t81.5 148.5t119.5 101t143 59.5t152.5 18.5q166 0 284 -80v-21q-59 39 -135 59.5t-149 20.5q-96 0 -184 -30t-161.5 -88.5t-117 -157.5t-43.5 -226q0 -119 40 -213.5t107.5 -151.5t151.5 -86.5t178 -29.5q183 0 324 78v-21q-137 -77 -324 -77 q-77 0 -148 18.5t-135 58.5t-111.5 97.5t-75.5 141.5t-28 185zM862 1372l-256 -246h-16l-256 246h26l238 -227l238 227h26z" />
<glyph unicode="&#x10e;" horiz-adv-x="1490" d="M221 1434h391q152 0 278 -35t215.5 -98.5t150.5 -153t90.5 -197.5t29.5 -233t-29.5 -233t-90.5 -197.5t-150.5 -153t-215.5 -98.5t-278 -35h-391v1434zM1356 717q0 153 -46 278.5t-135.5 219.5t-233.5 146t-329 52h-370v-1393h370q185 0 329 52t233.5 146.5t135.5 220 t46 278.5zM971 1823l-256 -246h-17l-256 246h27l238 -228l237 228h27z" />
<glyph unicode="&#x10f;" horiz-adv-x="1251" d="M1251 1434h19l-39 -306h-17zM1055 1434h20v-1434h-20v279q-61 -132 -185 -215.5t-278 -83.5q-214 0 -351 138.5t-137 373.5t137 373.5t351 138.5q154 0 278 -83.5t185 -215.5v729zM1055 647q-49 146 -174.5 241t-288.5 95q-100 0 -185.5 -33.5t-148 -95.5t-98 -155 t-35.5 -207q0 -226 131 -359t336 -133q163 0 288.5 95t174.5 241v311z" />
<glyph unicode="&#x110;" horiz-adv-x="1490" d="M221 1434h391q152 0 278 -35t215.5 -98.5t150.5 -153t90.5 -197.5t29.5 -233t-29.5 -233t-90.5 -197.5t-150.5 -153t-215.5 -98.5t-278 -35h-391v707h-164v20h164v707zM242 20h370q185 0 329 52t233.5 146.5t135.5 220t46 278.5t-46 278.5t-135.5 219.5t-233.5 146 t-329 52h-370v-686h512v-20h-512v-687z" />
<glyph unicode="&#x111;" horiz-adv-x="1251" d="M1075 1245h164v-20h-164v-1225h-20v279q-61 -132 -185 -215.5t-278 -83.5q-214 0 -351 138.5t-137 373.5t137 373.5t351 138.5q154 0 278 -83.5t185 -215.5v520h-430v20h430v189h20v-189zM592 0q163 0 288.5 95t174.5 241v311q-49 146 -174.5 241t-288.5 95 q-100 0 -185.5 -33.5t-148 -95.5t-98 -155t-35.5 -207q0 -226 131 -359t336 -133z" />
<glyph unicode="&#x112;" horiz-adv-x="1298" d="M221 1434h924v-21h-903v-682h841v-20h-841v-691h923v-20h-944v1434zM436 1696h492v-21h-492v21z" />
<glyph unicode="&#x113;" horiz-adv-x="1116" d="M104 492q0 118 39.5 216.5t106.5 162t152.5 98.5t179.5 35q74 0 138 -18t110 -49t83 -73t57.5 -90t35 -100t14 -102.5t-5.5 -98.5h-889q2 -122 45 -215t115.5 -148t161 -82.5t190.5 -27.5q187 0 317 76v-21q-129 -75 -317 -75q-107 0 -200.5 30t-169 89.5t-119.5 160.5 t-44 232zM997 494q6 66 -3.5 132.5t-39 131.5t-77 114.5t-123.5 80t-172 30.5q-90 0 -171.5 -32.5t-145 -92.5t-101.5 -154.5t-39 -209.5h872zM332 1245h491v-20h-491v20z" />
<glyph unicode="&#x116;" horiz-adv-x="1298" d="M221 1434h924v-21h-903v-682h841v-20h-841v-691h923v-20h-944v1434zM641 1669q0 17 12 29t29 12t29 -12t12 -29t-12 -29t-29 -12t-29 12t-12 29z" />
<glyph unicode="&#x117;" horiz-adv-x="1116" d="M104 492q0 118 39.5 216.5t106.5 162t152.5 98.5t179.5 35q74 0 138 -18t110 -49t83 -73t57.5 -90t35 -100t14 -102.5t-5.5 -98.5h-889q2 -122 45 -215t115.5 -148t161 -82.5t190.5 -27.5q187 0 317 76v-21q-129 -75 -317 -75q-107 0 -200.5 30t-169 89.5t-119.5 160.5 t-44 232zM997 494q6 66 -3.5 132.5t-39 131.5t-77 114.5t-123.5 80t-172 30.5q-90 0 -171.5 -32.5t-145 -92.5t-101.5 -154.5t-39 -209.5h872zM537 1219q0 17 12 29t29 12t28.5 -12t11.5 -29t-11.5 -29t-28.5 -12t-29 12t-12 29z" />
<glyph unicode="&#x118;" horiz-adv-x="1298" d="M221 1434h924v-21h-903v-682h841v-20h-841v-691h923v-20h-944v1434zM1165 -420v-22q-63 -29 -129 -29q-71 0 -116.5 36.5t-45.5 104.5q0 81 70.5 167.5t190.5 162.5h30q-118 -78 -194 -164t-76 -166q0 -59 39 -90t102 -31q62 0 129 31z" />
<glyph unicode="&#x119;" horiz-adv-x="1116" d="M936 -432q-70 -39 -156 -39q-79 0 -125.5 41.5t-46.5 112.5q0 77 66.5 155.5t204.5 181.5q-99 -40 -242 -40q-107 0 -200.5 30t-169 89.5t-119.5 160.5t-44 232q0 118 39.5 216.5t106.5 162t152.5 98.5t179.5 35q74 0 138 -18t110 -49t83 -73t57.5 -90t35 -100t14 -102.5 t-5.5 -98.5h-889q2 -122 45 -215t115.5 -148t161 -82.5t190.5 -27.5q187 0 317 76v-21q-166 -122 -245.5 -207t-79.5 -165q0 -62 40 -98t111 -36q79 0 156 39v-20zM582 983q-90 0 -171.5 -32.5t-145 -92.5t-101.5 -154.5t-39 -209.5h872q6 66 -3.5 132.5t-39 131.5 t-77 114.5t-123.5 80t-172 30.5z" />
<glyph unicode="&#x11a;" horiz-adv-x="1298" d="M221 1434h924v-21h-903v-682h841v-20h-841v-691h923v-20h-944v1434zM946 1823l-256 -246h-16l-256 246h26l238 -228l238 228h26z" />
<glyph unicode="&#x11b;" horiz-adv-x="1116" d="M104 492q0 118 39.5 216.5t106.5 162t152.5 98.5t179.5 35q74 0 138 -18t110 -49t83 -73t57.5 -90t35 -100t14 -102.5t-5.5 -98.5h-889q2 -122 45 -215t115.5 -148t161 -82.5t190.5 -27.5q187 0 317 76v-21q-129 -75 -317 -75q-107 0 -200.5 30t-169 89.5t-119.5 160.5 t-44 232zM997 494q6 66 -3.5 132.5t-39 131.5t-77 114.5t-123.5 80t-172 30.5q-90 0 -171.5 -32.5t-145 -92.5t-101.5 -154.5t-39 -209.5h872zM842 1372l-256 -246h-17l-256 246h27l238 -227l237 227h27z" />
<glyph unicode="&#x11e;" horiz-adv-x="1452" d="M113 717q0 152 43 277t115 209t169.5 141.5t203.5 83.5t220 26q224 0 410 -94v-21q-86 44 -196 69.5t-214 25.5q-111 0 -214.5 -25t-198 -81t-165 -137.5t-112 -203.5t-41.5 -270q0 -147 42 -268.5t113.5 -203t168 -138t202.5 -82t220 -25.5q222 0 413 90v653h21v-665 q-198 -98 -434 -98q-117 0 -226 26t-208 84t-172 142.5t-116.5 209t-43.5 275.5zM1079 1692q-96 -84 -245 -84q-150 0 -246 84v26q98 -90 246 -90q147 0 245 90v-26z" />
<glyph unicode="&#x11f;" horiz-adv-x="1251" d="M104 492q0 235 137 373.5t351 138.5q154 0 278 -83.5t185 -215.5v278h20v-983q0 -119 -42.5 -212t-115 -148t-162 -83t-190.5 -28q-201 0 -381 94v21q192 -95 381 -95q98 0 184 27t155.5 80t110 141.5t40.5 202.5v279q-61 -132 -185 -215.5t-278 -83.5q-214 0 -351 138.5 t-137 373.5zM1055 647q-49 146 -174.5 241t-288.5 95q-100 0 -185.5 -33.5t-148 -95.5t-98 -155t-35.5 -207q0 -226 131 -359t336 -133q163 0 288.5 95t174.5 241v311zM838 1241q-96 -84 -246 -84t-246 84v27q98 -90 246 -90t246 90v-27z" />
<glyph unicode="&#x120;" horiz-adv-x="1452" d="M113 717q0 152 43 277t115 209t169.5 141.5t203.5 83.5t220 26q224 0 410 -94v-21q-86 44 -196 69.5t-214 25.5q-111 0 -214.5 -25t-198 -81t-165 -137.5t-112 -203.5t-41.5 -270q0 -147 42 -268.5t113.5 -203t168 -138t202.5 -82t220 -25.5q222 0 413 90v653h21v-665 q-198 -98 -434 -98q-117 0 -226 26t-208 84t-172 142.5t-116.5 209t-43.5 275.5zM793 1669q0 17 12 29t29 12t28.5 -12t11.5 -29t-11.5 -29t-28.5 -12t-29 12t-12 29z" />
<glyph unicode="&#x121;" horiz-adv-x="1251" d="M104 492q0 235 137 373.5t351 138.5q154 0 278 -83.5t185 -215.5v278h20v-983q0 -119 -42.5 -212t-115 -148t-162 -83t-190.5 -28q-201 0 -381 94v21q192 -95 381 -95q98 0 184 27t155.5 80t110 141.5t40.5 202.5v279q-61 -132 -185 -215.5t-278 -83.5q-214 0 -351 138.5 t-137 373.5zM1055 647q-49 146 -174.5 241t-288.5 95q-100 0 -185.5 -33.5t-148 -95.5t-98 -155t-35.5 -207q0 -226 131 -359t336 -133q163 0 288.5 95t174.5 241v311zM551 1219q0 17 12 29t29 12t29 -12t12 -29t-12 -29t-29 -12t-29 12t-12 29z" />
<glyph unicode="&#x122;" horiz-adv-x="1452" d="M113 717q0 152 43 277t115 209t169.5 141.5t203.5 83.5t220 26q224 0 410 -94v-21q-86 44 -196 69.5t-214 25.5q-111 0 -214.5 -25t-198 -81t-165 -137.5t-112 -203.5t-41.5 -270q0 -147 42 -268.5t113.5 -203t168 -138t202.5 -82t220 -25.5q222 0 413 90v653h21v-665 q-198 -98 -434 -98q-117 0 -226 26t-208 84t-172 142.5t-116.5 209t-43.5 275.5zM840 -451h-21l39 328h21z" />
<glyph unicode="&#x123;" horiz-adv-x="1251" d="M616 1128h-18l39 306h16zM104 492q0 235 137 373.5t351 138.5q154 0 278 -83.5t185 -215.5v278h20v-983q0 -119 -42.5 -212t-115 -148t-162 -83t-190.5 -28q-201 0 -381 94v21q192 -95 381 -95q98 0 184 27t155.5 80t110 141.5t40.5 202.5v279q-61 -132 -185 -215.5 t-278 -83.5q-214 0 -351 138.5t-137 373.5zM1055 647q-49 146 -174.5 241t-288.5 95q-100 0 -185.5 -33.5t-148 -95.5t-98 -155t-35.5 -207q0 -226 131 -359t336 -133q163 0 288.5 95t174.5 241v311z" />
<glyph unicode="&#x126;" horiz-adv-x="1568" d="M242 0h-21v1075h-164v21h164v338h21v-338h1085v338h21v-338h163v-21h-163v-1075h-21v711h-1085v-711zM242 1075v-344h1085v344h-1085z" />
<glyph unicode="&#x127;" d="M197 743q28 45 65.5 86.5t91 83t126 66.5t151.5 25q162 0 268.5 -107.5t106.5 -292.5v-604h-21v604q0 176 -100 277.5t-254 101.5q-80 0 -152 -25.5t-125 -68t-91.5 -89.5t-65.5 -98v-702h-21v1225h-164v20h164v189h21v-189h430v-20h-430v-482z" />
<glyph unicode="&#x12a;" horiz-adv-x="462" d="M221 1434h21v-1434h-21v1434zM-14 1696h491v-21h-491v21z" />
<glyph unicode="&#x12b;" horiz-adv-x="389" d="M-31 1245h451v-20h-451v20zM184 983h21v-983h-21v983z" />
<glyph unicode="&#x12e;" horiz-adv-x="462" d="M90 -317q0 -62 37 -98t102 -36q77 0 148 39v-20q-64 -39 -148 -39q-73 0 -116 41.5t-43 112.5q0 75 37.5 146.5t113.5 174.5v1430h21v-1434q-84 -117 -109 -163q-43 -83 -43 -154z" />
<glyph unicode="&#x12f;" horiz-adv-x="389" d="M219 1251q0 -11 -7 -17.5t-17 -6.5t-17.5 6.5t-7.5 17.5t7.5 18t17.5 7t17 -7t7 -18zM49 -317q0 -61 39 -97.5t105 -36.5q76 0 147 39v-20q-64 -39 -147 -39q-74 0 -119 42t-45 112q0 150 155 323v977h21v-983q-156 -179 -156 -317z" />
<glyph unicode="&#x130;" horiz-adv-x="462" d="M221 1434h21v-1434h-21v1434zM190 1669q0 17 12 29t29 12t29 -12t12 -29t-12 -29t-29 -12t-29 12t-12 29z" />
<glyph unicode="&#x131;" horiz-adv-x="389" d="M184 983h21v-983h-21v983z" />
<glyph unicode="&#x132;" horiz-adv-x="1531" d="M221 1434h21v-1434h-21v1434zM821 1434h506v-1065q0 -190 -117 -289.5t-309 -99.5q-229 0 -366 88v20q140 -88 366 -88q185 0 295.5 94.5t110.5 274.5v1044h-486v21z" />
<glyph unicode="&#x133;" horiz-adv-x="778" d="M205 0h-21v983h21v-983zM219 1251q0 -11 -7 -17.5t-17 -6.5t-17.5 6.5t-7.5 17.5t7.5 18t17.5 7t17 -7t7 -18zM594 -252q0 -116 -65 -167.5t-162 -51.5q-74 0 -138 22v21q67 -23 138 -23q42 0 76.5 10t65 31.5t47.5 62t17 95.5v1235h21v-1235zM608 1251q0 -11 -7 -17.5 t-17 -6.5t-17.5 6.5t-7.5 17.5t7.5 18t17.5 7t17 -7t7 -18z" />
<glyph unicode="&#x136;" horiz-adv-x="1333" d="M242 0h-21v1434h21v-686h473l520 686h27l-531 -699l590 -735h-27l-583 727h-469v-727zM705 -430h-21l39 328h20z" />
<glyph unicode="&#x137;" horiz-adv-x="987" d="M979 0h-27l-473 502h-282v-502h-21v1434h21v-912h286l408 461h27l-418 -473zM524 -430h-20l39 328h20z" />
<glyph unicode="&#x139;" horiz-adv-x="1177" d="M221 1434h21v-1414h897v-20h-918v1434zM207 1597h-27l178 267h27z" />
<glyph unicode="&#x13a;" horiz-adv-x="389" d="M184 1495h21v-1495h-21v1495zM170 1618h-27l179 266h26z" />
<glyph unicode="&#x13b;" horiz-adv-x="1177" d="M221 1434h21v-1414h897v-20h-918v1434zM647 -430h-20l39 328h20z" />
<glyph unicode="&#x13c;" horiz-adv-x="389" d="M184 1495h21v-1495h-21v1495zM172 -430h-20l38 328h21z" />
<glyph unicode="&#x13d;" horiz-adv-x="1177" d="M768 1434h18l-38 -306h-17zM221 1434h21v-1414h897v-20h-918v1434z" />
<glyph unicode="&#x13e;" horiz-adv-x="389" d="M383 1495h18l-39 -305h-16zM184 1495h21v-1495h-21v1495z" />
<glyph unicode="&#x13f;" horiz-adv-x="1206" d="M729 676q0 -12 -9 -21.5t-22 -9.5q-12 0 -21 9.5t-9 21.5t9 21.5t21 9.5q13 0 22 -9.5t9 -21.5zM221 1434h21v-1414h897v-20h-918v1434z" />
<glyph unicode="&#x140;" horiz-adv-x="446" d="M184 1495h21v-1495h-21v1495zM451 717q0 -12 -9 -21.5t-22 -9.5t-22 9.5t-9 21.5t9 21.5t22 9.5t22 -9.5t9 -21.5z" />
<glyph unicode="&#x141;" horiz-adv-x="1183" d="M1145 0h-918v606l-204 -90v21l204 90v807h21v-797l512 227v-20l-512 -228v-596h897v-20z" />
<glyph unicode="&#x142;" horiz-adv-x="432" d="M207 1495h20v-717l185 82v-20l-185 -82v-758h-20v748l-184 -82v20l184 82v727z" />
<glyph unicode="&#x143;" horiz-adv-x="1568" d="M242 0h-21v1434h15l1091 -1393v123v1270h21v-1434h-15l-1091 1395v-123v-1272zM750 1597h-27l178 267h27z" />
<glyph unicode="&#x144;" d="M197 743q28 45 65.5 86.5t91 83t126 66.5t151.5 25q162 0 268.5 -107.5t106.5 -292.5v-604h-21v604q0 176 -100 277.5t-254 101.5q-80 0 -152 -25.5t-125 -68t-91.5 -89.5t-65.5 -98v-702h-21v983h21v-240zM541 1147h-27l178 266h27z" />
<glyph unicode="&#x145;" horiz-adv-x="1568" d="M242 0h-21v1434h15l1091 -1393v123v1270h21v-1434h-15l-1091 1395v-123v-1272zM776 -430h-20l39 328h20z" />
<glyph unicode="&#x146;" d="M197 743q28 45 65.5 86.5t91 83t126 66.5t151.5 25q162 0 268.5 -107.5t106.5 -292.5v-604h-21v604q0 176 -100 277.5t-254 101.5q-80 0 -152 -25.5t-125 -68t-91.5 -89.5t-65.5 -98v-702h-21v983h21v-240zM578 -430h-21l39 328h20z" />
<glyph unicode="&#x147;" horiz-adv-x="1568" d="M242 0h-21v1434h15l1091 -1393v123v1270h21v-1434h-15l-1091 1395v-123v-1272zM1049 1823l-256 -246h-17l-256 246h27l237 -228l238 228h27z" />
<glyph unicode="&#x148;" d="M197 743q28 45 65.5 86.5t91 83t126 66.5t151.5 25q162 0 268.5 -107.5t106.5 -292.5v-604h-21v604q0 176 -100 277.5t-254 101.5q-80 0 -152 -25.5t-125 -68t-91.5 -89.5t-65.5 -98v-702h-21v983h21v-240zM840 1372l-256 -246h-17l-256 246h27l237 -227l238 227h27z" />
<glyph unicode="&#x14a;" horiz-adv-x="1568" d="M1348 -252q0 -116 -65.5 -167.5t-162.5 -51.5q-73 0 -137 22v21q67 -23 137 -23q89 0 148 46.5t59 152.5v260l-1085 1387v-123v-1272h-21v1434h15l1091 -1393v123v1270h21v-1686z" />
<glyph unicode="&#x14b;" d="M1006 -252q0 -116 -65.5 -167.5t-162.5 -51.5q-73 0 -137 22v21q67 -23 137 -23q89 0 148 46.5t59 152.5v856q0 176 -100 277.5t-254 101.5q-80 0 -152 -25.5t-125 -68t-91.5 -89.5t-65.5 -98v-702h-21v983h21v-240q28 45 65.5 86.5t91 83t126 66.5t151.5 25 q162 0 268.5 -107.5t106.5 -292.5v-856z" />
<glyph unicode="&#x14c;" horiz-adv-x="1691" d="M109 717q0 107 28.5 211t89 199.5t146 168t208 115.5t265.5 43t265.5 -43t208 -115.5t146 -168t89 -199.5t28.5 -211t-28.5 -211t-89 -199.5t-146 -168t-208 -115.5t-265.5 -43t-265.5 43t-208 115.5t-146 168t-89 199.5t-28.5 211zM1563 717q0 105 -28 206.5t-87 194 t-142 163t-202 112t-258 41.5t-258 -41.5t-202 -112t-142 -163t-87 -194t-28 -206.5t28 -206.5t87 -194t142 -163t202 -112t258 -41.5t258 41.5t202 112t142 163t87 194t28 206.5zM600 1696h492v-21h-492v21z" />
<glyph unicode="&#x14d;" horiz-adv-x="1212" d="M104 492q0 119 41 217t111 161.5t160 98.5t190 35t190 -35t160 -98.5t111 -161.5t41 -217t-41 -217t-111 -161.5t-160 -98.5t-190 -35t-190 35t-160 98.5t-111 161.5t-41 217zM1087 492q0 114 -39.5 208t-106 155t-153 94.5t-182.5 33.5t-182.5 -33.5t-153 -94.5 t-106 -155t-39.5 -208q0 -151 68 -265t176 -170.5t237 -56.5t237 56.5t176 170.5t68 265zM360 1225h492v-21h-492v21z" />
<glyph unicode="&#x150;" horiz-adv-x="1691" d="M109 717q0 107 28.5 211t89 199.5t146 168t208 115.5t265.5 43t265.5 -43t208 -115.5t146 -168t89 -199.5t28.5 -211t-28.5 -211t-89 -199.5t-146 -168t-208 -115.5t-265.5 -43t-265.5 43t-208 115.5t-146 168t-89 199.5t-28.5 211zM1563 717q0 105 -28 206.5t-87 194 t-142 163t-202 112t-258 41.5t-258 -41.5t-202 -112t-142 -163t-87 -194t-28 -206.5t28 -206.5t87 -194t142 -163t202 -112t258 -41.5t258 41.5t202 112t142 163t87 194t28 206.5zM995 1593h-24l157 287h25zM686 1593h-24l157 287h25z" />
<glyph unicode="&#x151;" horiz-adv-x="1212" d="M104 492q0 119 41 217t111 161.5t160 98.5t190 35t190 -35t160 -98.5t111 -161.5t41 -217t-41 -217t-111 -161.5t-160 -98.5t-190 -35t-190 35t-160 98.5t-111 161.5t-41 217zM1087 492q0 114 -39.5 208t-106 155t-153 94.5t-182.5 33.5t-182.5 -33.5t-153 -94.5 t-106 -155t-39.5 -208q0 -151 68 -265t176 -170.5t237 -56.5t237 56.5t176 170.5t68 265zM756 1122h-25l158 287h24zM446 1122h-24l158 287h24z" />
<glyph unicode="&#x152;" horiz-adv-x="2103" d="M1096 0q-95 -20 -250 -20q-143 0 -265.5 43t-208 115.5t-146 168t-89 199.5t-28.5 211t28.5 211t89 199.5t146 168t208 115.5t265.5 43q155 0 250 -20h862v-21h-842v-682h780v-20h-780v-691h854v-20h-874zM129 717q0 -105 28 -206.5t87 -194t142 -163t202 -112t258 -41.5 q155 0 250 20v1393q-100 21 -250 21q-139 0 -258 -41.5t-202 -112t-142 -163t-87 -194t-28 -206.5z" />
<glyph unicode="&#x153;" horiz-adv-x="2043" d="M1073 375q-38 -187 -168 -291t-311 -104q-136 0 -246 59t-177 177t-67 276t67 276t177 177t246 59q181 0 313 -106.5t168 -295.5q36 183 165 292.5t288 109.5q72 0 134 -18t106 -49t79.5 -73.5t55 -91.5t32.5 -102t12.5 -105t-5.5 -102h-857q2 -117 46 -209t115.5 -145.5 t155 -81t173.5 -27.5q177 0 307 76v-21q-129 -75 -307 -75q-66 0 -130 14t-126 45t-111 76t-85 112t-50 148zM125 492q0 -227 134 -359.5t335 -132.5t335 132.5t134 359.5t-134 359t-335 132t-335 -132t-134 -359zM1528 983q-83 0 -160.5 -32.5t-140.5 -93.5t-102 -158 t-40 -216h840q6 70 -2 138t-36 134t-73 116t-118.5 81t-167.5 31z" />
<glyph unicode="&#x154;" horiz-adv-x="1388" d="M242 0h-21v1434h533q72 0 140.5 -13.5t133.5 -44.5t113.5 -77.5t78 -117.5t29.5 -159q0 -106 -42 -187t-112 -128t-151 -71t-170 -26l563 -610h-26l-563 610h-506v-610zM242 1413v-782h512q69 0 134.5 12.5t128 42t109 73t75 111.5t28.5 152t-28.5 152t-75 111.5t-109 73 t-128 42t-134.5 12.5h-512zM668 1597h-27l178 267h27z" />
<glyph unicode="&#x155;" horiz-adv-x="673" d="M197 651q49 148 167 250.5t287 102.5v-21q-94 0 -175 -36t-136.5 -95.5t-91.5 -130t-51 -146.5v-575h-21v983h21v-332zM336 1147h-27l178 266h27z" />
<glyph unicode="&#x156;" horiz-adv-x="1388" d="M242 0h-21v1434h533q72 0 140.5 -13.5t133.5 -44.5t113.5 -77.5t78 -117.5t29.5 -159q0 -106 -42 -187t-112 -128t-151 -71t-170 -26l563 -610h-26l-563 610h-506v-610zM242 1413v-782h512q69 0 134.5 12.5t128 42t109 73t75 111.5t28.5 152t-28.5 152t-75 111.5t-109 73 t-128 42t-134.5 12.5h-512zM721 -430h-21l39 328h21z" />
<glyph unicode="&#x157;" horiz-adv-x="673" d="M197 651q49 148 167 250.5t287 102.5v-21q-94 0 -175 -36t-136.5 -95.5t-91.5 -130t-51 -146.5v-575h-21v983h21v-332zM162 -430h-21l39 328h21z" />
<glyph unicode="&#x158;" horiz-adv-x="1388" d="M242 0h-21v1434h533q72 0 140.5 -13.5t133.5 -44.5t113.5 -77.5t78 -117.5t29.5 -159q0 -106 -42 -187t-112 -128t-151 -71t-170 -26l563 -610h-26l-563 610h-506v-610zM242 1413v-782h512q69 0 134.5 12.5t128 42t109 73t75 111.5t28.5 152t-28.5 152t-75 111.5t-109 73 t-128 42t-134.5 12.5h-512zM967 1823l-256 -246h-17l-256 246h27l237 -228l238 228h27z" />
<glyph unicode="&#x159;" horiz-adv-x="673" d="M197 651q49 148 167 250.5t287 102.5v-21q-94 0 -175 -36t-136.5 -95.5t-91.5 -130t-51 -146.5v-575h-21v983h21v-332zM635 1372l-256 -246h-17l-256 246h27l238 -227l237 227h27z" />
<glyph unicode="&#x15a;" horiz-adv-x="1136" d="M125 1114q0 86 37.5 153.5t100.5 107t138 59.5t158 20q107 0 213 -25.5t186 -70.5v-21q-79 44 -189 70.5t-210 26.5q-80 0 -152 -19t-131.5 -56t-95 -100.5t-35.5 -144.5q0 -76 31 -135t84 -98t121 -70t143.5 -55.5t151 -50t143.5 -59t121 -76t84 -107.5t31 -148 q0 -88 -37.5 -154.5t-103.5 -105t-147 -57t-177 -18.5q-129 0 -258.5 31.5t-227.5 86.5v21q103 -56 232 -87.5t254 -31.5q93 0 170.5 17t140 53t98 98.5t35.5 146.5q0 101 -50 174.5t-130.5 116.5t-177 76.5t-193.5 67t-177.5 76t-130.5 115.5t-50 173zM514 1597h-27 l179 267h26z" />
<glyph unicode="&#x15b;" horiz-adv-x="919" d="M113 762q0 63 29.5 111t78.5 75.5t107 41.5t121 14q89 0 177.5 -23.5t151.5 -62.5v-21q-62 38 -152 62t-177 24q-83 0 -152 -21.5t-116.5 -73t-47.5 -126.5q0 -62 30 -108.5t79 -72t112 -47t128 -35.5t128 -36t112 -49t79 -75.5t30 -113.5q0 -62 -29.5 -110.5t-80.5 -77 t-114 -43t-134 -14.5q-98 0 -203.5 28t-169.5 72v20q70 -45 173.5 -72.5t199.5 -27.5q93 0 167 23t122.5 75t48.5 127q0 55 -24 97t-64.5 68t-92.5 45.5t-110 34t-116 29.5t-110 36t-92.5 49t-64.5 73.5t-24 104.5zM416 1147h-27l178 266h27z" />
<glyph unicode="&#x15e;" horiz-adv-x="1136" d="M145 1114q0 -76 31 -135t84 -98t121 -70t143.5 -55.5t151 -50t143.5 -59t121 -76t84 -107.5t31 -148q0 -87 -36 -152.5t-100 -104t-142 -57.5t-171 -21l-49 -195q63 14 120.5 10t98 -36t41.5 -83q2 -65 -55 -106t-166 -41q-116 0 -201 47v21q86 -48 201 -48 q102 0 152.5 36t48.5 91q-1 46 -40.5 73t-98.5 28t-128 -17l56 220q-129 0 -257 31.5t-225 86.5v21q103 -56 232 -87.5t254 -31.5q93 0 170.5 17t140 53t98 98.5t35.5 146.5q0 101 -50 174.5t-130.5 116.5t-177 76.5t-193.5 67t-177.5 76t-130.5 115.5t-50 173 q0 86 37.5 153.5t100.5 107t138 59.5t158 20q107 0 213 -25.5t186 -70.5v-21q-79 44 -189 70.5t-210 26.5q-80 0 -152 -19t-131.5 -56t-95 -100.5t-35.5 -144.5z" />
<glyph unicode="&#x15f;" horiz-adv-x="919" d="M133 762q0 -62 30 -108.5t79 -72t112 -47t128 -35.5t128 -36t112 -49t79 -75.5t30 -113.5q0 -117 -97 -179.5t-242 -65.5l-39 -195q63 14 120.5 10t98 -36t41.5 -83q2 -65 -55 -106t-166 -41q-116 0 -201 47v21q86 -48 201 -48q101 0 151.5 36t48.5 91q-1 46 -40.5 73 t-98 28t-127.5 -17l45 220q-97 0 -202 28t-169 72v20q70 -45 173.5 -72.5t199.5 -27.5q93 0 167 23t122.5 75t48.5 127q0 55 -24 97t-64.5 68t-92.5 45.5t-110 34t-116 29.5t-110 36t-92.5 49t-64.5 73.5t-24 104.5q0 63 29.5 111t78.5 75.5t107 41.5t121 14 q89 0 177.5 -23.5t151.5 -62.5v-21q-62 38 -152 62t-177 24q-83 0 -152 -21.5t-116.5 -73t-47.5 -126.5z" />
<glyph unicode="&#x160;" horiz-adv-x="1136" d="M125 1114q0 86 37.5 153.5t100.5 107t138 59.5t158 20q107 0 213 -25.5t186 -70.5v-21q-79 44 -189 70.5t-210 26.5q-80 0 -152 -19t-131.5 -56t-95 -100.5t-35.5 -144.5q0 -76 31 -135t84 -98t121 -70t143.5 -55.5t151 -50t143.5 -59t121 -76t84 -107.5t31 -148 q0 -88 -37.5 -154.5t-103.5 -105t-147 -57t-177 -18.5q-129 0 -258.5 31.5t-227.5 86.5v21q103 -56 232 -87.5t254 -31.5q93 0 170.5 17t140 53t98 98.5t35.5 146.5q0 101 -50 174.5t-130.5 116.5t-177 76.5t-193.5 67t-177.5 76t-130.5 115.5t-50 173zM813 1823l-256 -246 h-16l-256 246h26l238 -228l237 228h27z" />
<glyph unicode="&#x161;" horiz-adv-x="919" d="M113 762q0 63 29.5 111t78.5 75.5t107 41.5t121 14q89 0 177.5 -23.5t151.5 -62.5v-21q-62 38 -152 62t-177 24q-83 0 -152 -21.5t-116.5 -73t-47.5 -126.5q0 -62 30 -108.5t79 -72t112 -47t128 -35.5t128 -36t112 -49t79 -75.5t30 -113.5q0 -62 -29.5 -110.5t-80.5 -77 t-114 -43t-134 -14.5q-98 0 -203.5 28t-169.5 72v20q70 -45 173.5 -72.5t199.5 -27.5q93 0 167 23t122.5 75t48.5 127q0 55 -24 97t-64.5 68t-92.5 45.5t-110 34t-116 29.5t-110 36t-92.5 49t-64.5 73.5t-24 104.5zM715 1372l-256 -246h-17l-256 246h27l238 -227l237 227h27 z" />
<glyph unicode="&#x162;" horiz-adv-x="1216" d="M35 1434h1147v-21h-564v-1413h-20v1413h-563v21zM584 -430h-21l39 328h21z" />
<glyph unicode="&#x163;" horiz-adv-x="714" d="M209 1311l20 10v-338h451v-20h-451v-697q0 -127 66.5 -194.5t196.5 -67.5q124 0 208 49v-20q-74 -49 -208 -49q-137 0 -210 73t-73 209v697h-184v20h184v328zM446 -430h-20l39 328h20z" />
<glyph unicode="&#x164;" horiz-adv-x="1216" d="M35 1434h1147v-21h-564v-1413h-20v1413h-563v21zM874 1823l-256 -246h-16l-256 246h27l237 -228l238 228h26z" />
<glyph unicode="&#x165;" horiz-adv-x="714" d="M473 1495h19l-39 -305h-17zM209 1311l20 10v-338h451v-20h-451v-697q0 -127 66.5 -194.5t196.5 -67.5q124 0 208 49v-20q-74 -49 -208 -49q-137 0 -210 73t-73 209v697h-184v20h184v328z" />
<glyph unicode="&#x166;" horiz-adv-x="1241" d="M631 0h-21v727h-297v21h297v665h-563v21h1147v-21h-563v-665h297v-21h-297v-727z" />
<glyph unicode="&#x167;" horiz-adv-x="716" d="M231 266q0 -127 66.5 -194.5t196.5 -67.5q124 0 208 49v-20q-74 -49 -208 -49q-137 0 -210 73t-73 209v344h-123v21h123v332h-184v20h184v328l20 10v-338h451v-20h-451v-332h349v-21h-349v-344z" />
<glyph unicode="&#x16a;" horiz-adv-x="1531" d="M1309 1434h20v-949q0 -137 -42.5 -237t-120.5 -157.5t-176.5 -84t-223.5 -26.5t-223.5 26.5t-176.5 84t-120.5 157.5t-42.5 237v949h20v-949q0 -132 40.5 -228t115.5 -151t170.5 -80.5t216.5 -25.5t216.5 25.5t170.5 80.5t115.5 151t40.5 228v949zM530 1696h492v-21h-492 v21z" />
<glyph unicode="&#x16b;" d="M971 983h20v-983h-20v240q-28 -45 -65.5 -86.5t-91 -82.5t-126 -66t-151.5 -25q-162 0 -268.5 107t-106.5 292v604h20v-604q0 -176 100.5 -277.5t254.5 -101.5q80 0 152 25.5t125 68t91.5 89.5t65.5 98v702zM348 1245h492v-20h-492v20z" />
<glyph unicode="&#x16e;" horiz-adv-x="1531" d="M1309 1434h20v-949q0 -137 -42.5 -237t-120.5 -157.5t-176.5 -84t-223.5 -26.5t-223.5 26.5t-176.5 84t-120.5 157.5t-42.5 237v949h20v-949q0 -132 40.5 -228t115.5 -151t170.5 -80.5t216.5 -25.5t216.5 25.5t170.5 80.5t115.5 151t40.5 228v949zM934 1712 q0 -67 -47 -110t-111 -43t-111 43t-47 110t47 110.5t111 43.5t111 -43.5t47 -110.5zM639 1712q0 -59 41 -96t96 -37t96 37t41 96t-41 96t-96 37t-96 -37t-41 -96z" />
<glyph unicode="&#x16f;" d="M971 983h20v-983h-20v240q-28 -45 -65.5 -86.5t-91 -82.5t-126 -66t-151.5 -25q-162 0 -268.5 107t-106.5 292v604h20v-604q0 -176 100.5 -277.5t254.5 -101.5q80 0 152 25.5t125 68t91.5 89.5t65.5 98v702zM752 1262q0 -67 -47 -110.5t-111 -43.5t-111 43.5t-47 110.5 t47 110t111 43t111 -43t47 -110zM457 1262q0 -59 41 -96.5t96 -37.5t96 37.5t41 96.5t-41 96t-96 37t-96 -37t-41 -96z" />
<glyph unicode="&#x170;" horiz-adv-x="1531" d="M1309 1434h20v-949q0 -137 -42.5 -237t-120.5 -157.5t-176.5 -84t-223.5 -26.5t-223.5 26.5t-176.5 84t-120.5 157.5t-42.5 237v949h20v-949q0 -132 40.5 -228t115.5 -151t170.5 -80.5t216.5 -25.5t216.5 25.5t170.5 80.5t115.5 151t40.5 228v949zM926 1593h-25l158 287 h24zM616 1593h-24l158 287h24z" />
<glyph unicode="&#x171;" d="M971 983h20v-983h-20v240q-28 -45 -65.5 -86.5t-91 -82.5t-126 -66t-151.5 -25q-162 0 -268.5 107t-106.5 292v604h20v-604q0 -176 100.5 -277.5t254.5 -101.5q80 0 152 25.5t125 68t91.5 89.5t65.5 98v702zM743 1143h-24l158 287h24zM434 1143h-24l157 287h25z" />
<glyph unicode="&#x172;" horiz-adv-x="1531" d="M1190 -432q-70 -39 -156 -39q-79 0 -125.5 41.5t-46.5 112.5t57 171t144 177q-125 -51 -297 -51q-125 0 -223.5 26.5t-176.5 84t-120.5 157.5t-42.5 237v949h20v-949q0 -132 40.5 -228t115.5 -151t170.5 -80.5t216.5 -25.5t216.5 25.5t170.5 80.5t115.5 151t40.5 228v949 h20v-949q0 -281 -184 -409q-109 -76 -185.5 -191.5t-76.5 -201.5q0 -62 40 -98t111 -36q79 0 156 39v-20z" />
<glyph unicode="&#x173;" d="M991 983v-983q-60 -51 -95.5 -84.5t-74 -77t-56 -84.5t-17.5 -82q0 -60 35 -91.5t96 -31.5q56 0 112 21v-21q-50 -20 -112 -20q-69 0 -110.5 37t-41.5 106q0 79 58.5 155t185.5 181v232q-28 -45 -65.5 -86.5t-91 -82.5t-126 -66t-151.5 -25q-162 0 -268.5 107t-106.5 292 v604h20v-604q0 -176 100.5 -277.5t254.5 -101.5q80 0 152 25.5t125 68t91.5 89.5t65.5 98v702h20z" />
<glyph unicode="&#x174;" horiz-adv-x="2002" d="M1919 1434h23l-461 -1434h-21l-459 1380l-458 -1380h-21l-461 1434h23l448 -1399l459 1378h21l458 -1378zM993 1843h17l256 -246h-27l-238 228l-237 -228h-27z" />
<glyph unicode="&#x175;" horiz-adv-x="1634" d="M1552 983h23l-389 -983h-17l-352 938l-352 -938h-16l-390 983h23l375 -948l348 928h24l349 -928zM809 1393h16l256 -246h-26l-238 227l-237 -227h-27z" />
<glyph unicode="&#x176;" horiz-adv-x="1261" d="M641 0h-20v592l-566 842h25l551 -820l551 820h24l-565 -842v-592zM625 1843h16l256 -246h-27l-237 228l-238 -228h-26z" />
<glyph unicode="&#x177;" horiz-adv-x="1081" d="M569 18l439 965h22l-530 -1171q-70 -155 -144 -219t-172 -64q-46 0 -98 12v23q66 -15 98 -15q94 0 164 65.5t135 211.5l76 170l-520 987h22zM520 1393h17l256 -246h-27l-238 227l-237 -227h-27z" />
<glyph unicode="&#x178;" horiz-adv-x="1261" d="M641 0h-20v592l-566 842h25l551 -820l551 820h24l-565 -842v-592zM868 1710q0 -12 -8.5 -21.5t-21.5 -9.5q-12 0 -21.5 9.5t-9.5 21.5t9.5 21.5t21.5 9.5q13 0 21.5 -9.5t8.5 -21.5zM459 1710q0 -12 -9 -21.5t-22 -9.5q-12 0 -21.5 9.5t-9.5 21.5t9.5 21.5t21.5 9.5 q13 0 22 -9.5t9 -21.5z" />
<glyph unicode="&#x179;" horiz-adv-x="1153" d="M1094 0h-1053v16l1014 1397h-969v21h997v-17l-1013 -1397h1024v-20zM543 1597h-27l178 267h27z" />
<glyph unicode="&#x17a;" horiz-adv-x="894" d="M86 983h725v-14l-723 -949h743v-20h-774v14l723 949h-694v20zM442 1147h-26l178 266h27z" />
<glyph unicode="&#x17b;" horiz-adv-x="1153" d="M1094 0h-1053v16l1014 1397h-969v21h997v-17l-1013 -1397h1024v-20zM537 1669q0 17 12 29t29 12t28.5 -12t11.5 -29t-11.5 -29t-28.5 -12t-29 12t-12 29z" />
<glyph unicode="&#x17c;" horiz-adv-x="894" d="M86 983h725v-14l-723 -949h743v-20h-774v14l723 949h-694v20zM436 1219q0 17 12 29t29 12t29 -12t12 -29t-12 -29t-29 -12t-29 12t-12 29z" />
<glyph unicode="&#x17d;" horiz-adv-x="1153" d="M1094 0h-1053v16l1014 1397h-969v21h997v-17l-1013 -1397h1024v-20zM842 1823l-256 -246h-17l-256 246h27l238 -228l237 228h27z" />
<glyph unicode="&#x17e;" horiz-adv-x="894" d="M86 983h725v-14l-723 -949h743v-20h-774v14l723 949h-694v20zM741 1372l-256 -246h-16l-256 246h27l237 -227l238 227h26z" />
<glyph unicode="&#x2c6;" horiz-adv-x="491" d="M238 1843h16l256 -246h-27l-237 228l-238 -228h-26z" />
<glyph unicode="&#x2da;" horiz-adv-x="397" d="M356 1712q0 -67 -46.5 -110t-110.5 -43t-111 43t-47 110t47 110.5t111 43.5t110.5 -43.5t46.5 -110.5zM61 1712q0 -59 41.5 -96t96.5 -37t96 37t41 96t-41 96t-96 37t-96.5 -37t-41.5 -96z" />
<glyph unicode="&#x2dc;" horiz-adv-x="608" d="M586 1759q6 -57 -20.5 -94t-84.5 -37q-44 0 -111.5 31t-134 61.5t-108.5 30.5q-44 0 -67 -31t-17 -82h-20q-8 56 21 95t83 39q52 0 177.5 -61.5t176.5 -61.5q46 0 67.5 29t16.5 81h21z" />
<glyph unicode="&#x401;" horiz-adv-x="1298" d="M918 1710q0 -12 -9 -21.5t-22 -9.5q-12 0 -21.5 9.5t-9.5 21.5t9.5 21.5t21.5 9.5q13 0 22 -9.5t9 -21.5zM508 1710q0 -12 -9 -21.5t-22 -9.5q-12 0 -21.5 9.5t-9.5 21.5t9.5 21.5t21.5 9.5q13 0 22 -9.5t9 -21.5zM221 1434h924v-21h-903v-682h841v-20h-841v-691h923v-20 h-944v1434z" />
<glyph unicode="&#x410;" horiz-adv-x="1437" d="M59 0h-22l668 1434h28l668 -1434h-23l-217 465h-885zM707 1389l-422 -904h866l-420 904q-2 4 -6 13t-6 13q-2 -4 -6 -13t-6 -13z" />
<glyph unicode="&#x411;" horiz-adv-x="1337" d="M242 799h413q85 0 153.5 -6t139 -21t122.5 -44t94 -72t63.5 -108t21.5 -149q0 -100 -33 -173.5t-85 -116t-132.5 -68t-160 -33.5t-183.5 -8h-434v1434h924v-21h-903v-614zM242 20h413q84 0 150.5 5.5t135 19.5t118 41.5t89.5 68t60.5 102.5t20.5 142q0 69 -16 124.5 t-43.5 94.5t-70 68t-89 46.5t-107.5 28t-119 14t-129 3.5h-413v-758z" />
<glyph unicode="&#x412;" horiz-adv-x="1370" d="M221 1434h498q106 0 191.5 -20.5t150 -63t100 -112t35.5 -161.5q0 -75 -25 -134t-69.5 -97t-99 -60.5t-119.5 -31.5q54 -8 101 -21.5t98 -42t87 -67.5t59.5 -101t24.5 -139q0 -71 -20 -129t-51 -97.5t-77.5 -68.5t-93.5 -45.5t-106 -26.5t-107 -13t-104 -3h-473v1434z M1233 383q0 75 -23 135t-62.5 98t-85 64.5t-100 39t-98.5 18t-88 5.5h-534v-723h452q66 0 121 4.5t120.5 17t115 38t92.5 64t66.5 99.5t23.5 140zM1176 1077q0 171 -122 253.5t-335 82.5h-477v-649h559q73 0 138 18t119.5 54t86 98t31.5 143z" />
<glyph unicode="&#x413;" horiz-adv-x="1177" d="M242 0h-21v1434h918v-21h-897v-1413z" />
<glyph unicode="&#x414;" horiz-adv-x="1499" d="M49 -369h-20v389h137q144 255 214.5 637t68.5 777h819v-1414h174v-389h-21v369h-1372v-369zM469 1413q-1 -252 -28.5 -495t-92.5 -485.5t-160 -412.5h1059v1393h-778z" />
<glyph unicode="&#x415;" horiz-adv-x="1298" d="M221 1434h924v-21h-903v-682h841v-20h-841v-691h923v-20h-944v1434z" />
<glyph unicode="&#x416;" horiz-adv-x="1892" d="M49 0h-24l507 735l-448 699h25l440 -686h387v686h20v-686h387l441 686h24l-448 -699l508 -735h-25l-502 727h-385v-727h-20v727h-385z" />
<glyph unicode="&#x417;" horiz-adv-x="1234" d="M1122 383q0 -85 -32.5 -154.5t-86 -115t-124.5 -76.5t-144.5 -44t-150.5 -13q-289 0 -486 88v20q201 -88 486 -88q75 0 146.5 12.5t139.5 41.5t119 72t82 109.5t31 147.5q0 80 -32.5 143t-85 102t-124 65t-143 36t-148.5 10h-258v21h258q214 0 343.5 90t129.5 240 q0 84 -37.5 150.5t-103.5 108.5t-151 63.5t-183 21.5q-138 0 -237.5 -22t-206.5 -69v21q99 46 200.5 68t243.5 22q136 0 246 -38.5t180 -123t70 -202.5q0 -141 -104.5 -228.5t-282.5 -109.5q89 -9 163.5 -32.5t140.5 -65t104 -111t38 -160.5z" />
<glyph unicode="&#x418;" horiz-adv-x="1568" d="M1348 0h-21v1272v123l-1091 -1395h-15v1434h21v-1270v-123l1091 1393h15v-1434z" />
<glyph unicode="&#x419;" horiz-adv-x="1568" d="M1327 0h21v1434h-15l-1091 -1393v123v1270h-21v-1434h15l1091 1395v-123v-1272zM1030 1692q-96 -84 -246 -84q-149 0 -245 84v26q98 -90 245 -90q148 0 246 90v-26z" />
<glyph unicode="&#x41a;" horiz-adv-x="1333" d="M242 0h-21v1434h21v-686h473l520 686h27l-531 -699l590 -735h-27l-583 727h-469v-727z" />
<glyph unicode="&#x41b;" horiz-adv-x="1486" d="M492 1434h774v-1434h-21v1413h-733q-12 -166 -21.5 -277t-25 -258.5t-33 -246.5t-41.5 -211.5t-55 -184t-70 -134.5t-89.5 -92t-110.5 -29q-47 0 -91 16v20q49 -16 91 -16q56 0 104 29t85 91t66 133.5t52.5 183.5t40 211t32 246.5t25 260t21.5 279.5z" />
<glyph unicode="&#x41c;" horiz-adv-x="1830" d="M1597 1434h13v-1434h-21v1386l-667 -968h-13l-667 968v-1386h-21v1434h12l682 -990z" />
<glyph unicode="&#x41d;" horiz-adv-x="1568" d="M1327 1434h21v-1434h-21v711h-1085v-711h-21v1434h21v-703h1085v703z" />
<glyph unicode="&#x41e;" horiz-adv-x="1691" d="M109 717q0 107 28.5 211t89 199.5t146 168t208 115.5t265.5 43t265.5 -43t208 -115.5t146 -168t89 -199.5t28.5 -211t-28.5 -211t-89 -199.5t-146 -168t-208 -115.5t-265.5 -43t-265.5 43t-208 115.5t-146 168t-89 199.5t-28.5 211zM1563 717q0 105 -28 206.5t-87 194 t-142 163t-202 112t-258 41.5t-258 -41.5t-202 -112t-142 -163t-87 -194t-28 -206.5t28 -206.5t87 -194t142 -163t202 -112t258 -41.5t258 41.5t202 112t142 163t87 194t28 206.5z" />
<glyph unicode="&#x41f;" horiz-adv-x="1527" d="M242 0h-21v1434h1086v-1434h-21v1413h-1044v-1413z" />
<glyph unicode="&#x420;" horiz-adv-x="1327" d="M221 1434h434q99 0 182.5 -12.5t161.5 -44t132 -80.5t86 -126.5t32 -177.5q0 -84 -22 -152t-63 -115.5t-94.5 -81.5t-122 -53.5t-139.5 -28.5t-153 -9h-413v-553h-21v1434zM1229 993q0 420 -574 420h-413v-840h413q574 0 574 420z" />
<glyph unicode="&#x421;" horiz-adv-x="1361" d="M113 696q0 146 42 271.5t113.5 213.5t165.5 150.5t198 92.5t212 30q228 0 399 -100v-21q-180 101 -399 101q-105 0 -206.5 -29t-193 -90.5t-161 -147t-110 -207.5t-40.5 -264q0 -139 41 -255t110 -196.5t161.5 -136.5t193.5 -82t207 -26q234 0 418 102v-20 q-172 -102 -418 -102q-108 0 -212 26.5t-199 84.5t-166 140t-113.5 202t-42.5 263z" />
<glyph unicode="&#x422;" horiz-adv-x="1216" d="M35 1434h1147v-21h-564v-1413h-20v1413h-563v21z" />
<glyph unicode="&#x423;" horiz-adv-x="1255" d="M680 326q-71 -136 -140 -214t-130.5 -105t-139.5 -27q-79 0 -143 20v20q68 -20 143 -20q109 0 192.5 65t170.5 220l24 45l-628 1104h22l619 -1084l567 1084h23z" />
<glyph unicode="&#x424;" horiz-adv-x="1716" d="M868 -72h-20v195q-357 2 -567.5 157t-210.5 437t210.5 437t567.5 157v194h20v-194q357 -2 568 -157t211 -437t-211 -437t-568 -157v-195zM90 717q0 -273 203.5 -422.5t554.5 -151.5v1147q-351 -2 -554.5 -151t-203.5 -422zM868 1290v-1147q351 2 554.5 151.5t203.5 422.5 t-203.5 422t-554.5 151z" />
<glyph unicode="&#x425;" horiz-adv-x="1216" d="M49 0h-24l571 737l-541 697h25l528 -682l529 682h24l-540 -697l571 -737h-25l-559 721z" />
<glyph unicode="&#x426;" horiz-adv-x="1538" d="M1481 -369h-21v369h-1239v1434h21v-1414h1044v1414h21v-1414h174v-389z" />
<glyph unicode="&#x427;" horiz-adv-x="1368" d="M1147 0h-21v616q-245 -87 -487 -84q-257 3 -397 125t-140 355v422h21v-422q0 -227 135.5 -341.5t380.5 -117.5q240 -3 487 86v795h21v-1434z" />
<glyph unicode="&#x428;" horiz-adv-x="2183" d="M1962 0h-1741v1434h21v-1414h839v1414h21v-1414h840v1414h20v-1434z" />
<glyph unicode="&#x429;" horiz-adv-x="2193" d="M2136 -369h-20v369h-1895v1434h21v-1414h839v1414h21v-1414h840v1414h20v-1414h174v-389z" />
<glyph unicode="&#x42a;" horiz-adv-x="1523" d="M852 0h-434v1413h-389v21h409v-553h414q99 0 182.5 -12.5t161.5 -44t132 -80.5t86 -126.5t32 -177.5q0 -84 -22 -152t-63 -115.5t-94.5 -81.5t-122 -53.5t-139.5 -28.5t-153 -9zM438 860v-840h414q573 0 573 420t-573 420h-414z" />
<glyph unicode="&#x42b;" horiz-adv-x="1673" d="M655 0h-434v1434h21v-553h413q99 0 182.5 -12.5t161.5 -44t132 -80.5t86 -126.5t32 -177.5q0 -84 -22 -152t-63 -115.5t-94.5 -81.5t-122 -53.5t-139.5 -28.5t-153 -9zM242 860v-840h413q574 0 574 420t-574 420h-413zM1452 0h-20v1434h20v-1434z" />
<glyph unicode="&#x42c;" horiz-adv-x="1327" d="M655 0h-434v1434h21v-553h413q99 0 182.5 -12.5t161.5 -44t132 -80.5t86 -126.5t32 -177.5q0 -84 -22 -152t-63 -115.5t-94.5 -81.5t-122 -53.5t-139.5 -28.5t-153 -9zM242 860v-840h413q574 0 574 420t-574 420h-413z" />
<glyph unicode="&#x42d;" horiz-adv-x="1353" d="M111 1354q171 100 399 100q108 0 212 -29.5t198 -91.5t165.5 -149t113.5 -210t42 -267q0 -146 -42.5 -268t-113.5 -205.5t-166 -141.5t-198.5 -85t-212.5 -27q-225 0 -397 102v20q184 -102 397 -102q106 0 207 26t193.5 83t161.5 138t110 200t41 260h-861v20h861 q-3 135 -45 251.5t-111 199t-159.5 141t-191 87t-204.5 28.5q-219 0 -399 -101v21z" />
<glyph unicode="&#x42e;" horiz-adv-x="2193" d="M2085 717q0 -107 -28.5 -211t-89 -199.5t-146 -168t-208 -115.5t-265.5 -43q-142 0 -263.5 42t-207 113.5t-146.5 165.5t-90.5 197t-30.5 209h-368v-707h-21v1434h21v-707h368q1 106 30.5 209t90.5 197t146.5 165.5t207 113.5t263.5 42q143 0 265.5 -43t208 -115.5 t146 -168t89 -199.5t28.5 -211zM631 717q0 -105 28 -206.5t87 -194t142 -163t202 -112t258 -41.5q116 0 219 29t180 80.5t138 120t100 149t59 166t20 172.5t-20 172.5t-59 166t-100 149t-138 120t-180 80.5t-219 29q-139 0 -258 -41.5t-202 -112t-142 -163t-87 -194 t-28 -206.5z" />
<glyph unicode="&#x42f;" horiz-adv-x="1380" d="M109 0h-25l453 578q-185 26 -295.5 135t-110.5 288q0 138 68.5 237t183.5 147.5t264 48.5h512v-1434h-20v569h-492q-59 0 -88 4zM152 1001q0 -196 137.5 -303.5t357.5 -107.5h492v823h-492q-220 0 -357.5 -108t-137.5 -304z" />
<glyph unicode="&#x430;" horiz-adv-x="1099" d="M899 127q0 -56 32 -81.5t81 -25.5q38 0 75 15v-21q-40 -14 -75 -14q-56 0 -94.5 31t-38.5 96v121q-66 -126 -192 -197t-271 -71q-64 0 -122 17t-105.5 50t-76 87t-28.5 122q0 80 35 140t95 94.5t132 51.5t154 17q188 0 379 -67v124q0 170 -96.5 268.5t-278.5 98.5 q-184 0 -344 -57v20q159 58 344 58q190 0 292.5 -104.5t102.5 -283.5v-489zM104 256q0 -63 26.5 -113t70.5 -80.5t99 -46.5t116 -16q146 0 272 74.5t191 212.5v182q-196 70 -379 70q-78 0 -146.5 -15.5t-125.5 -47.5t-90.5 -88.5t-33.5 -131.5z" />
<glyph unicode="&#x431;" horiz-adv-x="1212" d="M1108 459q0 -214 -134.5 -346.5t-352.5 -132.5q-150 0 -266.5 73t-178 198.5t-61.5 280.5q0 226 88 406t227 266q77 47 154.5 78t134 45.5t108.5 28t97.5 36t81.5 60.5v-25q-36 -36 -82 -58t-97.5 -35t-107.5 -26.5t-130 -44t-147 -75.5q-262 -162 -307 -586 q57 161 193 250.5t301 89.5q208 0 343.5 -136t135.5 -347zM135 539q0 -152 59 -274.5t170.5 -193.5t256.5 -71q209 0 337.5 126.5t128.5 332.5q0 202 -129 332.5t-329 130.5q-63 0 -124 -14t-119 -44t-106.5 -74t-86.5 -108.5t-58 -142.5z" />
<glyph unicode="&#x432;" horiz-adv-x="1103" d="M686 0h-510v983h481q143 0 220 -66t77 -182q0 -90 -46 -149.5t-136 -81.5q102 -16 162.5 -77.5t60.5 -174.5q0 -125 -87 -188.5t-222 -63.5zM197 489v-469h487q130 0 210.5 57.5t80.5 174.5q0 124 -77.5 180.5t-203.5 56.5h-497zM197 963v-453h469q133 0 200.5 60 t67.5 165t-71 166.5t-208 61.5h-458z" />
<glyph unicode="&#x433;" horiz-adv-x="897" d="M197 0h-21v983h684v-20h-663v-963z" />
<glyph unicode="&#x434;" horiz-adv-x="1210" d="M63 -287h-20v307h123q103 221 151 438.5t48 524.5h645v-963h139v-307h-21v287h-1065v-287zM385 963q0 -297 -48.5 -512.5t-150.5 -430.5h803v943h-604z" />
<glyph unicode="&#x435;" horiz-adv-x="1112" d="M104 492q0 118 39.5 216.5t106.5 162t152.5 98.5t179.5 35q74 0 138 -18t110 -49t83 -73t57.5 -90t35 -100t14 -102.5t-5.5 -98.5h-889q2 -122 45 -215t115.5 -148t161 -82.5t190.5 -27.5q187 0 317 76v-21q-129 -75 -317 -75q-107 0 -200.5 30t-169 89.5t-119.5 160.5 t-44 232zM997 494q6 66 -3.5 132.5t-39 131.5t-77 114.5t-123.5 80t-172 30.5q-90 0 -171.5 -32.5t-145 -92.5t-101.5 -154.5t-39 -209.5h872z" />
<glyph unicode="&#x436;" horiz-adv-x="1425" d="M1403 0h-27l-452 502h-201v-502h-21v502h-200l-453 -502h-26l458 510l-397 473h27l389 -461h202v461h21v-461h203l389 461h26l-397 -473z" />
<glyph unicode="&#x437;" horiz-adv-x="948" d="M838 256q0 -74 -34 -129t-92 -86t-126 -46t-146 -15q-195 0 -346 69v21q157 -70 346 -70q74 0 139 14t119.5 43t86.5 80t32 119q0 72 -42 127t-100.5 80.5t-117.5 25.5h-258v21h258q116 12 178 68.5t62 152.5q0 122 -103 187t-256 65q-168 0 -332 -68v21q168 68 332 68 q160 0 269.5 -70.5t109.5 -202.5q0 -91 -52.5 -150.5t-150.5 -76.5q90 -21 157 -86t67 -162z" />
<glyph unicode="&#x438;" horiz-adv-x="1191" d="M201 0h-25v983h21v-954l794 954h25v-983h-21v954z" />
<glyph unicode="&#x439;" horiz-adv-x="1191" d="M842 1241q-96 -84 -246 -84t-246 84v27q98 -90 246 -90t246 90v-27zM201 0h-25v983h21v-954l794 954h25v-983h-21v954z" />
<glyph unicode="&#x43a;" horiz-adv-x="999" d="M197 0h-21v983h21v-461h286l408 461h27l-418 -473l479 -510h-27l-473 502h-282v-502z" />
<glyph unicode="&#x43b;" horiz-adv-x="1189" d="M403 963q-14 -482 -89 -727.5t-228 -245.5q-41 0 -76 12v21q35 -13 76 -13q141 0 212 244t85 729h631v-983h-21v963h-590z" />
<glyph unicode="&#x43c;" horiz-adv-x="1347" d="M197 0h-21v983h23l475 -653l475 653h22v-983h-20v950l-471 -647h-12l-471 647v-950z" />
<glyph unicode="&#x43d;" horiz-adv-x="1171" d="M197 0h-21v983h21v-481h778v481h20v-983h-20v481h-778v-481z" />
<glyph unicode="&#x43e;" horiz-adv-x="1212" d="M104 492q0 119 41 217t111 161.5t160 98.5t190 35t190 -35t160 -98.5t111 -161.5t41 -217t-41 -217t-111 -161.5t-160 -98.5t-190 -35t-190 35t-160 98.5t-111 161.5t-41 217zM1087 492q0 114 -39.5 208t-106 155t-153 94.5t-182.5 33.5t-182.5 -33.5t-153 -94.5 t-106 -155t-39.5 -208q0 -151 68 -265t176 -170.5t237 -56.5t237 56.5t176 170.5t68 265z" />
<glyph unicode="&#x43f;" horiz-adv-x="1171" d="M197 0h-21v983h819v-983h-20v963h-778v-963z" />
<glyph unicode="&#x440;" horiz-adv-x="1251" d="M197 705q61 132 184.5 215.5t277.5 83.5q214 0 351 -138.5t137 -373.5t-137 -373.5t-351 -138.5q-154 0 -277.5 83.5t-184.5 215.5v-730h-21v1434h21v-278zM1126 492q0 226 -131 358.5t-336 132.5q-162 0 -287.5 -95t-174.5 -241v-311q49 -146 174.5 -241t287.5 -95 q204 0 335.5 132.5t131.5 359.5z" />
<glyph unicode="&#x441;" horiz-adv-x="1021" d="M104 481q0 107 30.5 195.5t81.5 148.5t119.5 101t143 59.5t152.5 18.5q166 0 284 -80v-21q-59 39 -135 59.5t-149 20.5q-96 0 -184 -30t-161.5 -88.5t-117 -157.5t-43.5 -226q0 -119 40 -213.5t107.5 -151.5t151.5 -86.5t178 -29.5q183 0 324 78v-21q-137 -77 -324 -77 q-77 0 -148 18.5t-135 58.5t-111.5 97.5t-75.5 141.5t-28 185z" />
<glyph unicode="&#x442;" horiz-adv-x="921" d="M471 0h-20v963h-420v20h860v-20h-420v-963z" />
<glyph unicode="&#x443;" horiz-adv-x="1081" d="M569 18l439 965h22l-530 -1171q-70 -155 -144 -219t-172 -64q-46 0 -98 12v23q66 -15 98 -15q94 0 164 65.5t135 211.5l76 170l-520 987h22z" />
<glyph unicode="&#x444;" horiz-adv-x="1413" d="M717 -451h-21v431q-170 2 -303 60t-212 175t-79 277t79 277t212 175t303 60v430h21v-430q170 -2 303 -60t212 -175t79 -277t-79 -277t-212 -175t-303 -60v-431zM123 492q0 -153 76 -265.5t204 -168.5t293 -58v983q-165 -2 -293 -58t-204 -168t-76 -265zM717 983v-983 q165 2 293 58t204 168.5t76 265.5t-76 265t-204 168t-293 58z" />
<glyph unicode="&#x445;" horiz-adv-x="985" d="M897 983h27l-418 -479l440 -504h-26l-428 489l-429 -489h-26l442 504l-420 479h27l406 -463z" />
<glyph unicode="&#x446;" horiz-adv-x="1196" d="M1135 -287h-21v287h-938v983h21v-963h778v963h20v-963h140v-307z" />
<glyph unicode="&#x447;" horiz-adv-x="1050" d="M874 0h-20v389q-151 -70 -354 -70q-188 0 -296 87.5t-108 263.5v313h21v-313q0 -165 102 -247.5t281 -82.5q198 0 354 70v573h20v-983z" />
<glyph unicode="&#x448;" horiz-adv-x="1642" d="M1466 0h-1290v983h21v-963h614v963h20v-963h615v963h20v-983z" />
<glyph unicode="&#x449;" horiz-adv-x="1667" d="M1606 -287h-21v287h-1409v983h21v-963h614v963h20v-963h615v963h20v-963h140v-307z" />
<glyph unicode="&#x44a;" d="M338 598h395q163 0 263 -83.5t100 -215.5t-100 -215.5t-263 -83.5h-416v963h-286v20h307v-385zM338 20h395q158 0 250 78.5t92 200.5t-93 200.5t-249 78.5h-395v-558z" />
<glyph unicode="&#x44b;" horiz-adv-x="1355" d="M592 0h-416v983h21v-385h395q163 0 262.5 -83.5t99.5 -215.5t-99.5 -215.5t-262.5 -83.5zM197 578v-558h395q158 0 250 78.5t92 200.5t-93 200.5t-249 78.5h-395zM1180 0h-21v983h21v-983z" />
<glyph unicode="&#x44c;" horiz-adv-x="1026" d="M592 0h-416v983h21v-385h395q163 0 262.5 -83.5t99.5 -215.5t-99.5 -215.5t-262.5 -83.5zM197 578v-558h395q158 0 250 78.5t92 200.5t-93 200.5t-249 78.5h-395z" />
<glyph unicode="&#x44d;" horiz-adv-x="1032" d="M928 481q0 -105 -28 -190t-75 -142t-111.5 -96t-135.5 -56t-148 -17q-177 0 -334 88v20q159 -88 334 -88q75 0 143.5 16.5t130 54t106 92.5t71 136.5t26.5 181.5h-616v21h616q-3 97 -33 177.5t-79 135.5t-113.5 93.5t-135 56.5t-145.5 18q-76 0 -154.5 -24t-140.5 -66v20 q134 91 295 91q78 0 152.5 -19t142.5 -61t119.5 -102t82 -148t30.5 -193z" />
<glyph unicode="&#x44e;" horiz-adv-x="1622" d="M1518 492q0 -119 -41 -217t-111 -161.5t-160 -98.5t-190 -35q-133 0 -245 57.5t-183.5 173.5t-73.5 270h-317v-481h-21v983h21v-481h317q1 116 43 212.5t111.5 159t159 96.5t188.5 34q100 0 190 -35t160 -98.5t111 -161.5t41 -217zM535 492q0 -151 68 -265t176 -170.5 t237 -56.5t237 56.5t176 170.5t68 265q0 114 -39.5 208t-106 155t-153 94.5t-182.5 33.5t-182.5 -33.5t-153 -94.5t-106 -155t-39.5 -208z" />
<glyph unicode="&#x44f;" horiz-adv-x="1095" d="M104 0h-24l307 412q-126 22 -198 96.5t-72 185.5q0 131 99 210t263 79h441v-983h-21v406h-420q-48 0 -71 4zM137 694q0 -121 92.5 -194.5t249.5 -73.5h420v537h-420q-159 0 -250.5 -74t-91.5 -195z" />
<glyph unicode="&#x451;" horiz-adv-x="1112" d="M813 1260q0 -12 -9 -21.5t-22 -9.5q-12 0 -21 9.5t-9 21.5t9 21t21 9q13 0 22 -9t9 -21zM403 1260q0 -12 -8.5 -21.5t-21.5 -9.5q-12 0 -21.5 9.5t-9.5 21.5t9.5 21t21.5 9q13 0 21.5 -9t8.5 -21zM104 492q0 118 39.5 216.5t106.5 162t152.5 98.5t179.5 35q74 0 138 -18 t110 -49t83 -73t57.5 -90t35 -100t14 -102.5t-5.5 -98.5h-889q2 -122 45 -215t115.5 -148t161 -82.5t190.5 -27.5q187 0 317 76v-21q-129 -75 -317 -75q-107 0 -200.5 30t-169 89.5t-119.5 160.5t-44 232zM997 494q6 66 -3.5 132.5t-39 131.5t-77 114.5t-123.5 80t-172 30.5 q-90 0 -171.5 -32.5t-145 -92.5t-101.5 -154.5t-39 -209.5h872z" />
<glyph unicode="&#x2000;" horiz-adv-x="942" />
<glyph unicode="&#x2001;" horiz-adv-x="1884" />
<glyph unicode="&#x2002;" horiz-adv-x="942" />
<glyph unicode="&#x2003;" horiz-adv-x="1884" />
<glyph unicode="&#x2004;" horiz-adv-x="628" />
<glyph unicode="&#x2005;" horiz-adv-x="471" />
<glyph unicode="&#x2006;" horiz-adv-x="314" />
<glyph unicode="&#x2007;" horiz-adv-x="314" />
<glyph unicode="&#x2008;" horiz-adv-x="235" />
<glyph unicode="&#x2009;" horiz-adv-x="376" />
<glyph unicode="&#x200a;" horiz-adv-x="104" />
<glyph unicode="&#x2010;" horiz-adv-x="995" d="M150 504h696v-21h-696v21z" />
<glyph unicode="&#x2011;" horiz-adv-x="995" d="M150 504h696v-21h-696v21z" />
<glyph unicode="&#x2012;" horiz-adv-x="995" d="M150 504h696v-21h-696v21z" />
<glyph unicode="&#x2013;" horiz-adv-x="1159" d="M1010 483h-860v21h860v-21z" />
<glyph unicode="&#x2014;" horiz-adv-x="1527" d="M1378 483h-1228v21h1228v-21z" />
<glyph unicode="&#x2018;" horiz-adv-x="354" d="M150 1004h-21l100 430h21z" />
<glyph unicode="&#x2019;" horiz-adv-x="354" d="M150 1004h-21l100 430h21z" />
<glyph unicode="&#x201a;" horiz-adv-x="301" d="M84 -287h-21l101 430h20z" />
<glyph unicode="&#x201c;" horiz-adv-x="600" d="M395 1004h-20l100 430h21zM150 1004h-21l100 430h21z" />
<glyph unicode="&#x201d;" horiz-adv-x="600" d="M395 1004h-20l100 430h21zM150 1004h-21l100 430h21z" />
<glyph unicode="&#x201e;" horiz-adv-x="546" d="M330 -287h-21l101 430h20zM84 -287h-21l101 430h20z" />
<glyph unicode="&#x2026;" horiz-adv-x="786" d="M670 20q0 -12 -9 -21t-22 -9q-12 0 -21.5 9t-9.5 21t9.5 21.5t21.5 9.5q13 0 22 -9.5t9 -21.5zM178 20q0 -12 -9 -21t-22 -9q-12 0 -21 9t-9 21t9 21.5t21 9.5q13 0 22 -9.5t9 -21.5zM424 20q0 -12 -9 -21t-22 -9q-12 0 -21.5 9t-9.5 21t9.5 21.5t21.5 9.5q13 0 22 -9.5 t9 -21.5z" />
<glyph unicode="&#x202f;" horiz-adv-x="376" />
<glyph unicode="&#x2039;" horiz-adv-x="524" d="M375 147h-25l-239 338v13l239 338h25l-244 -344z" />
<glyph unicode="&#x203a;" horiz-adv-x="524" d="M174 147h-24l243 345l-243 344h24l240 -338v-13z" />
<glyph unicode="&#x205f;" horiz-adv-x="471" />
<glyph unicode="&#x20ac;" horiz-adv-x="1531" d="M1372 82q-172 -102 -397 -102q-120 0 -232.5 34.5t-208.5 100.5t-165.5 173.5t-94.5 243.5h-176v21h174q-10 68 -10 133q0 85 14 154h-178v20h183q27 131 96 237.5t163 174.5t205.5 104.5t227.5 36.5q228 0 399 -100v-21q-180 101 -399 101q-113 0 -221 -35t-199 -101 t-158 -168.5t-94 -228.5h842v-20h-846q-14 -69 -14 -154q0 -65 10 -133h850v-21h-846q25 -131 91.5 -235t159.5 -167.5t201.5 -96.5t225.5 -33q213 0 397 102v-20z" />
<glyph unicode="&#x2122;" horiz-adv-x="1335" d="M645 922h-20v512h22l244 -336l246 336h22v-512h-20v481l-240 -328h-16l-238 328v-481zM311 922h-20v491h-195v21h410v-21h-195v-491z" />
<glyph unicode="&#x25fc;" horiz-adv-x="983" d="M0 983h983v-983h-983v983z" />
</font>
</defs>
</svg>
