<?xml version="1.0" standalone="no"?>
<!DOCTYPE svg PUBLIC "-//W3C//DTD SVG 1.1//EN" "http://www.w3.org/Graphics/SVG/1.1/DTD/svg11.dtd" >
<svg xmlns="http://www.w3.org/2000/svg" xmlns:xlink="http://www.w3.org/1999/xlink" version="1.1">
<metadata></metadata>
<defs>
<font id="mullerbold_italic" horiz-adv-x="1269" >
<font-face units-per-em="2048" ascent="1597" descent="-451" />
<missing-glyph horiz-adv-x="454" />
<glyph horiz-adv-x="0" />
<glyph horiz-adv-x="682" />
<glyph unicode=" "  horiz-adv-x="454" />
<glyph unicode="&#x09;" horiz-adv-x="454" />
<glyph unicode="&#xa0;" horiz-adv-x="454" />
<glyph unicode="!" horiz-adv-x="555" d="M393 492h-264l131 942h301zM377 123q-13 -75 -63.5 -112.5t-120.5 -37.5q-77 0 -123.5 49t-32.5 138q11 74 61.5 110.5t120.5 36.5q78 0 123.5 -48t34.5 -136z" />
<glyph unicode="&#x22;" horiz-adv-x="825" d="M754 985h-201l72 449h254zM367 985h-201l72 449h254z" />
<glyph unicode="#" horiz-adv-x="1409" d="M315 0h-272l121 309h-139l32 209h191l141 359h-172l35 208h219l121 310h274l-121 -310h261l120 310h273l-121 -310h137l-33 -208h-188l-139 -359h168l-35 -209h-217l-123 -309h-273l121 309h-258zM662 877l-142 -359h260l142 359h-260z" />
<glyph unicode="$" horiz-adv-x="1243" d="M596 -266h-223l39 243q-223 26 -400 125l45 287q190 -147 478 -147q274 0 296 139q6 41 -15 75t-62 58.5t-95.5 47.5t-114.5 47t-120 50.5t-112 63.5t-90 82t-54 109.5t-4 142.5q18 106 88.5 185t168.5 121t216 54l39 242h223l-39 -248q198 -25 332 -106l-43 -275 q-169 124 -416 121q-112 -2 -182 -30.5t-80 -88.5q-6 -40 15.5 -72.5t62.5 -57t95.5 -47t115 -46t120.5 -50t112.5 -64t90 -82.5t54 -110.5t4.5 -144.5q-15 -96 -62 -169t-118 -117t-151.5 -68t-174.5 -31z" />
<glyph unicode="%" horiz-adv-x="1884" d="M518 -123h-209l1104 1679h209zM879 1092q-25 -159 -141.5 -246.5t-268.5 -87.5q-75 0 -139.5 24.5t-112 69.5t-68 116.5t-6.5 159.5q25 160 141 247t269 87q74 0 138 -24.5t111.5 -69.5t69 -116.5t7.5 -159.5zM367 1096q-5 -53 23 -90t93 -37q73 0 118.5 45t51.5 110 q3 55 -24 91t-90 36q-76 0 -121 -44.5t-51 -110.5zM1780 305q-17 -107 -79 -184.5t-146.5 -113.5t-182.5 -36q-75 0 -140 24.5t-112.5 70t-68.5 117t-7 159.5q17 107 79.5 184.5t148 113.5t184.5 36q73 0 137.5 -24.5t111.5 -70t68 -117t7 -159.5zM1270 309q-5 -53 23 -90 t93 -37q73 0 117.5 45t50.5 111q5 55 -22 91t-90 36q-76 0 -121 -45t-51 -111z" />
<glyph unicode="&#x26;" horiz-adv-x="1474" d="M1169 254l226 -254h-308l-96 106q-214 -135 -475 -135q-233 0 -364 115.5t-103 294.5q23 130 115.5 220t234.5 161q-139 170 -110 334q26 164 170.5 265t347.5 101q185 0 303.5 -108t91.5 -262q-10 -59 -41 -112.5t-69.5 -92.5t-97 -78t-104.5 -63.5t-112 -55.5l226 -252 q87 117 102 262h278q-12 -117 -68 -233t-147 -213zM784 1235q-100 0 -160 -48.5t-71 -125.5q-13 -83 74 -199q65 27 106 46.5t90 49.5t76.5 65t34.5 75q9 54 -33.5 95.5t-116.5 41.5zM340 381q-11 -77 49 -124.5t174 -47.5q139 0 268 74l-278 305q-89 -41 -145 -89.5 t-68 -117.5z" />
<glyph unicode="'" horiz-adv-x="438" d="M367 985h-201l72 449h254z" />
<glyph unicode="(" horiz-adv-x="645" d="M547 1659h233q-325 -458 -401 -934q-38 -243 -12 -502t108 -450h-221q-111 206 -155 459t-5 503q38 240 159.5 486.5t293.5 437.5z" />
<glyph unicode=")" horiz-adv-x="647" d="M209 1661h219q111 -205 156 -465t6 -510q-38 -238 -159 -478.5t-294 -432.5h-233q149 211 255 455t144 491q39 247 13 497t-107 443z" />
<glyph unicode="*" horiz-adv-x="985" d="M553 913l-174 -251l-203 153l209 184l-246 50l127 247l219 -116l9 254h266l-74 -254l246 116l55 -247l-264 -50l154 -184l-234 -153z" />
<glyph unicode="+" horiz-adv-x="1101" d="M711 838h358l-39 -242h-358l-58 -358h-239l57 358h-360l39 242h358l57 358h242z" />
<glyph unicode="," horiz-adv-x="542" d="M109 -297h-234l217 551h305z" />
<glyph unicode="-" horiz-adv-x="989" d="M119 618h762l-39 -239h-762z" />
<glyph unicode="." horiz-adv-x="509" d="M358 123q-13 -75 -63.5 -112.5t-120.5 -37.5q-79 0 -125.5 49t-32.5 138q11 74 63 111.5t122 37.5q79 0 124.5 -48t32.5 -138z" />
<glyph unicode="/" horiz-adv-x="937" d="M147 -121h-210l890 1675h211z" />
<glyph unicode="0" horiz-adv-x="1443" d="M106 715q23 151 79.5 276.5t145.5 223t219 152t290 54.5q126 0 226.5 -37.5t165 -105t104.5 -161t45.5 -204t-11.5 -235.5q-19 -120 -58 -224.5t-102 -194t-144.5 -153t-191 -99.5t-237.5 -36q-105 0 -193 26.5t-150.5 75t-108 116t-66.5 150.5t-26.5 178t13.5 198z M1067 698q71 453 -246 453q-173 0 -275.5 -113t-139.5 -344q-71 -452 245 -452q346 0 416 456z" />
<glyph unicode="1" horiz-adv-x="940" d="M567 1393h226l-179 -1129h232l-43 -264h-795l43 264h262l131 821l-278 -98l43 277z" />
<glyph unicode="2" horiz-adv-x="1218" d="M238 1276q234 145 487 145q103 0 191 -26.5t154 -77.5t96.5 -135t13.5 -191q-10 -66 -37 -123t-59.5 -97t-88.5 -83.5t-101 -71.5t-122 -71q-35 -20 -85.5 -48t-79.5 -44t-67 -38.5t-59.5 -38.5t-43.5 -35.5t-33 -38t-15 -38.5h686l-43 -264h-1044l24 145q8 54 25 103.5 t35.5 89t49 79t55 67.5t66 60.5t68 51.5t75 47.5t74 42.5t76.5 41q10 5 15 8q160 82 202 111q104 69 122 154l2 14q10 67 -42 103t-153 36q-235 0 -489 -172z" />
<glyph unicode="3" horiz-adv-x="1216" d="M1143 1018q-17 -102 -83.5 -176t-174.5 -109q109 -36 171.5 -129.5t39.5 -241.5q-16 -103 -72 -180.5t-140 -122.5t-183 -66.5t-212 -21.5q-259 0 -475 97l41 274q183 -102 424 -102q87 1 155.5 19.5t119 63t61.5 111.5q12 81 -39.5 116.5t-161.5 35.5h-249l45 262h186 q107 -2 174.5 36.5t77.5 110.5q12 73 -43.5 115.5t-173.5 42.5q-209 0 -445 -129l47 293q201 104 453 104q105 0 193.5 -26.5t153 -75.5t94.5 -127t16 -174z" />
<glyph unicode="4" horiz-adv-x="1343" d="M891 1393h307l-141 -883h211l-39 -256h-211l-41 -254h-293l41 254h-731l39 254zM764 510l78 491l-475 -491h397z" />
<glyph unicode="5" horiz-adv-x="1204" d="M305 1393h885l-43 -263l-615 3l-59 -271q97 19 178 19q100 0 186 -27t153 -81t97.5 -146t12.5 -211q-19 -114 -78.5 -201t-148 -139.5t-194.5 -78.5t-226 -26q-248 0 -441 99l41 270q74 -47 177 -73.5t204 -26.5q156 0 252 50.5t113 155.5q15 97 -55 148t-218 51 q-202 0 -391 -63z" />
<glyph unicode="6" horiz-adv-x="1314" d="M432 817q181 84 367 84q69 0 136 -18.5t126 -58t100.5 -93.5t59.5 -132t4 -167q-18 -113 -72 -202t-133.5 -145t-177.5 -85t-209 -29q-313 0 -448 197t-79 547q23 146 75 265t123.5 200t162.5 136t190 80t207 25q211 0 381 -88l-41 -258q-131 88 -311 88 q-347 0 -461 -346zM627 221q115 0 195.5 52.5t99.5 166.5q16 104 -49 154.5t-177 50.5q-154 0 -311 -94q-4 -93 12 -159t50 -102.5t78 -52.5t102 -16z" />
<glyph unicode="7" horiz-adv-x="1159" d="M174 1395h1071l-35 -221l-755 -1174h-336l731 1130h-719z" />
<glyph unicode="8" horiz-adv-x="1341" d="M1223 352q-12 -77 -55 -143.5t-117 -120.5t-191 -85.5t-264 -31.5q-143 0 -255.5 36.5t-178 98t-94 139.5t-15.5 163q15 97 87.5 187.5t183.5 152.5q-148 130 -117 307q10 55 35.5 106t72.5 99t110.5 83t156 56.5t202.5 21.5q120 0 220 -36.5t162 -95.5t92 -133.5 t18 -151.5q-13 -93 -67.5 -166t-157.5 -142q66 -39 106.5 -81.5t60.5 -110t5 -152.5zM358 422q-11 -89 59 -149t212 -60q115 0 197 46.5t94 113.5q7 46 -6 78.5t-53 56.5t-72.5 36.5t-100.5 33.5q-96 29 -174 61q-139 -100 -156 -217zM696 831q52 -14 144 -47 q130 108 145 224q10 69 -50.5 120.5t-172.5 51.5q-109 0 -181.5 -41.5t-84.5 -110.5q-6 -40 7 -71.5t44 -54.5t65 -38.5t84 -32.5z" />
<glyph unicode="9" horiz-adv-x="1312" d="M121 961q25 150 112 255.5t209.5 155t270.5 49.5q313 0 447.5 -196.5t78.5 -546.5q-28 -182 -100 -320.5t-174 -221.5t-223.5 -124t-260.5 -41q-211 0 -385 86l41 258q133 -86 316 -86q351 0 460 346q-172 -81 -352 -81q-92 0 -177 30t-151.5 86t-98 147.5t-13.5 203.5z M707 1169q-110 0 -186.5 -53.5t-94.5 -161.5q-9 -56 5.5 -97.5t47.5 -66t77 -36t97 -11.5q149 0 305 95q4 94 -12.5 160t-52 102.5t-81 52.5t-105.5 16z" />
<glyph unicode=":" horiz-adv-x="573" d="M483 745q-11 -75 -62 -112t-122 -37q-79 0 -124.5 48.5t-31.5 137.5q11 75 62 112.5t121 37.5q80 0 125.5 -49t31.5 -138zM387 123q-13 -75 -63.5 -112.5t-120.5 -37.5q-79 0 -125.5 49t-32.5 138q11 74 62.5 111.5t119.5 37.5q81 0 127 -48t33 -138z" />
<glyph unicode=";" horiz-adv-x="598" d="M131 -297h-233l217 551h305zM508 803q-13 -75 -64 -113.5t-120 -38.5q-79 0 -125.5 49.5t-32.5 139.5q11 73 62 110t120 37q81 0 127 -48t33 -136z" />
<glyph unicode="&#x3c;" horiz-adv-x="1034" d="M885 535l-41 -256l-768 296l45 283l862 297l-41 -260l-594 -184z" />
<glyph unicode="=" horiz-adv-x="1185" d="M1096 801h-942l36 239h945zM1030 393h-942l39 240h942z" />
<glyph unicode="&#x3e;" horiz-adv-x="1036" d="M952 575l-862 -301l41 261l598 188l-541 176l41 256l770 -297z" />
<glyph unicode="?" horiz-adv-x="1019" d="M578 471h-271q8 56 34 109.5t61.5 97.5t77 85.5t82 79t75 72.5t58.5 71.5t30 70.5q10 75 -42 105t-157 30q-171 0 -376 -107l43 277q192 100 399 100q96 0 179.5 -22t150 -65.5t97.5 -118.5t15 -171q-8 -56 -36.5 -110.5t-67 -99t-84 -88t-90 -83.5t-82.5 -77.5t-64 -78 t-32 -77.5zM563 123q-13 -75 -63.5 -112.5t-120.5 -37.5q-79 0 -125.5 49t-32.5 138q11 74 63 111.5t122 37.5q79 0 124.5 -48t32.5 -138z" />
<glyph unicode="@" horiz-adv-x="2144" d="M61 516q24 148 87 286t165.5 258t234.5 209.5t303 141t361 51.5q186 0 340 -55.5t254 -147t164.5 -209.5t84.5 -244.5t1 -250.5q-43 -273 -177.5 -408t-344.5 -135q-125 0 -209.5 58t-103.5 149q-109 -156 -306 -156q-119 0 -202 65t-114 165t-13 213q13 79 48 150.5 t89.5 129.5t133.5 92.5t171 34.5q91 0 161 -44t105 -109l21 129h219l-82 -516q-11 -75 13 -112.5t91 -37.5q68 0 119 48.5t80 125t45 181.5q11 55 7 111.5t-15 112.5t-38 109t-61 100t-85 86t-110 67.5t-135 44.5t-161 16q-178 0 -335.5 -59t-269.5 -159.5t-185.5 -232.5 t-96.5 -280q-22 -142 4 -263t90 -206.5t159.5 -146t211 -89.5t244.5 -29q225 0 461 76l-27 -244q-203 -69 -454 -69q-141 0 -271.5 28.5t-245 84.5t-204 140t-148 194t-79 247t4.5 299zM1243 575q-9 58 -52.5 96t-111.5 38q-99 0 -169 -65.5t-85 -164.5q-13 -87 28 -150 t128 -63q78 0 143 44.5t93 105.5z" />
<glyph unicode="A" horiz-adv-x="1513" d="M1413 0h-309l-64 268h-657l-145 -268h-326l811 1434h334zM801 1028l-281 -506h463l-115 506q-13 55 -16 123q-27 -76 -51 -123z" />
<glyph unicode="B" horiz-adv-x="1406" d="M287 1434h606q108 0 196.5 -24.5t152.5 -71t93 -120.5t15 -167q-36 -226 -267 -299q51 -16 93.5 -44.5t76 -72t47 -108.5t0.5 -144q-59 -383 -618 -383h-623zM1004 432q10 56 -3.5 94.5t-47.5 57.5t-72 26.5t-88 7.5h-330l-57 -368h301q265 0 297 182zM1040 1016 q15 85 -33.5 125.5t-152.5 40.5h-301l-51 -328h303q93 0 157.5 42.5t77.5 119.5z" />
<glyph unicode="C" horiz-adv-x="1331" d="M96 745q23 141 87.5 261.5t153 203t196.5 140.5t217 85t215 27q232 0 403 -104l-43 -275q-126 107 -324 107q-76 0 -151 -16.5t-149.5 -53t-134.5 -90.5t-104 -134.5t-59 -178.5q-18 -117 11 -209.5t92.5 -148t145.5 -84.5t173 -29q220 0 396 116l-50 -305 q-179 -86 -409 -86q-113 0 -219 29.5t-198.5 93t-156.5 153t-90 218.5t-2 280z" />
<glyph unicode="D" horiz-adv-x="1519" d="M287 1434h530q239 0 397 -95.5t218.5 -260.5t27.5 -380q-25 -156 -89 -282t-166.5 -220t-252.5 -145t-336 -51h-557zM1151 735q35 213 -57.5 320.5t-305.5 107.5h-237l-141 -893h223q214 0 348.5 119t169.5 346z" />
<glyph unicode="E" horiz-adv-x="1265" d="M287 1434h1009l-43 -271h-704l-47 -305h641l-41 -268h-643l-51 -320h716l-43 -270h-1022z" />
<glyph unicode="F" horiz-adv-x="1241" d="M287 1434h1011l-43 -277h-706l-51 -334h645l-43 -276h-647l-86 -547h-308z" />
<glyph unicode="G" horiz-adv-x="1435" d="M96 741q20 124 68.5 230.5t116 184t150.5 137.5t175.5 96.5t186 54.5t186.5 18q242 0 432 -96l-43 -279q-132 101 -364 101q-96 0 -190 -27.5t-179.5 -83t-147 -151t-81.5 -219.5q-17 -107 1 -191t58.5 -135t100.5 -83.5t120 -45t125 -12.5q98 0 174 28l82 510h293 l-113 -712q-222 -95 -467 -95q-121 0 -231 28t-204.5 89t-158 149.5t-89 218t-1.5 285.5z" />
<glyph unicode="H" horiz-adv-x="1566" d="M1237 1434h307l-227 -1434h-307l90 578h-643l-90 -578h-308l228 1434h307l-92 -578h643z" />
<glyph unicode="I" horiz-adv-x="616" d="M287 1434h307l-227 -1434h-308z" />
<glyph unicode="J" horiz-adv-x="1050" d="M352 1434h686l-157 -1004q-16 -101 -53 -179.5t-89.5 -130t-121.5 -85t-144.5 -48t-163.5 -14.5q-230 0 -364 78l43 277q119 -72 278 -72q280 0 316 227l106 674h-379z" />
<glyph unicode="K" horiz-adv-x="1413" d="M1190 1434h340l-569 -721l364 -713h-326l-299 586h-241l-92 -586h-308l228 1434h307l-90 -570h237z" />
<glyph unicode="L" horiz-adv-x="1185" d="M287 1434h307l-184 -1158h704l-45 -276h-1010z" />
<glyph unicode="M" horiz-adv-x="1857" d="M1524 1434h311l-227 -1434h-305l141 889l-451 -563h-207l-276 567l-143 -893h-308l228 1434h276l365 -748z" />
<glyph unicode="N" horiz-adv-x="1566" d="M367 0h-308l228 1434h256l555 -936q7 107 22 200l117 736h307l-227 -1434h-256l-555 936q-2 -66 -19 -191z" />
<glyph unicode="O" horiz-adv-x="1667" d="M1612 698q-18 -115 -63.5 -221t-121 -198.5t-173.5 -161t-227.5 -107.5t-276.5 -39q-119 0 -222 29t-178.5 80.5t-133.5 123t-88 156t-41 180t7 195.5q23 144 92 273.5t176 231.5t261.5 162t334.5 60q172 0 309.5 -63.5t219.5 -169t115.5 -243.5t9.5 -288zM401 709 q-14 -90 1 -170.5t58 -144t121.5 -101t184.5 -37.5q221 0 363 132t174 337q14 90 -1 170.5t-58 144t-121.5 101t-184.5 37.5q-219 0 -361 -132t-176 -337z" />
<glyph unicode="P" horiz-adv-x="1368" d="M287 1434h540q99 0 183.5 -15.5t159.5 -52t123.5 -92.5t69 -143t3.5 -197q-17 -106 -59 -186.5t-102 -132.5t-142.5 -84.5t-173 -46t-201.5 -13.5h-248l-73 -471h-308zM1057 956q35 207 -244 207h-262l-68 -422h250q289 0 324 215z" />
<glyph unicode="Q" horiz-adv-x="1667" d="M1513 66l-227 -183l-147 172q-179 -84 -389 -84q-119 0 -222 29t-178.5 80.5t-133.5 123t-88 156t-41 180t7 195.5q23 144 92 273.5t176 231.5t261.5 162t334.5 60q172 0 309.5 -63.5t219.5 -169t115.5 -243.5t9.5 -288q-21 -134 -81 -257t-155 -218zM401 709 q-14 -90 1 -170.5t58 -144t121.5 -101t184.5 -37.5q93 0 172 31l-143 170l217 190l168 -196q98 112 123 274q14 90 -1 170.5t-58 144t-121.5 101t-184.5 37.5q-219 0 -361 -132t-176 -337z" />
<glyph unicode="R" horiz-adv-x="1445" d="M367 0h-308l228 1434h581q84 0 160 -14.5t147.5 -50t119.5 -89t69.5 -138.5t5.5 -192q-52 -318 -375 -411l334 -539h-332l-301 502h-252zM551 1163l-64 -405h289q108 0 187.5 53.5t95.5 155.5q17 105 -42.5 150.5t-168.5 45.5h-297z" />
<glyph unicode="S" horiz-adv-x="1232" d="M166 1077q16 96 70 171.5t133 121t172.5 69t195.5 23.5q130 0 250.5 -32.5t204.5 -86.5l-41 -274q-172 126 -403 123q-256 -3 -273 -139q-5 -43 24.5 -79t81 -60t117 -51.5t134 -53.5t131.5 -66t109 -87.5t66.5 -121t4.5 -163.5q-15 -90 -55.5 -160t-96 -114.5 t-129.5 -73.5t-151.5 -40.5t-167.5 -11.5q-309 0 -525 133l45 283q196 -145 472 -145q274 0 296 139q7 45 -14.5 81.5t-62 62.5t-95 50t-114.5 47.5t-120 50.5t-112 64t-89.5 82.5t-53.5 111.5t-4 146z" />
<glyph unicode="T" horiz-adv-x="1241" d="M160 1434h1186l-43 -277h-441l-182 -1157h-307l184 1157h-440z" />
<glyph unicode="U" horiz-adv-x="1538" d="M1223 1434h307l-144 -904q-20 -124 -68 -221t-113.5 -159.5t-151 -103.5t-175.5 -58t-192 -17q-97 0 -184 18.5t-165 62.5t-130 108.5t-74 164t-2 222.5l139 887h308l-142 -887q-25 -162 45 -230.5t219 -68.5q333 0 385 315z" />
<glyph unicode="V" horiz-adv-x="1454" d="M791 0h-316l-330 1434h320l213 -1074l557 1074h342z" />
<glyph unicode="W" horiz-adv-x="2160" d="M1935 1434h338l-665 -1434h-342l-129 969l-439 -969h-338l-215 1434h320l119 -1082l485 1082h266l140 -1074z" />
<glyph unicode="X" horiz-adv-x="1380" d="M254 0h-367l650 739l-383 695h344l243 -457l398 457h366l-612 -697l405 -737h-344l-264 504z" />
<glyph unicode="Y" horiz-adv-x="1437" d="M776 0h-305l82 508l-414 926h332l266 -646l469 646h359l-707 -926z" />
<glyph unicode="Z" horiz-adv-x="1257" d="M1094 0h-1123l33 217l832 940h-650l43 277h1067l-32 -222l-832 -936h705z" />
<glyph unicode="[" horiz-adv-x="679" d="M492 -225h-494l297 1884h493l-38 -256h-207l-219 -1370h206z" />
<glyph unicode="\" horiz-adv-x="917" d="M760 -121h-201l-360 1675h200z" />
<glyph unicode="]" horiz-adv-x="677" d="M424 -225h-494l39 258h209l217 1370h-207l39 256h494z" />
<glyph unicode="^" horiz-adv-x="1208" d="M403 725h-313l524 709h250l301 -709h-293l-163 426z" />
<glyph unicode="_" horiz-adv-x="993" d="M842 -354h-992l39 241h992z" />
<glyph unicode="`" horiz-adv-x="518" d="M702 1565h-282l-174 303h319z" />
<glyph unicode="a" d="M831 145q-138 -174 -370 -174q-113 0 -200.5 45t-137.5 120t-68.5 172t-1.5 202q16 98 60.5 187.5t113 160t165.5 112.5t208 42q125 0 209.5 -55.5t128.5 -137.5l27 164h249l-155 -983h-250zM336 485q-18 -114 37 -194t168 -80q94 0 172 49.5t123 122.5l38 229 q-18 69 -76.5 114.5t-142.5 45.5q-125 0 -211.5 -81t-107.5 -206z" />
<glyph unicode="b" horiz-adv-x="1271" d="M252 1434h285l-93 -560q141 138 336 138q109 0 195.5 -45t137.5 -120t71 -172t4 -202q-16 -99 -59 -187.5t-110.5 -159.5t-165.5 -113t-214 -42q-125 0 -209.5 53.5t-124.5 131.5l-29 -156h-251zM903 494q18 117 -36.5 197.5t-166.5 80.5q-92 0 -170.5 -49t-126.5 -123 l-36 -229q21 -71 76.5 -115.5t138.5 -44.5q128 0 215 79t106 204z" />
<glyph unicode="c" horiz-adv-x="1009" d="M51 506q16 107 62.5 194t109 144.5t140 96.5t155.5 56t156 17q177 0 311 -84l-39 -236q-97 72 -241 72q-64 0 -122.5 -16t-110.5 -48.5t-88 -88.5t-48 -130q-19 -132 56 -199t204 -67q148 0 299 74l-41 -256q-149 -64 -328 -64q-108 0 -200.5 32.5t-163 95.5 t-101.5 168.5t-10 238.5z" />
<glyph unicode="d" d="M1004 1434h282l-227 -1434h-250l22 145q-128 -174 -370 -174q-113 0 -200.5 45t-137.5 120t-68.5 172t-1.5 202q16 98 60.5 187.5t112.5 160t164.5 112.5t205.5 42t189.5 -43.5t125.5 -112.5zM874 618q-20 66 -78 110t-141 44q-125 0 -211.5 -80.5t-107.5 -208.5 q-18 -112 37 -192t168 -80q94 0 172 49.5t123 122.5z" />
<glyph unicode="e" horiz-adv-x="1112" d="M51 512q15 103 57 187.5t99 141.5t127 96.5t141.5 57t142.5 17.5q96 0 174 -25.5t129 -70t83.5 -104t42.5 -128t1 -141.5t-36 -146h-695q4 -53 31 -93t70.5 -62.5t94 -33.5t108.5 -11q187 0 321 67l-35 -231q-144 -62 -356 -62q-113 0 -211.5 36.5t-170.5 103t-104.5 171 t-13.5 230.5zM786 582q5 24 7.5 52t-9 56.5t-30 52t-55 38t-85.5 14.5q-99 0 -173.5 -59t-94.5 -154h440z" />
<glyph unicode="f" horiz-adv-x="823" d="M295 1096q13 84 45 149t74.5 105t97 66t107.5 36t112 10q143 0 238 -45l-35 -223q-63 29 -146 29q-189 0 -213 -156l-14 -84h299l-37 -240h-301l-116 -743h-285l119 743h-170l39 240h167z" />
<glyph unicode="g" horiz-adv-x="1273" d="M1063 18q-21 -131 -80 -229t-144.5 -155t-185 -85t-211.5 -28q-246 0 -422 100l39 240q146 -101 357 -101q92 0 165.5 25t127.5 86t69 152l15 90q-47 -59 -131 -100.5t-203 -41.5q-113 0 -200.5 45t-137.5 120t-68.5 172t-1.5 202q16 98 61.5 187.5t114 160t165.5 112.5 t206 42q236 0 336 -185l27 156h253zM334 483q-18 -112 37 -192t168 -80q94 0 172 48t123 120l38 239q-20 66 -78 110t-141 44q-125 0 -211.5 -80.5t-107.5 -208.5z" />
<glyph unicode="h" horiz-adv-x="1206" d="M252 1434h285l-88 -545q66 55 148 89t163 34q123 0 207 -56t117.5 -149t15.5 -207l-96 -600h-285l92 580q14 94 -26 140t-119 46q-72 0 -140 -39t-118 -94l-99 -633h-284z" />
<glyph unicode="i" horiz-adv-x="530" d="M313 0h-284l155 983h285zM543 1290q-11 -72 -60.5 -108.5t-117.5 -36.5q-75 0 -120 47t-32 133q11 72 60.5 108.5t117.5 36.5q76 0 120.5 -47.5t31.5 -132.5z" />
<glyph unicode="j" horiz-adv-x="530" d="M287 -162q-14 -91 -49 -155t-88 -98.5t-111.5 -49t-132.5 -14.5q-105 0 -187 35l37 233q40 -18 101 -18q67 0 106.5 34t52.5 111l168 1067h285zM543 1290q-11 -72 -60.5 -108.5t-117.5 -36.5q-75 0 -120 47t-32 133q11 72 60.5 108.5t117.5 36.5q76 0 120.5 -47.5 t31.5 -132.5z" />
<glyph unicode="k" horiz-adv-x="1116" d="M831 983h328l-422 -491l285 -492h-299l-225 397h-127l-62 -397h-284l227 1434h285l-131 -811h122z" />
<glyph unicode="l" horiz-adv-x="530" d="M266 1495h285l-238 -1495h-284z" />
<glyph unicode="m" horiz-adv-x="1787" d="M1020 868q169 144 346 144q65 0 119 -17.5t89 -47t61.5 -69t37 -84t15 -90.5t-4.5 -90l-98 -614h-282l98 618q10 70 -25 109t-100 39q-114 0 -217 -107q0 -17 -4 -45l-99 -614h-282l98 618q10 70 -24.5 109t-100.5 39t-129 -39t-108 -92l-101 -635h-284l155 983h250 l-18 -119q58 60 149.5 104t190.5 44q193 0 268 -144z" />
<glyph unicode="n" horiz-adv-x="1206" d="M410 856q78 73 172 114.5t188 41.5q179 0 268 -117.5t62 -290.5l-96 -604h-285l92 580q14 95 -25.5 140.5t-119.5 45.5q-72 0 -140 -39t-118 -92l-99 -635h-284l155 983h250z" />
<glyph unicode="o" horiz-adv-x="1214" d="M1130 467q-15 -97 -57.5 -179.5t-102.5 -140t-134.5 -98t-154 -59.5t-159.5 -19q-110 0 -203.5 36.5t-161 103.5t-97 172t-9.5 233q19 121 78.5 217.5t144 156.5t184 91t206.5 31q104 0 196.5 -36.5t160.5 -103.5t99 -172.5t10 -232.5zM334 487q-16 -113 38 -187.5 t173 -74.5q120 0 201 74.5t102 196.5q16 113 -37 187.5t-170 74.5q-121 0 -203.5 -74.5t-103.5 -196.5z" />
<glyph unicode="p" d="M408 838q61 78 156.5 126t215.5 48q109 0 195.5 -45t137.5 -120t71 -172t4 -202q-16 -98 -60.5 -187.5t-113 -160t-165.5 -112.5t-208 -42q-216 0 -313 154l-90 -576h-285l227 1434h252zM903 500q18 112 -37 192t-168 80q-93 0 -171 -50.5t-126 -123.5l-36 -233 q20 -67 77.5 -110.5t141.5 -43.5q125 0 211.5 81.5t107.5 207.5z" />
<glyph unicode="q" d="M53 510q16 98 60.5 187.5t113 160t165.5 112.5t208 42q125 0 211 -56.5t127 -136.5l27 164h249l-227 -1434h-282l88 553q-124 -131 -332 -131q-113 0 -200.5 45t-137.5 120t-68.5 172t-1.5 202zM874 618q-18 64 -77 109t-142 45q-125 0 -211.5 -81.5t-107.5 -207.5 q-18 -112 37 -192t168 -80q95 0 173 50t122 122z" />
<glyph unicode="r" horiz-adv-x="804" d="M410 840q135 189 428 161l-43 -274q-124 27 -231 -18t-167 -142l-88 -567h-284l155 983h252z" />
<glyph unicode="s" horiz-adv-x="978" d="M90 727q13 80 58 138t111.5 88.5t136 44.5t145.5 14q199 0 364 -84l-37 -234q-66 45 -153 73t-172 28q-64 0 -109 -19.5t-51 -60.5q-5 -32 22.5 -56.5t74.5 -42t104.5 -35t113.5 -43t100 -59.5t66 -90.5t10 -130.5q-46 -287 -479 -287q-115 0 -217 25t-170 70l37 235 q68 -51 164.5 -78.5t191.5 -27.5q171 0 185 77q5 31 -22 55t-74 41.5t-104.5 36t-114 44.5t-101 60t-67.5 90t-13 128z" />
<glyph unicode="t" horiz-adv-x="849" d="M297 1268l293 69l-55 -354h311l-39 -240h-311l-64 -393q-12 -76 18.5 -107.5t110.5 -31.5q104 0 191 37l-37 -234q-97 -43 -256 -43q-73 0 -133.5 19.5t-107.5 58.5t-67 106.5t-6 155.5l68 432h-166l39 240h164z" />
<glyph unicode="u" horiz-adv-x="1204" d="M864 983h283l-156 -983h-250l21 127q-64 -74 -151.5 -115t-188.5 -41q-186 0 -280 119t-66 295l94 598h283l-91 -580q-16 -95 24.5 -140.5t121.5 -45.5q77 0 144 37.5t112 93.5z" />
<glyph unicode="v" horiz-adv-x="1153" d="M885 983h317l-573 -983h-299l-250 983h291l145 -682z" />
<glyph unicode="w" horiz-adv-x="1677" d="M1405 983h313l-483 -983h-299l-90 639l-307 -639h-295l-160 983h283l88 -651l303 651h270l92 -651z" />
<glyph unicode="x" horiz-adv-x="1081" d="M240 0h-334l465 514l-285 469h305l162 -278l242 278h331l-442 -489l299 -494h-303l-178 303z" />
<glyph unicode="y" horiz-adv-x="1153" d="M545 311l321 672h330l-608 -1108q-106 -194 -221 -273t-250 -79q-85 0 -170 31l39 233q50 -20 104 -20q83 0 142.5 55t125.5 176l17 18l-307 967h297z" />
<glyph unicode="z" horiz-adv-x="987" d="M154 983h802l-28 -182l-547 -563h487l-39 -238h-860l29 184l547 564h-428z" />
<glyph unicode="{" horiz-adv-x="727" d="M559 27l-39 -256q-111 -23 -191.5 -9.5t-130.5 56t-69 108t-6 146.5l61 393q7 42 0.5 69t-28 39t-44 15.5t-59.5 3.5l41 252q76 -6 118.5 26t55.5 119l62 391q29 182 155 253t334 24l-41 -246q-84 14 -126 -30t-58 -146l-49 -309q-17 -107 -71.5 -154.5t-135.5 -54.5 q31 -2 58 -14.5t50 -39.5t30 -69t-1 -102l-49 -312q-15 -95 13.5 -131.5t119.5 -21.5z" />
<glyph unicode="|" horiz-adv-x="538" d="M287 -205h-287l295 1864h287z" />
<glyph unicode="}" horiz-adv-x="727" d="M436 53q-30 -183 -153.5 -255t-335.5 -21l39 250q85 -18 126.5 20t59.5 141l51 328q16 99 75 150.5t138 54.5q-68 3 -114.5 64t-30.5 161l49 311q16 96 -12 132t-121 22l39 252q109 23 189.5 9.5t131 -56t70 -108t6.5 -146.5l-61 -393q-7 -26 -3 -45.5t7.5 -33t15.5 -23 t22 -15t26.5 -8t29.5 -3.5t31 -1l-39 -250q-148 10 -172 -146z" />
<glyph unicode="~" horiz-adv-x="1234" d="M1153 842q-3 -166 -86 -251t-213 -85q-67 0 -150.5 28t-153.5 55t-108 25q-39 0 -63.5 -26t-24.5 -72h-239q4 169 87 252.5t206 83.5q73 0 154.5 -27t150 -53.5t110.5 -26.5q40 0 64 24.5t24 72.5h242z" />
<glyph unicode="&#xa1;" horiz-adv-x="532" d="M250 -449h-299l168 943h262zM475 825q-11 -74 -61.5 -110.5t-120.5 -36.5q-78 0 -124 48t-32 136q11 75 62 112.5t120 37.5q80 0 125 -48.5t31 -138.5z" />
<glyph unicode="&#xa2;" horiz-adv-x="1046" d="M989 930l-39 -236q-74 56 -178 68l-86 -539q100 13 213 68l-41 -256q-103 -44 -211 -58l-35 -223h-184l35 221q-97 10 -177.5 47t-140.5 100.5t-85 162.5t-5 221q19 124 77 221t139 156t171 91t185 38l35 217h184l-37 -228q107 -23 180 -71zM586 750q-96 -25 -162 -91.5 t-84 -175.5q-14 -105 31 -169t133 -87z" />
<glyph unicode="&#xa3;" horiz-adv-x="1234" d="M1067 0h-1081l41 250h45q70 0 118 52t60 132l22 137h-163l34 230h164l23 135q20 128 73.5 224t131 152t167 82.5t191.5 26.5q179 0 330 -80l-37 -235q-111 80 -264 80q-122 0 -205 -67t-105 -206l-18 -112h395l-35 -230h-395l-27 -155q-9 -68 -33.5 -107t-72.5 -59h682z " />
<glyph unicode="&#xa4;" horiz-adv-x="1165" d="M344 362l-151 -129l-130 148l142 127q-47 90 -27 227q18 119 94 211l-98 113l154 139l108 -125q94 47 215 47q124 0 209 -53l156 135l125 -145l-144 -129q46 -98 27 -230q-19 -121 -96 -213l100 -110l-158 -139l-106 122q-93 -45 -213 -45t-207 49zM418 698 q-8 -71 30.5 -116t120.5 -45q92 0 149 56t66 142q8 71 -31 116.5t-120 45.5q-92 0 -149 -56.5t-66 -142.5z" />
<glyph unicode="&#xa5;" horiz-adv-x="1468" d="M1192 1393h340l-520 -680h219l-31 -197h-330l-18 -106h332l-33 -197h-330l-35 -213h-305l35 213h-332l33 197h330l18 106h-332l31 197h221l-303 680h320l243 -623z" />
<glyph unicode="&#xa6;" horiz-adv-x="563" d="M473 897h-287l121 762h287zM299 -205h-287l121 762h287z" />
<glyph unicode="&#xa7;" horiz-adv-x="1064" d="M893 213q-13 -79 -58 -137t-114 -89t-144 -45t-161 -14q-203 0 -367 97l35 219q69 -45 157.5 -71t166.5 -26q61 0 99.5 6t65.5 24.5t33 51.5q2 15 -2.5 28t-19 25t-30.5 21.5t-45 21t-53 19.5l-63 21q-53 17 -92.5 33.5t-82 44t-67.5 59.5t-37.5 79.5t-4.5 104.5 q10 80 56 141.5t130 116.5q-112 76 -88 234q12 78 55 135.5t107.5 88.5t135.5 45.5t150 14.5q186 0 355 -88l-35 -217q-54 38 -139.5 63t-165.5 25q-166 0 -176 -84q-2 -15 2 -27.5t17 -23.5t25 -19.5t37 -19t41.5 -16.5t50.5 -18t52 -19q70 -26 113.5 -48t90.5 -58.5 t64.5 -88.5t7.5 -118q-23 -147 -182 -250q103 -88 80 -242zM504 594q58 -18 114 -33q94 51 103 125q5 48 -25 73t-96 50q-111 32 -115 33q-97 -45 -110 -125q-7 -46 26.5 -72t102.5 -51z" />
<glyph unicode="&#xa8;" horiz-adv-x="708" d="M952 1688q-9 -56 -56 -95t-105 -39q-68 0 -109 50t-31 120q9 56 56 96t104 40q69 0 110.5 -50.5t30.5 -121.5zM514 1688q-9 -56 -56.5 -95t-105.5 -39q-68 0 -108.5 50t-30.5 120q9 56 56 96t104 40q69 0 110.5 -50.5t30.5 -121.5z" />
<glyph unicode="&#xa9;" horiz-adv-x="1732" d="M1667 698q-23 -142 -85 -262t-149.5 -204.5t-195.5 -144t-223.5 -88t-233.5 -28.5q-115 0 -223 30.5t-201 93.5t-157.5 152t-91 215t-3.5 273q23 142 85 262t149.5 204.5t195 144t223 88t232.5 28.5q115 0 223.5 -30.5t201.5 -93.5t158 -152t91.5 -215t3.5 -273z M1149 362q-129 -63 -291 -63q-71 0 -141 25.5t-129 74.5t-88.5 132.5t-12.5 187.5q14 86 51.5 157t88.5 118t113.5 79.5t125 47t123.5 14.5q153 0 266 -76l-22 -170q-88 55 -205 55q-52 0 -99.5 -12t-92 -38t-76 -73.5t-41.5 -111.5q-10 -60 4 -104t45.5 -68.5t70.5 -36 t85 -11.5q134 0 252 64zM203 707q-17 -123 6 -229t77.5 -180.5t133 -127.5t171 -78.5t193.5 -25.5q105 0 208.5 26t200.5 80.5t174.5 131.5t132 186t71.5 237q17 123 -7 229t-78.5 180.5t-133 127.5t-171 78.5t-192.5 25.5q-105 0 -209 -26t-200.5 -80.5t-174 -131.5 t-131.5 -186t-71 -237z" />
<glyph unicode="&#xab;" horiz-adv-x="1144" d="M993 94h-280l-205 371l8 59l315 365h295l-346 -397zM526 94h-280l-205 371l8 59l316 365h294l-346 -397z" />
<glyph unicode="&#xac;" horiz-adv-x="1177" d="M1032 487h-244l41 254h-714l39 242h958z" />
<glyph unicode="&#xad;" horiz-adv-x="989" d="M119 618h762l-39 -239h-762z" />
<glyph unicode="&#xae;" horiz-adv-x="1732" d="M1667 698q-23 -142 -85 -262t-149.5 -204.5t-195.5 -144t-223.5 -88t-233.5 -28.5q-115 0 -223 30.5t-201 93.5t-157.5 152t-91 215t-3.5 273q23 142 85 262t149.5 204.5t195 144t223 88t232.5 28.5q115 0 223.5 -30.5t201.5 -93.5t158 -152t91.5 -215t3.5 -273zM203 707 q-17 -123 6 -229t77.5 -180.5t133 -127.5t171 -78.5t193.5 -25.5q105 0 208.5 26t200.5 80.5t174.5 131.5t132 186t71.5 237q17 123 -7 229t-78.5 180.5t-133 127.5t-171 78.5t-192.5 25.5q-105 0 -209 -26t-200.5 -80.5t-174 -131.5t-131.5 -186t-71 -237zM702 326h-196 l127 800h366q47 0 91.5 -10t85.5 -32.5t70 -55.5t41.5 -83t2.5 -111q-13 -89 -69 -147t-138 -83l170 -278h-213l-153 262h-19h-127zM799 946l-31 -194h160q28 0 48.5 3t46 12t42 31t22.5 56q8 53 -26 72.5t-90 19.5h-172z" />
<glyph unicode="&#xaf;" horiz-adv-x="737" d="M276 1810h668l-37 -225h-667z" />
<glyph unicode="&#xb0;" horiz-adv-x="851" d="M866 1102q-25 -156 -138.5 -243t-262.5 -87q-151 0 -247.5 99.5t-70.5 267.5q24 149 139.5 236t260.5 87q152 0 248 -99t71 -261zM352 1106q-6 -63 28.5 -101t98.5 -38q74 0 123 46t55 122q6 60 -27.5 96.5t-97.5 36.5q-74 0 -123.5 -44.5t-56.5 -117.5z" />
<glyph unicode="&#xb1;" horiz-adv-x="1179" d="M827 1327l-57 -358h360l-38 -242h-359l-57 -358h-240l56 358h-359l39 242h358l56 358h241zM977 0h-959l37 242h961z" />
<glyph unicode="&#xb4;" horiz-adv-x="491" d="M516 1565h-295l232 303h331z" />
<glyph unicode="&#xb6;" horiz-adv-x="1499" d="M657 -451h-292l157 996q-218 2 -325 125.5t-72 337.5q31 202 170.5 314t359.5 112h824l-299 -1885h-293l254 1608h-230z" />
<glyph unicode="&#xb7;" horiz-adv-x="536" d="M422 471q-11 -75 -61.5 -112t-120.5 -37q-80 0 -126 48.5t-32 137.5q11 74 62.5 111.5t121.5 37.5q80 0 125 -48.5t31 -137.5z" />
<glyph unicode="&#xb8;" horiz-adv-x="454" d="M66 0h198l-45 -100q93 -9 135.5 -59.5t30.5 -135.5q-9 -65 -59 -108t-112.5 -59.5t-135.5 -16.5q-126 0 -221 39l28 176q66 -37 162 -37q127 0 135 57q6 38 -49 52.5t-137 1.5z" />
<glyph unicode="&#xbb;" horiz-adv-x="1144" d="M748 94h-295l346 398l-213 397h280l207 -371l-10 -59zM281 94h-295l346 398l-213 397h280l207 -371l-10 -59z" />
<glyph unicode="&#xbc;" horiz-adv-x="1921" d="M1573 836h201l-84 -521h122l-26 -168h-121l-25 -147h-188l23 147h-433l27 166zM1499 315l45 269l-260 -269h215zM430 -29h-96l1173 1491h97zM451 1393h145l-107 -664h154l-27 -172h-528l27 172h182l74 465l-187 -59l29 180z" />
<glyph unicode="&#xbd;" horiz-adv-x="1843" d="M420 -29h-96l1173 1491h96zM1200 770q149 84 297 84q59 0 112 -17t93.5 -49t59 -85t7.5 -119q-7 -39 -24 -72.5t-37 -57t-56.5 -50t-64 -43.5t-76.5 -44q-96 -54 -141.5 -85.5t-52.5 -59.5h389l-27 -172h-628l14 96q7 49 23.5 91t43.5 76t51.5 59t65 51t65 40t70.5 38 q98 52 142 86t51 73q6 34 -22 52t-78 18q-146 0 -308 -107zM440 1393h146l-107 -664h154l-27 -172h-528l26 172h183l73 465l-186 -59l29 180z" />
<glyph unicode="&#xbe;" horiz-adv-x="2027" d="M543 -29h-97l1174 1491h96zM1679 836h201l-84 -521h123l-27 -168h-120l-25 -147h-188l22 147h-432l27 166zM1606 315l45 269l-260 -269h215zM766 1171q-18 -120 -152 -167q63 -21 100 -78t23 -148q-19 -119 -116.5 -174t-243.5 -55q-158 0 -289 61l29 181 q105 -64 245 -64q179 0 195 96q7 46 -22 67t-91 21h-149l29 170h110q132 0 146 84q6 38 -28 59t-93 21q-144 0 -271 -69l29 182q136 63 268 63q83 0 150.5 -28t105 -86t25.5 -136z" />
<glyph unicode="&#xbf;" horiz-adv-x="1005" d="M786 -383q-194 -96 -397 -96q-77 0 -146 13t-129.5 42.5t-102 72.5t-60 107t-6.5 142q9 56 37.5 110.5t67.5 100t84 89t90 84t82.5 78t64 77t32.5 75.5h269q-10 -63 -44 -125t-77 -109t-93 -96.5t-92 -88.5t-73 -83.5t-37 -83.5q-11 -75 41 -105t158 -30q180 0 376 109z M760 825q-11 -74 -63 -110.5t-122 -36.5q-80 0 -124.5 47.5t-30.5 136.5q11 75 61.5 112.5t120.5 37.5q80 0 126 -49t32 -138z" />
<glyph unicode="&#xc0;" horiz-adv-x="1513" d="M1413 0h-309l-64 268h-657l-145 -268h-326l811 1434h334zM801 1028l-281 -506h463l-115 506q-13 55 -16 123q-27 -76 -51 -123zM1102 1565h-283l-174 303h320z" />
<glyph unicode="&#xc1;" horiz-adv-x="1513" d="M1413 0h-309l-64 268h-657l-145 -268h-326l811 1434h334zM801 1028l-281 -506h463l-115 506q-13 55 -16 123q-27 -76 -51 -123zM1030 1565h-295l232 303h331z" />
<glyph unicode="&#xc2;" horiz-adv-x="1513" d="M1413 0h-309l-64 268h-657l-145 -268h-326l811 1434h334zM801 1028l-281 -506h463l-115 506q-13 55 -16 123q-27 -76 -51 -123zM836 1868h249l205 -318h-260l-88 136l-129 -136h-283z" />
<glyph unicode="&#xc3;" horiz-adv-x="1513" d="M1413 0h-309l-64 268h-657l-145 -268h-326l811 1434h334zM801 1028l-281 -506h463l-115 506q-13 55 -16 123q-27 -76 -51 -123zM1303 1827q9 -130 -55.5 -207.5t-166.5 -77.5q-55 0 -112 21.5t-102.5 43t-71.5 21.5q-33 0 -48.5 -26t-11.5 -48h-205q-9 128 55.5 206.5 t164.5 78.5q55 0 112.5 -21.5t103.5 -43t72 -21.5q34 0 49 25t11 49h205z" />
<glyph unicode="&#xc4;" horiz-adv-x="1513" d="M1413 0h-309l-64 268h-657l-145 -268h-326l811 1434h334zM801 1028l-281 -506h463l-115 506q-13 55 -16 123q-27 -76 -51 -123zM1305 1688q-9 -56 -56.5 -95t-105.5 -39q-68 0 -108.5 50t-30.5 120q9 56 55.5 96t103.5 40q69 0 111 -50.5t31 -121.5zM866 1688 q-9 -56 -56 -95t-105 -39q-68 0 -109 50t-31 120q9 56 56 96t104 40q69 0 110.5 -50.5t30.5 -121.5z" />
<glyph unicode="&#xc5;" horiz-adv-x="1513" d="M1413 0h-309l-64 268h-657l-145 -268h-326l811 1434h334zM801 1028l-281 -506h463l-115 506q-13 55 -16 123q-27 -76 -51 -123zM1200 1735q-18 -106 -97.5 -168t-180.5 -62q-48 0 -93 18.5t-79 51.5t-50.5 84.5t-7.5 112.5q18 102 98.5 162.5t180.5 60.5 q104 0 175.5 -72.5t53.5 -187.5zM860 1755q-6 -41 15.5 -65.5t58.5 -24.5q38 0 66 21.5t34 60.5t-15.5 64.5t-57.5 25.5t-65.5 -22t-35.5 -60z" />
<glyph unicode="&#xc6;" horiz-adv-x="2088" d="M2120 1434l-43 -271h-654l-49 -305h592l-41 -268h-594l-51 -320h668l-43 -270h-973l43 276h-545l-221 -276h-330l1165 1434h1076zM629 522h387l96 600z" />
<glyph unicode="&#xc7;" horiz-adv-x="1331" d="M1325 1083q-58 51 -142.5 79t-178.5 28q-76 0 -151.5 -16.5t-150 -53t-134 -90.5t-103.5 -134.5t-59 -178.5q-15 -94 1.5 -173t56.5 -133t98.5 -92t125.5 -55.5t139 -17.5q218 0 394 116l-47 -305q-163 -78 -365 -84l-31 -73q94 -9 137 -59.5t29 -135.5q-9 -65 -59 -108 t-112 -59.5t-134 -16.5q-125 0 -223 39l28 176q66 -37 162 -37q127 0 135 57q6 38 -49 52.5t-135 1.5l64 174q-122 22 -225.5 80t-181.5 150t-111 229.5t-7 301.5q23 142 87.5 262t153 202.5t196.5 140.5t218 85t216 27q230 0 401 -104z" />
<glyph unicode="&#xc8;" horiz-adv-x="1265" d="M287 1434h1009l-43 -271h-704l-47 -305h641l-41 -268h-643l-51 -320h716l-43 -270h-1022zM997 1565h-282l-174 303h319z" />
<glyph unicode="&#xc9;" horiz-adv-x="1265" d="M287 1434h1009l-43 -271h-704l-47 -305h641l-41 -268h-643l-51 -320h716l-43 -270h-1022zM926 1565h-295l231 303h332z" />
<glyph unicode="&#xca;" horiz-adv-x="1265" d="M287 1434h1009l-43 -271h-704l-47 -305h641l-41 -268h-643l-51 -320h716l-43 -270h-1022zM731 1868h250l205 -318h-260l-88 136l-129 -136h-283z" />
<glyph unicode="&#xcb;" horiz-adv-x="1265" d="M287 1434h1009l-43 -271h-704l-47 -305h641l-41 -268h-643l-51 -320h716l-43 -270h-1022zM1200 1688q-9 -56 -56.5 -95t-105.5 -39q-68 0 -108.5 50t-30.5 120q9 56 56 96t104 40q69 0 110.5 -50.5t30.5 -121.5zM762 1688q-9 -56 -56.5 -95t-105.5 -39q-68 0 -108.5 50 t-30.5 120q9 56 56 96t104 40q69 0 110.5 -50.5t30.5 -121.5z" />
<glyph unicode="&#xcc;" horiz-adv-x="616" d="M287 1434h307l-227 -1434h-308zM645 1565h-283l-174 303h320z" />
<glyph unicode="&#xcd;" horiz-adv-x="616" d="M287 1434h307l-227 -1434h-308zM573 1565h-294l231 303h332z" />
<glyph unicode="&#xce;" horiz-adv-x="616" d="M287 1434h307l-227 -1434h-308zM379 1868h250l205 -318h-261l-88 136l-129 -136h-282z" />
<glyph unicode="&#xcf;" horiz-adv-x="616" d="M287 1434h307l-227 -1434h-308zM848 1688q-9 -56 -56.5 -95t-105.5 -39q-68 0 -108.5 50t-30.5 120q9 56 56 96t104 40q69 0 110.5 -50.5t30.5 -121.5zM410 1688q-9 -56 -56.5 -95t-105.5 -39q-68 0 -108.5 50t-30.5 120q9 56 55.5 96t103.5 40q69 0 111 -50.5t31 -121.5 z" />
<glyph unicode="&#xd0;" horiz-adv-x="1540" d="M309 1434h529q180 0 316 -55t215 -153.5t108.5 -233t3.5 -294.5q-25 -156 -88.5 -281.5t-166 -220t-252.5 -145.5t-337 -51h-555l94 602h-149l36 227h150zM655 270q214 0 349 119t170 346q35 213 -57.5 320.5t-305.5 107.5h-238l-53 -334h322l-37 -227h-320l-53 -332h223 z" />
<glyph unicode="&#xd1;" horiz-adv-x="1566" d="M367 0h-308l228 1434h256l555 -936q7 107 22 200l117 736h307l-227 -1434h-256l-555 936q-2 -66 -19 -191zM1309 1827q9 -130 -55.5 -207.5t-166.5 -77.5q-55 0 -112 21.5t-102.5 43t-71.5 21.5q-33 0 -48.5 -26t-11.5 -48h-204q-9 128 55 206.5t164 78.5 q55 0 112.5 -21.5t103.5 -43t72 -21.5q34 0 49 25t11 49h205z" />
<glyph unicode="&#xd2;" horiz-adv-x="1667" d="M1612 698q-18 -115 -63.5 -221t-121 -198.5t-173.5 -161t-227.5 -107.5t-276.5 -39q-119 0 -222 29t-178.5 80.5t-133.5 123t-88 156t-41 180t7 195.5q23 144 92 273.5t176 231.5t261.5 162t334.5 60q172 0 309.5 -63.5t219.5 -169t115.5 -243.5t9.5 -288zM401 709 q-14 -90 1 -170.5t58 -144t121.5 -101t184.5 -37.5q221 0 363 132t174 337q14 90 -1 170.5t-58 144t-121.5 101t-184.5 37.5q-219 0 -361 -132t-176 -337zM1165 1565h-282l-174 303h319z" />
<glyph unicode="&#xd3;" horiz-adv-x="1667" d="M1612 698q-18 -115 -63.5 -221t-121 -198.5t-173.5 -161t-227.5 -107.5t-276.5 -39q-119 0 -222 29t-178.5 80.5t-133.5 123t-88 156t-41 180t7 195.5q23 144 92 273.5t176 231.5t261.5 162t334.5 60q172 0 309.5 -63.5t219.5 -169t115.5 -243.5t9.5 -288zM401 709 q-14 -90 1 -170.5t58 -144t121.5 -101t184.5 -37.5q221 0 363 132t174 337q14 90 -1 170.5t-58 144t-121.5 101t-184.5 37.5q-219 0 -361 -132t-176 -337zM1094 1565h-295l231 303h332z" />
<glyph unicode="&#xd4;" horiz-adv-x="1667" d="M1612 698q-18 -115 -63.5 -221t-121 -198.5t-173.5 -161t-227.5 -107.5t-276.5 -39q-119 0 -222 29t-178.5 80.5t-133.5 123t-88 156t-41 180t7 195.5q23 144 92 273.5t176 231.5t261.5 162t334.5 60q172 0 309.5 -63.5t219.5 -169t115.5 -243.5t9.5 -288zM401 709 q-14 -90 1 -170.5t58 -144t121.5 -101t184.5 -37.5q221 0 363 132t174 337q14 90 -1 170.5t-58 144t-121.5 101t-184.5 37.5q-219 0 -361 -132t-176 -337zM899 1868h250l205 -318h-260l-88 136l-129 -136h-283z" />
<glyph unicode="&#xd5;" horiz-adv-x="1667" d="M1612 698q-18 -115 -63.5 -221t-121 -198.5t-173.5 -161t-227.5 -107.5t-276.5 -39q-119 0 -222 29t-178.5 80.5t-133.5 123t-88 156t-41 180t7 195.5q23 144 92 273.5t176 231.5t261.5 162t334.5 60q172 0 309.5 -63.5t219.5 -169t115.5 -243.5t9.5 -288zM401 709 q-14 -90 1 -170.5t58 -144t121.5 -101t184.5 -37.5q221 0 363 132t174 337q14 90 -1 170.5t-58 144t-121.5 101t-184.5 37.5q-219 0 -361 -132t-176 -337zM1366 1827q9 -130 -55 -207.5t-166 -77.5q-55 0 -112.5 21.5t-103 43t-71.5 21.5q-33 0 -48 -26t-11 -48h-205 q-9 128 55 206.5t164 78.5q55 0 113 -21.5t104 -43t72 -21.5q34 0 48.5 25t10.5 49h205z" />
<glyph unicode="&#xd6;" horiz-adv-x="1667" d="M1612 698q-18 -115 -63.5 -221t-121 -198.5t-173.5 -161t-227.5 -107.5t-276.5 -39q-119 0 -222 29t-178.5 80.5t-133.5 123t-88 156t-41 180t7 195.5q23 144 92 273.5t176 231.5t261.5 162t334.5 60q172 0 309.5 -63.5t219.5 -169t115.5 -243.5t9.5 -288zM401 709 q-14 -90 1 -170.5t58 -144t121.5 -101t184.5 -37.5q221 0 363 132t174 337q14 90 -1 170.5t-58 144t-121.5 101t-184.5 37.5q-219 0 -361 -132t-176 -337zM1368 1688q-9 -56 -56.5 -95t-105.5 -39q-68 0 -108.5 50t-30.5 120q9 56 56 96t104 40q69 0 110.5 -50.5 t30.5 -121.5zM930 1688q-9 -56 -56.5 -95t-105.5 -39q-68 0 -108.5 50t-30.5 120q9 56 55.5 96t103.5 40q69 0 111 -50.5t31 -121.5z" />
<glyph unicode="&#xd7;" horiz-adv-x="1032" d="M516 559l-299 -256l-137 158l297 258l-217 256l180 158l215 -256l299 256l137 -158l-297 -256l217 -258l-180 -158z" />
<glyph unicode="&#xd8;" horiz-adv-x="1667" d="M244 -98h-211l223 254q-105 108 -146.5 259t-15.5 320q23 144 92 273.5t176 231.5t261.5 162t334.5 60q207 0 365 -90l141 160h209l-225 -258q106 -107 149 -258.5t15 -317.5q-18 -115 -63.5 -221t-121 -198.5t-173.5 -161t-227.5 -107.5t-276.5 -39q-212 0 -367 90z M401 709q-14 -89 2 -171.5t60 -144.5l657 748q-73 37 -182 37q-219 0 -361 -132t-176 -337zM586 293q73 -37 180 -37q221 0 363 132t174 337q32 186 -62 315z" />
<glyph unicode="&#xd9;" horiz-adv-x="1538" d="M1223 1434h307l-144 -904q-20 -124 -68 -221t-113.5 -159.5t-151 -103.5t-175.5 -58t-192 -17q-97 0 -184 18.5t-165 62.5t-130 108.5t-74 164t-2 222.5l139 887h308l-142 -887q-25 -162 45 -230.5t219 -68.5q333 0 385 315zM1087 1565h-282l-174 303h319z" />
<glyph unicode="&#xda;" horiz-adv-x="1538" d="M1223 1434h307l-144 -904q-20 -124 -68 -221t-113.5 -159.5t-151 -103.5t-175.5 -58t-192 -17q-97 0 -184 18.5t-165 62.5t-130 108.5t-74 164t-2 222.5l139 887h308l-142 -887q-25 -162 45 -230.5t219 -68.5q333 0 385 315zM1016 1565h-295l231 303h332z" />
<glyph unicode="&#xdb;" horiz-adv-x="1538" d="M1223 1434h307l-144 -904q-20 -124 -68 -221t-113.5 -159.5t-151 -103.5t-175.5 -58t-192 -17q-97 0 -184 18.5t-165 62.5t-130 108.5t-74 164t-2 222.5l139 887h308l-142 -887q-25 -162 45 -230.5t219 -68.5q333 0 385 315zM821 1868h250l205 -318h-260l-88 136 l-129 -136h-283z" />
<glyph unicode="&#xdc;" horiz-adv-x="1538" d="M1223 1434h307l-144 -904q-20 -124 -68 -221t-113.5 -159.5t-151 -103.5t-175.5 -58t-192 -17q-97 0 -184 18.5t-165 62.5t-130 108.5t-74 164t-2 222.5l139 887h308l-142 -887q-25 -162 45 -230.5t219 -68.5q333 0 385 315zM1290 1688q-9 -56 -56.5 -95t-105.5 -39 q-68 0 -108.5 50t-30.5 120q9 56 56 96t104 40q69 0 110.5 -50.5t30.5 -121.5zM852 1688q-9 -56 -56.5 -95t-105.5 -39q-68 0 -108.5 50t-30.5 120q9 56 56 96t104 40q69 0 110.5 -50.5t30.5 -121.5z" />
<glyph unicode="&#xdd;" horiz-adv-x="1437" d="M776 0h-305l82 508l-414 926h332l266 -646l469 646h359l-707 -926zM973 1565h-295l231 303h332z" />
<glyph unicode="&#xde;" horiz-adv-x="1359" d="M557 1198h229q97 0 181.5 -15t160.5 -51.5t126 -92.5t71.5 -143t3.5 -198q-17 -106 -59.5 -186t-102.5 -132t-143.5 -84.5t-175 -46t-203.5 -13.5h-242l-36 -236h-308l228 1434h307zM446 506h242q140 0 227 49.5t107 173.5q9 57 -7.5 98t-54.5 62t-82 30t-100 9h-264z " />
<glyph unicode="&#xdf;" horiz-adv-x="1204" d="M1110 262q-12 -73 -53 -130.5t-100.5 -91.5t-128.5 -51.5t-144 -17.5q-139 0 -254 54l33 213q72 -41 168 -41q77 0 132 33.5t64 91.5q6 37 -16.5 80t-58.5 83.5t-72 83t-57.5 93.5t-14.5 100q7 38 28 75.5t47 68l52 61t47.5 67t28.5 74.5q12 63 -23 97t-102 34 q-85 0 -141 -47.5t-68 -130.5l-168 -1061h-284l159 1012q71 447 510 450q108 1 190.5 -30t127 -81t63.5 -107.5t10 -113.5t-43.5 -112t-70.5 -93t-68 -80.5t-37 -78.5q-5 -28 14 -61t50 -63t66.5 -71t65 -83t44 -101.5t4.5 -124.5z" />
<glyph unicode="&#xe0;" d="M831 145q-138 -174 -370 -174q-113 0 -200.5 45t-137.5 120t-68.5 172t-1.5 202q16 98 60.5 187.5t113 160t165.5 112.5t208 42q125 0 209.5 -55.5t128.5 -137.5l27 164h249l-155 -983h-250zM336 485q-18 -114 37 -194t168 -80q94 0 172 49.5t123 122.5l38 229 q-18 69 -76.5 114.5t-142.5 45.5q-125 0 -211.5 -81t-107.5 -206zM887 1128h-283l-174 304h320z" />
<glyph unicode="&#xe1;" d="M831 145q-138 -174 -370 -174q-113 0 -200.5 45t-137.5 120t-68.5 172t-1.5 202q16 98 60.5 187.5t113 160t165.5 112.5t208 42q125 0 209.5 -55.5t128.5 -137.5l27 164h249l-155 -983h-250zM336 485q-18 -114 37 -194t168 -80q94 0 172 49.5t123 122.5l38 229 q-18 69 -76.5 114.5t-142.5 45.5q-125 0 -211.5 -81t-107.5 -206zM815 1128h-295l232 304h331z" />
<glyph unicode="&#xe2;" d="M831 145q-138 -174 -370 -174q-113 0 -200.5 45t-137.5 120t-68.5 172t-1.5 202q16 98 60.5 187.5t113 160t165.5 112.5t208 42q125 0 209.5 -55.5t128.5 -137.5l27 164h249l-155 -983h-250zM336 485q-18 -114 37 -194t168 -80q94 0 172 49.5t123 122.5l38 229 q-18 69 -76.5 114.5t-142.5 45.5q-125 0 -211.5 -81t-107.5 -206zM621 1432h249l205 -318h-260l-88 135l-129 -135h-283z" />
<glyph unicode="&#xe3;" d="M831 145q-138 -174 -370 -174q-113 0 -200.5 45t-137.5 120t-68.5 172t-1.5 202q16 98 60.5 187.5t113 160t165.5 112.5t208 42q125 0 209.5 -55.5t128.5 -137.5l27 164h249l-155 -983h-250zM336 485q-18 -114 37 -194t168 -80q94 0 172 49.5t123 122.5l38 229 q-18 69 -76.5 114.5t-142.5 45.5q-125 0 -211.5 -81t-107.5 -206zM1087 1391q9 -130 -55 -207.5t-166 -77.5q-55 0 -112 21.5t-102.5 43t-71.5 21.5q-33 0 -48.5 -26t-11.5 -48h-205q-9 128 55.5 206.5t164.5 78.5q55 0 112.5 -21.5t103.5 -43t72 -21.5q34 0 49 25t11 49 h204z" />
<glyph unicode="&#xe4;" d="M831 145q-138 -174 -370 -174q-113 0 -200.5 45t-137.5 120t-68.5 172t-1.5 202q16 98 60.5 187.5t113 160t165.5 112.5t208 42q125 0 209.5 -55.5t128.5 -137.5l27 164h249l-155 -983h-250zM336 485q-18 -114 37 -194t168 -80q94 0 172 49.5t123 122.5l38 229 q-18 69 -76.5 114.5t-142.5 45.5q-125 0 -211.5 -81t-107.5 -206zM1090 1251q-9 -55 -56 -94t-106 -39q-68 0 -109 50t-31 120q9 56 56 95.5t104 39.5q69 0 111 -50.5t31 -121.5zM651 1251q-9 -55 -56 -94t-106 -39q-68 0 -108.5 50t-30.5 120q9 56 56 95.5t104 39.5 q69 0 110.5 -50.5t30.5 -121.5z" />
<glyph unicode="&#xe5;" d="M831 145q-138 -174 -370 -174q-113 0 -200.5 45t-137.5 120t-68.5 172t-1.5 202q16 98 60.5 187.5t113 160t165.5 112.5t208 42q125 0 209.5 -55.5t128.5 -137.5l27 164h249l-155 -983h-250zM336 485q-18 -114 37 -194t168 -80q94 0 172 49.5t123 122.5l38 229 q-18 69 -76.5 114.5t-142.5 45.5q-125 0 -211.5 -81t-107.5 -206zM985 1298q-18 -106 -97.5 -167.5t-180.5 -61.5q-48 0 -93 18.5t-79 51.5t-50.5 84t-7.5 112q18 102 98.5 163t180.5 61q104 0 175.5 -73t53.5 -188zM645 1319q-6 -41 15.5 -65.5t58.5 -24.5q38 0 66 21.5 t34 60.5t-16 64.5t-58 25.5t-65 -22t-35 -60z" />
<glyph unicode="&#xe6;" horiz-adv-x="1955" d="M831 147q-136 -176 -370 -176q-113 0 -200.5 45t-137.5 121t-68.5 173t-1.5 202q16 98 60.5 187t113 159.5t165.5 112t208 41.5q125 0 209.5 -54.5t128.5 -136.5l27 162h237l-24 -156q63 93 156.5 139t195.5 46q104 1 181.5 -35t119.5 -97t59.5 -140.5t7.5 -167 t-43 -175.5h-706q7 -102 95.5 -151t219.5 -49q173 0 305 69l-34 -231q-149 -64 -301 -64q-125 0 -220.5 49t-142.5 140l-24 -160h-238zM334 485q-18 -114 37 -194t168 -80q94 0 172 49.5t123 122.5l38 229q-18 69 -76.5 114.5t-142.5 45.5q-125 0 -211.5 -81t-107.5 -206z M1458 795q-105 0 -176 -58t-92 -155h440q5 24 7.5 52t-9 56.5t-30 52t-55 38t-85.5 14.5z" />
<glyph unicode="&#xe7;" horiz-adv-x="1009" d="M946 694q-97 72 -241 72q-137 0 -242 -70t-127 -213q-11 -67 5.5 -119.5t53.5 -83.5t87.5 -47t111.5 -16q148 0 299 74l-39 -256q-125 -54 -258 -62l-33 -73q93 -9 135.5 -59.5t30.5 -135.5q-9 -65 -59.5 -108t-113 -59.5t-134.5 -16.5q-126 0 -221 39l28 176 q66 -37 162 -37q125 0 133 57q7 38 -47.5 52.5t-136.5 1.5l63 174q-88 17 -158.5 56.5t-121.5 102.5t-71.5 156t-2.5 207q17 107 63.5 194t109 144.5t140.5 96.5t156 56t156 17q177 0 311 -84z" />
<glyph unicode="&#xe8;" horiz-adv-x="1112" d="M51 512q15 103 57 187.5t99 141.5t127 96.5t141.5 57t142.5 17.5q96 0 174 -25.5t129 -70t83.5 -104t42.5 -128t1 -141.5t-36 -146h-695q4 -53 31 -93t70.5 -62.5t94 -33.5t108.5 -11q187 0 321 67l-35 -231q-144 -62 -356 -62q-113 0 -211.5 36.5t-170.5 103t-104.5 171 t-13.5 230.5zM786 582q5 24 7.5 52t-9 56.5t-30 52t-55 38t-85.5 14.5q-99 0 -173.5 -59t-94.5 -154h440zM821 1114h-282l-174 303h319z" />
<glyph unicode="&#xe9;" horiz-adv-x="1112" d="M51 512q15 103 57 187.5t99 141.5t127 96.5t141.5 57t142.5 17.5q96 0 174 -25.5t129 -70t83.5 -104t42.5 -128t1 -141.5t-36 -146h-695q4 -53 31 -93t70.5 -62.5t94 -33.5t108.5 -11q187 0 321 67l-35 -231q-144 -62 -356 -62q-113 0 -211.5 36.5t-170.5 103t-104.5 171 t-13.5 230.5zM786 582q5 24 7.5 52t-9 56.5t-30 52t-55 38t-85.5 14.5q-99 0 -173.5 -59t-94.5 -154h440zM750 1114h-295l231 303h332z" />
<glyph unicode="&#xea;" horiz-adv-x="1112" d="M51 512q15 103 57 187.5t99 141.5t127 96.5t141.5 57t142.5 17.5q96 0 174 -25.5t129 -70t83.5 -104t42.5 -128t1 -141.5t-36 -146h-695q4 -53 31 -93t70.5 -62.5t94 -33.5t108.5 -11q187 0 321 67l-35 -231q-144 -62 -356 -62q-113 0 -211.5 36.5t-170.5 103t-104.5 171 t-13.5 230.5zM786 582q5 24 7.5 52t-9 56.5t-30 52t-55 38t-85.5 14.5q-99 0 -173.5 -59t-94.5 -154h440zM555 1417h250l205 -317h-260l-88 135l-130 -135h-282z" />
<glyph unicode="&#xeb;" horiz-adv-x="1112" d="M51 512q15 103 57 187.5t99 141.5t127 96.5t141.5 57t142.5 17.5q96 0 174 -25.5t129 -70t83.5 -104t42.5 -128t1 -141.5t-36 -146h-695q4 -53 31 -93t70.5 -62.5t94 -33.5t108.5 -11q187 0 321 67l-35 -231q-144 -62 -356 -62q-113 0 -211.5 36.5t-170.5 103t-104.5 171 t-13.5 230.5zM786 582q5 24 7.5 52t-9 56.5t-30 52t-55 38t-85.5 14.5q-99 0 -173.5 -59t-94.5 -154h440zM1024 1237q-9 -55 -56 -94t-106 -39q-68 0 -108.5 50t-30.5 120q9 56 56 95.5t104 39.5q69 0 110.5 -50.5t30.5 -121.5zM586 1237q-9 -55 -56 -94t-106 -39 q-68 0 -108.5 50t-30.5 120q9 56 55.5 95.5t103.5 39.5q69 0 111 -50.5t31 -121.5z" />
<glyph unicode="&#xec;" horiz-adv-x="530" d="M500 1114h-279l-117 303h320zM313 0h-284l155 983h285z" />
<glyph unicode="&#xed;" horiz-adv-x="530" d="M313 0h-284l155 983h285zM463 1114h-295l231 303h332z" />
<glyph unicode="&#xee;" horiz-adv-x="530" d="M313 0h-284l155 983h285zM272 1100h-268l264 317h250l164 -317h-260l-53 135z" />
<glyph unicode="&#xef;" horiz-adv-x="530" d="M313 0h-284l155 983h285zM317 1239q-9 -53 -52.5 -89t-98.5 -36q-63 0 -101 46t-28 112q9 53 52 90t97 37q65 0 103 -47t28 -113zM700 1239q-9 -53 -52.5 -89t-98.5 -36q-63 0 -101 46t-28 112q9 53 52 90t97 37q65 0 103 -47t28 -113z" />
<glyph unicode="&#xf0;" horiz-adv-x="1191" d="M1110 549q-26 -153 -83 -266t-137.5 -180.5t-176 -99.5t-207.5 -32q-108 0 -199 34t-155 96t-93.5 156t-13.5 206q19 133 90.5 233t173.5 150.5t219 50.5q112 0 202.5 -46t135.5 -130q4 31 4 86q-12 226 -180 338l-194 -170l-115 131l137 113q-79 20 -205 20l21 215 q197 0 368 -68l183 158l112 -131l-133 -117q149 -107 218 -298.5t28 -448.5zM330 440q-14 -106 38.5 -166.5t159.5 -60.5t176 59t91 164q14 107 -40.5 171.5t-160.5 64.5q-105 0 -177 -63.5t-87 -168.5z" />
<glyph unicode="&#xf1;" horiz-adv-x="1206" d="M410 856q78 73 172 114.5t188 41.5q179 0 268 -117.5t62 -290.5l-96 -604h-285l92 580q14 95 -25.5 140.5t-119.5 45.5q-72 0 -140 -39t-118 -92l-99 -635h-284l155 983h250zM1083 1376q9 -130 -55 -207t-166 -77q-55 0 -112.5 21.5t-103 43t-71.5 21.5q-33 0 -48 -26 t-11 -48h-205q-9 128 55 206.5t164 78.5q55 0 113 -21.5t104 -43t72 -21.5q34 0 49 24.5t11 48.5h204z" />
<glyph unicode="&#xf2;" horiz-adv-x="1214" d="M1130 467q-15 -97 -57.5 -179.5t-102.5 -140t-134.5 -98t-154 -59.5t-159.5 -19q-110 0 -203.5 36.5t-161 103.5t-97 172t-9.5 233q19 121 78.5 217.5t144 156.5t184 91t206.5 31q104 0 196.5 -36.5t160.5 -103.5t99 -172.5t10 -232.5zM334 487q-16 -113 38 -187.5 t173 -74.5q120 0 201 74.5t102 196.5q16 113 -37 187.5t-170 74.5q-121 0 -203.5 -74.5t-103.5 -196.5zM862 1102h-282l-174 303h319z" />
<glyph unicode="&#xf3;" horiz-adv-x="1214" d="M1130 467q-15 -97 -57.5 -179.5t-102.5 -140t-134.5 -98t-154 -59.5t-159.5 -19q-110 0 -203.5 36.5t-161 103.5t-97 172t-9.5 233q19 121 78.5 217.5t144 156.5t184 91t206.5 31q104 0 196.5 -36.5t160.5 -103.5t99 -172.5t10 -232.5zM334 487q-16 -113 38 -187.5 t173 -74.5q120 0 201 74.5t102 196.5q16 113 -37 187.5t-170 74.5q-121 0 -203.5 -74.5t-103.5 -196.5zM791 1102h-295l231 303h332z" />
<glyph unicode="&#xf4;" horiz-adv-x="1214" d="M1130 467q-15 -97 -57.5 -179.5t-102.5 -140t-134.5 -98t-154 -59.5t-159.5 -19q-110 0 -203.5 36.5t-161 103.5t-97 172t-9.5 233q19 121 78.5 217.5t144 156.5t184 91t206.5 31q104 0 196.5 -36.5t160.5 -103.5t99 -172.5t10 -232.5zM334 487q-16 -113 38 -187.5 t173 -74.5q120 0 201 74.5t102 196.5q16 113 -37 187.5t-170 74.5q-121 0 -203.5 -74.5t-103.5 -196.5zM596 1405h250l205 -318h-260l-89 136l-129 -136h-282z" />
<glyph unicode="&#xf5;" horiz-adv-x="1214" d="M1130 467q-15 -97 -57.5 -179.5t-102.5 -140t-134.5 -98t-154 -59.5t-159.5 -19q-110 0 -203.5 36.5t-161 103.5t-97 172t-9.5 233q19 121 78.5 217.5t144 156.5t184 91t206.5 31q104 0 196.5 -36.5t160.5 -103.5t99 -172.5t10 -232.5zM334 487q-16 -113 38 -187.5 t173 -74.5q120 0 201 74.5t102 196.5q16 113 -37 187.5t-170 74.5q-121 0 -203.5 -74.5t-103.5 -196.5zM1063 1364q9 -130 -55 -207.5t-166 -77.5q-55 0 -112.5 21.5t-103 43t-71.5 21.5q-33 0 -48 -25.5t-11 -47.5h-205q-9 128 55 206t164 78q55 0 113 -21.5t104 -43 t72 -21.5q34 0 48.5 25t10.5 49h205z" />
<glyph unicode="&#xf6;" horiz-adv-x="1214" d="M1130 467q-15 -97 -57.5 -179.5t-102.5 -140t-134.5 -98t-154 -59.5t-159.5 -19q-110 0 -203.5 36.5t-161 103.5t-97 172t-9.5 233q19 121 78.5 217.5t144 156.5t184 91t206.5 31q104 0 196.5 -36.5t160.5 -103.5t99 -172.5t10 -232.5zM334 487q-16 -113 38 -187.5 t173 -74.5q120 0 201 74.5t102 196.5q16 113 -37 187.5t-170 74.5q-121 0 -203.5 -74.5t-103.5 -196.5zM1065 1225q-9 -55 -56 -94t-106 -39q-68 0 -108.5 50t-30.5 120q9 56 56 95.5t104 39.5q69 0 110.5 -50.5t30.5 -121.5zM627 1225q-9 -55 -56 -94t-106 -39 q-68 0 -108.5 50t-30.5 120q9 56 55.5 95.5t103.5 39.5q69 0 111 -50.5t31 -121.5z" />
<glyph unicode="&#xf7;" horiz-adv-x="1138" d="M1061 596h-983l39 242h983zM686 242q-11 -75 -62 -113.5t-120 -38.5q-79 0 -125.5 49.5t-32.5 139.5q11 73 62 110t120 37q81 0 126.5 -48t31.5 -136zM831 1157q-13 -76 -63.5 -113.5t-120.5 -37.5q-79 0 -124 48.5t-31 139.5q11 73 62 110t120 37q81 0 126 -48t31 -136z " />
<glyph unicode="&#xf8;" horiz-adv-x="1214" d="M1149 1112l-164 -207q89 -71 129 -182.5t16 -255.5q-15 -97 -57.5 -179.5t-102.5 -140t-134.5 -98t-154 -59.5t-159.5 -19q-136 0 -241 54l-119 -152h-129l164 205q-89 71 -128.5 182t-17.5 256q19 121 78.5 217.5t144 156.5t184 91t206.5 31q127 0 235 -54l123 154h127z M641 758q-121 0 -202.5 -74.5t-102.5 -196.5q-19 -114 37 -188l356 444q-47 15 -88 15zM545 225q120 0 201 74.5t102 196.5q16 117 -39 190l-356 -444q46 -17 92 -17z" />
<glyph unicode="&#xf9;" horiz-adv-x="1204" d="M864 983h283l-156 -983h-250l21 127q-64 -74 -151.5 -115t-188.5 -41q-186 0 -280 119t-66 295l94 598h283l-91 -580q-16 -95 24.5 -140.5t121.5 -45.5q77 0 144 37.5t112 93.5zM862 1114h-282l-174 303h319z" />
<glyph unicode="&#xfa;" horiz-adv-x="1204" d="M864 983h283l-156 -983h-250l21 127q-64 -74 -151.5 -115t-188.5 -41q-186 0 -280 119t-66 295l94 598h283l-91 -580q-16 -95 24.5 -140.5t121.5 -45.5q77 0 144 37.5t112 93.5zM791 1114h-295l231 303h332z" />
<glyph unicode="&#xfb;" horiz-adv-x="1204" d="M864 983h283l-156 -983h-250l21 127q-64 -74 -151.5 -115t-188.5 -41q-186 0 -280 119t-66 295l94 598h283l-91 -580q-16 -95 24.5 -140.5t121.5 -45.5q77 0 144 37.5t112 93.5zM596 1417h250l205 -317h-260l-89 135l-129 -135h-282z" />
<glyph unicode="&#xfc;" horiz-adv-x="1204" d="M864 983h283l-156 -983h-250l21 127q-64 -74 -151.5 -115t-188.5 -41q-186 0 -280 119t-66 295l94 598h283l-91 -580q-16 -95 24.5 -140.5t121.5 -45.5q77 0 144 37.5t112 93.5zM1065 1237q-9 -55 -56 -94t-106 -39q-68 0 -108.5 50t-30.5 120q9 56 56 95.5t104 39.5 q69 0 110.5 -50.5t30.5 -121.5zM627 1237q-9 -55 -56 -94t-106 -39q-68 0 -108.5 50t-30.5 120q9 56 55.5 95.5t103.5 39.5q69 0 111 -50.5t31 -121.5z" />
<glyph unicode="&#xfd;" horiz-adv-x="1153" d="M545 311l321 672h330l-608 -1108q-106 -194 -221 -273t-250 -79q-85 0 -170 31l39 233q50 -20 104 -20q83 0 142.5 55t125.5 176l17 18l-307 967h297zM745 1114h-294l231 303h332z" />
<glyph unicode="&#xfe;" d="M238 -451h-285l299 1885h285l-91 -555q136 133 334 133q109 0 195.5 -45t137.5 -120t71 -172t4 -202q-16 -98 -60.5 -187.5t-113 -160t-165.5 -112.5t-208 -42q-216 0 -313 154zM365 365q20 -67 77.5 -110.5t141.5 -43.5q125 0 211.5 81.5t107.5 207.5q18 112 -37 192 t-168 80q-93 0 -171 -50.5t-126 -123.5z" />
<glyph unicode="&#xff;" horiz-adv-x="1153" d="M545 311l321 672h330l-608 -1108q-106 -194 -221 -273t-250 -79q-85 0 -170 31l39 233q50 -20 104 -20q83 0 142.5 55t125.5 176l17 18l-307 967h297zM1020 1237q-9 -55 -56 -94t-106 -39q-68 0 -108.5 50t-30.5 120q9 56 56 95.5t104 39.5q69 0 110.5 -50.5t30.5 -121.5 zM582 1237q-9 -55 -56 -94t-106 -39q-68 0 -108.5 50t-30.5 120q9 56 55.5 95.5t103.5 39.5q69 0 111 -50.5t31 -121.5z" />
<glyph unicode="&#x100;" horiz-adv-x="1513" d="M1413 0h-309l-64 268h-657l-145 -268h-326l811 1434h334zM801 1028l-281 -506h463l-115 506q-13 55 -16 123q-27 -76 -51 -123zM627 1810h667l-37 -225h-667z" />
<glyph unicode="&#x101;" d="M831 145q-138 -174 -370 -174q-113 0 -200.5 45t-137.5 120t-68.5 172t-1.5 202q16 98 60.5 187.5t113 160t165.5 112.5t208 42q125 0 209.5 -55.5t128.5 -137.5l27 164h249l-155 -983h-250zM336 485q-18 -114 37 -194t168 -80q94 0 172 49.5t123 122.5l38 229 q-18 69 -76.5 114.5t-142.5 45.5q-125 0 -211.5 -81t-107.5 -206zM412 1374h667l-37 -225h-667z" />
<glyph unicode="&#x102;" horiz-adv-x="1513" d="M1413 0h-309l-64 268h-657l-145 -268h-326l811 1434h334zM801 1028l-281 -506h463l-115 506q-13 55 -16 123q-27 -76 -51 -123zM1245 1624q-78 -48 -153.5 -70t-171.5 -22q-195 0 -316 92l35 223q71 -49 141 -68.5t158 -19.5q188 0 342 88z" />
<glyph unicode="&#x103;" d="M831 145q-138 -174 -370 -174q-113 0 -200.5 45t-137.5 120t-68.5 172t-1.5 202q16 98 60.5 187.5t113 160t165.5 112.5t208 42q125 0 209.5 -55.5t128.5 -137.5l27 164h249l-155 -983h-250zM336 485q-18 -114 37 -194t168 -80q94 0 172 49.5t123 122.5l38 229 q-18 69 -76.5 114.5t-142.5 45.5q-125 0 -211.5 -81t-107.5 -206zM1030 1188q-78 -48 -153.5 -70t-171.5 -22q-195 0 -316 92l35 223q71 -49 141 -68.5t158 -19.5q188 0 342 88z" />
<glyph unicode="&#x104;" horiz-adv-x="1513" d="M1413 0q-76 -45 -128.5 -105.5t-55.5 -105.5q-2 -27 13 -41t48 -14q38 0 84 24l-31 -202q-74 -35 -161 -35q-116 0 -171.5 64t-39.5 159q11 64 60 132.5t132 127.5h-61l-62 264h-657l-145 -268h-326l811 1434h334zM801 1028l-281 -506h463l-115 506q-13 55 -16 123 q-27 -76 -51 -123z" />
<glyph unicode="&#x105;" d="M1059 0h2q-76 -45 -128.5 -106.5t-55.5 -106.5q-2 -26 13 -39.5t48 -13.5q43 0 84 18l-31 -201q-73 -30 -160 -30q-116 0 -172.5 63.5t-40.5 159.5q24 130 193 270l20 131q-138 -174 -370 -174q-113 0 -200.5 45t-137.5 120t-68.5 172t-1.5 202q16 98 60.5 187.5t113 160 t165.5 112.5t208 42q125 0 209.5 -55.5t128.5 -137.5l27 164h249zM336 485q-18 -114 37 -194t168 -80q94 0 172 49.5t123 122.5l38 229q-18 69 -76.5 114.5t-142.5 45.5q-125 0 -211.5 -81t-107.5 -206z" />
<glyph unicode="&#x106;" horiz-adv-x="1331" d="M96 745q23 141 87.5 261.5t153 203t196.5 140.5t217 85t215 27q232 0 403 -104l-43 -275q-126 107 -324 107q-76 0 -151 -16.5t-149.5 -53t-134.5 -90.5t-104 -134.5t-59 -178.5q-18 -117 11 -209.5t92.5 -148t145.5 -84.5t173 -29q220 0 396 116l-50 -305 q-179 -86 -409 -86q-113 0 -219 29.5t-198.5 93t-156.5 153t-90 218.5t-2 280zM1092 1565h-295l231 303h332z" />
<glyph unicode="&#x107;" horiz-adv-x="1009" d="M51 506q16 107 62.5 194t109 144.5t140 96.5t155.5 56t156 17q177 0 311 -84l-39 -236q-97 72 -241 72q-64 0 -122.5 -16t-110.5 -48.5t-88 -88.5t-48 -130q-19 -132 56 -199t204 -67q148 0 299 74l-41 -256q-149 -64 -328 -64q-108 0 -200.5 32.5t-163 95.5 t-101.5 168.5t-10 238.5zM768 1114h-295l232 303h331z" />
<glyph unicode="&#x10a;" horiz-adv-x="1331" d="M96 745q23 141 87.5 261.5t153 203t196.5 140.5t217 85t215 27q232 0 403 -104l-43 -275q-126 107 -324 107q-76 0 -151 -16.5t-149.5 -53t-134.5 -90.5t-104 -134.5t-59 -178.5q-18 -117 11 -209.5t92.5 -148t145.5 -84.5t173 -29q220 0 396 116l-50 -305 q-179 -86 -409 -86q-113 0 -219 29.5t-198.5 93t-156.5 153t-90 218.5t-2 280zM1155 1700q-11 -73 -59.5 -108.5t-116.5 -35.5q-77 0 -121.5 47.5t-30.5 133.5q11 71 60 107t117 36q76 0 120 -46.5t31 -133.5z" />
<glyph unicode="&#x10b;" horiz-adv-x="1009" d="M51 506q16 107 62.5 194t109 144.5t140 96.5t155.5 56t156 17q177 0 311 -84l-39 -236q-97 72 -241 72q-64 0 -122.5 -16t-110.5 -48.5t-88 -88.5t-48 -130q-19 -132 56 -199t204 -67q148 0 299 74l-41 -256q-149 -64 -328 -64q-108 0 -200.5 32.5t-163 95.5 t-101.5 168.5t-10 238.5zM831 1249q-11 -72 -59.5 -107.5t-116.5 -35.5q-77 0 -121 47t-30 133q11 71 60 107.5t116 36.5q76 0 120 -47t31 -134z" />
<glyph unicode="&#x10c;" horiz-adv-x="1331" d="M96 745q23 141 87.5 261.5t153 203t196.5 140.5t217 85t215 27q232 0 403 -104l-43 -275q-126 107 -324 107q-76 0 -151 -16.5t-149.5 -53t-134.5 -90.5t-104 -134.5t-59 -178.5q-18 -117 11 -209.5t92.5 -148t145.5 -84.5t173 -29q220 0 396 116l-50 -305 q-179 -86 -409 -86q-113 0 -219 29.5t-198.5 93t-156.5 153t-90 218.5t-2 280zM1417 1874l-317 -318h-252l-217 318h262l98 -148l146 148h280z" />
<glyph unicode="&#x10d;" horiz-adv-x="1009" d="M51 506q16 107 62.5 194t109 144.5t140 96.5t155.5 56t156 17q177 0 311 -84l-39 -236q-97 72 -241 72q-64 0 -122.5 -16t-110.5 -48.5t-88 -88.5t-48 -130q-19 -132 56 -199t204 -67q148 0 299 74l-41 -256q-149 -64 -328 -64q-108 0 -200.5 32.5t-163 95.5 t-101.5 168.5t-10 238.5zM1094 1423l-318 -317h-252l-217 317h262l99 -147l145 147h281z" />
<glyph unicode="&#x10e;" horiz-adv-x="1519" d="M287 1434h530q239 0 397 -95.5t218.5 -260.5t27.5 -380q-25 -156 -89 -282t-166.5 -220t-252.5 -145t-336 -51h-557zM1151 735q35 213 -57.5 320.5t-305.5 107.5h-237l-141 -893h223q214 0 348.5 119t169.5 346zM1274 1874l-318 -318h-251l-218 318h263l98 -148l145 148 h281z" />
<glyph unicode="&#x10f;" d="M1413 1434h258l-131 -414h-225zM1004 1434h282l-227 -1434h-250l22 145q-128 -174 -370 -174q-113 0 -200.5 45t-137.5 120t-68.5 172t-1.5 202q16 98 60.5 187.5t112.5 160t164.5 112.5t205.5 42t189.5 -43.5t125.5 -112.5zM874 618q-20 66 -78 110t-141 44 q-125 0 -211.5 -80.5t-107.5 -208.5q-18 -112 37 -192t168 -80q94 0 172 49.5t123 122.5z" />
<glyph unicode="&#x110;" horiz-adv-x="1540" d="M309 1434h529q180 0 316 -55t215 -153.5t108.5 -233t3.5 -294.5q-25 -156 -88.5 -281.5t-166 -220t-252.5 -145.5t-337 -51h-555l94 602h-149l36 227h150zM655 270q214 0 349 119t170 346q35 213 -57.5 320.5t-305.5 107.5h-238l-53 -334h322l-37 -227h-320l-53 -332h223 z" />
<glyph unicode="&#x111;" horiz-adv-x="1271" d="M1264 1294h122l-26 -176h-123l-178 -1118h-250l22 145q-128 -174 -370 -174q-113 0 -200.5 45t-137.5 120t-68.5 172t-1.5 202q16 98 60.5 187.5t112.5 160t164.5 112.5t205.5 42t189.5 -43.5t125.5 -112.5l41 262h-274l29 176h274l23 140h282zM541 211q94 0 172 49.5 t123 122.5l38 235q-20 66 -78 110t-141 44q-125 0 -211.5 -80.5t-107.5 -208.5q-18 -112 37 -192t168 -80z" />
<glyph unicode="&#x112;" horiz-adv-x="1265" d="M287 1434h1009l-43 -271h-704l-47 -305h641l-41 -268h-643l-51 -320h716l-43 -270h-1022zM522 1810h668l-37 -225h-668z" />
<glyph unicode="&#x113;" horiz-adv-x="1112" d="M51 512q15 103 57 187.5t99 141.5t127 96.5t141.5 57t142.5 17.5q96 0 174 -25.5t129 -70t83.5 -104t42.5 -128t1 -141.5t-36 -146h-695q4 -53 31 -93t70.5 -62.5t94 -33.5t108.5 -11q187 0 321 67l-35 -231q-144 -62 -356 -62q-113 0 -211.5 36.5t-170.5 103t-104.5 171 t-13.5 230.5zM786 582q5 24 7.5 52t-9 56.5t-30 52t-55 38t-85.5 14.5q-99 0 -173.5 -59t-94.5 -154h440zM346 1360h668l-37 -225h-668z" />
<glyph unicode="&#x116;" horiz-adv-x="1265" d="M287 1434h1009l-43 -271h-704l-47 -305h641l-41 -268h-643l-51 -320h716l-43 -270h-1022zM989 1700q-11 -73 -59.5 -108.5t-116.5 -35.5q-77 0 -121 47t-30 134q11 71 60 107t116 36q76 0 120 -46.5t31 -133.5z" />
<glyph unicode="&#x117;" horiz-adv-x="1112" d="M51 512q15 103 57 187.5t99 141.5t127 96.5t141.5 57t142.5 17.5q96 0 174 -25.5t129 -70t83.5 -104t42.5 -128t1 -141.5t-36 -146h-695q4 -53 31 -93t70.5 -62.5t94 -33.5t108.5 -11q187 0 321 67l-35 -231q-144 -62 -356 -62q-113 0 -211.5 36.5t-170.5 103t-104.5 171 t-13.5 230.5zM786 582q5 24 7.5 52t-9 56.5t-30 52t-55 38t-85.5 14.5q-99 0 -173.5 -59t-94.5 -154h440zM813 1249q-11 -72 -59.5 -107.5t-116.5 -35.5q-77 0 -121.5 47t-30.5 133q11 71 60.5 107.5t116.5 36.5q76 0 120 -47t31 -134z" />
<glyph unicode="&#x118;" horiz-adv-x="1265" d="M1296 1434l-43 -271h-704l-47 -305h641l-41 -268h-643l-51 -320h716l-43 -270q-77 -48 -129 -107.5t-53 -103.5q-3 -25 10.5 -40t42.5 -15q40 0 88 20l-32 -198q-78 -35 -166 -35q-111 0 -165 63.5t-38 159.5q11 63 62 131.5t135 124.5h-777l228 1434h1009z" />
<glyph unicode="&#x119;" horiz-adv-x="1112" d="M801 -440q-71 -39 -172 -39q-115 0 -171 63.5t-40 159.5q9 55 54 116t120 113q-12 -2 -41 -2q-113 0 -211.5 36.5t-170.5 103t-104.5 171t-13.5 230.5q15 103 57 187.5t99 141.5t127 96.5t141.5 57t142.5 17.5q96 0 174 -25.5t129 -70t83.5 -104t42.5 -128t1 -141.5 t-36 -146h-695q4 -53 31 -93t70.5 -62.5t94 -33.5t108.5 -11q187 0 321 67l-35 -231q-110 -70 -168 -134.5t-61 -111.5q-2 -26 12.5 -39.5t48.5 -13.5q45 0 92 28zM614 795q-99 0 -173.5 -59t-94.5 -154h440q5 24 7.5 52t-9 56.5t-30 52t-55 38t-85.5 14.5z" />
<glyph unicode="&#x11a;" horiz-adv-x="1265" d="M287 1434h1009l-43 -271h-704l-47 -305h641l-41 -268h-643l-51 -320h716l-43 -270h-1022zM1251 1874l-317 -318h-252l-217 318h262l98 -148l146 148h280z" />
<glyph unicode="&#x11b;" horiz-adv-x="1112" d="M51 512q15 103 57 187.5t99 141.5t127 96.5t141.5 57t142.5 17.5q96 0 174 -25.5t129 -70t83.5 -104t42.5 -128t1 -141.5t-36 -146h-695q4 -53 31 -93t70.5 -62.5t94 -33.5t108.5 -11q187 0 321 67l-35 -231q-144 -62 -356 -62q-113 0 -211.5 36.5t-170.5 103t-104.5 171 t-13.5 230.5zM786 582q5 24 7.5 52t-9 56.5t-30 52t-55 38t-85.5 14.5q-99 0 -173.5 -59t-94.5 -154h440zM1075 1423l-317 -317h-252l-217 317h262l98 -147l146 147h280z" />
<glyph unicode="&#x11e;" horiz-adv-x="1435" d="M96 741q20 124 68.5 230.5t116 184t150.5 137.5t175.5 96.5t186 54.5t186.5 18q242 0 432 -96l-43 -279q-132 101 -364 101q-96 0 -190 -27.5t-179.5 -83t-147 -151t-81.5 -219.5q-17 -107 1 -191t58.5 -135t100.5 -83.5t120 -45t125 -12.5q98 0 174 28l82 510h293 l-113 -712q-222 -95 -467 -95q-121 0 -231 28t-204.5 89t-158 149.5t-89 218t-1.5 285.5zM1305 1624q-78 -48 -153.5 -70t-172.5 -22q-194 0 -315 92l34 223q71 -49 141 -68.5t158 -19.5q188 0 342 88z" />
<glyph unicode="&#x11f;" horiz-adv-x="1273" d="M1063 18q-21 -131 -80 -229t-144.5 -155t-185 -85t-211.5 -28q-246 0 -422 100l39 240q146 -101 357 -101q92 0 165.5 25t127.5 86t69 152l15 90q-47 -59 -131 -100.5t-203 -41.5q-113 0 -200.5 45t-137.5 120t-68.5 172t-1.5 202q16 98 61.5 187.5t114 160t165.5 112.5 t206 42q236 0 336 -185l27 156h253zM334 483q-18 -112 37 -192t168 -80q94 0 172 48t123 120l38 239q-20 66 -78 110t-141 44q-125 0 -211.5 -80.5t-107.5 -208.5zM975 1174q-78 -48 -154 -70.5t-172 -22.5q-193 0 -315 93l35 223q71 -49 141 -68.5t158 -19.5q188 0 342 88z " />
<glyph unicode="&#x120;" horiz-adv-x="1435" d="M96 741q20 124 68.5 230.5t116 184t150.5 137.5t175.5 96.5t186 54.5t186.5 18q242 0 432 -96l-43 -279q-132 101 -364 101q-96 0 -190 -27.5t-179.5 -83t-147 -151t-81.5 -219.5q-17 -107 1 -191t58.5 -135t100.5 -83.5t120 -45t125 -12.5q98 0 174 28l82 510h293 l-113 -712q-222 -95 -467 -95q-121 0 -231 28t-204.5 89t-158 149.5t-89 218t-1.5 285.5zM1153 1700q-11 -73 -59.5 -108.5t-116.5 -35.5q-77 0 -121.5 47.5t-30.5 133.5q11 71 60 107t116 36q77 0 121 -46.5t31 -133.5z" />
<glyph unicode="&#x121;" horiz-adv-x="1273" d="M1063 18q-21 -131 -80 -229t-144.5 -155t-185 -85t-211.5 -28q-246 0 -422 100l39 240q146 -101 357 -101q92 0 165.5 25t127.5 86t69 152l15 90q-47 -59 -131 -100.5t-203 -41.5q-113 0 -200.5 45t-137.5 120t-68.5 172t-1.5 202q16 98 61.5 187.5t114 160t165.5 112.5 t206 42q236 0 336 -185l27 156h253zM334 483q-18 -112 37 -192t168 -80q94 0 172 48t123 120l38 239q-20 66 -78 110t-141 44q-125 0 -211.5 -80.5t-107.5 -208.5zM823 1249q-11 -72 -59.5 -107.5t-116.5 -35.5q-77 0 -121 47t-30 133q11 71 60 107.5t116 36.5q76 0 120 -47 t31 -134z" />
<glyph unicode="&#x122;" horiz-adv-x="1435" d="M96 741q20 124 68.5 230.5t116 184t150.5 137.5t175.5 96.5t186 54.5t186.5 18q242 0 432 -96l-43 -279q-132 101 -364 101q-96 0 -190 -27.5t-179.5 -83t-147 -151t-81.5 -219.5q-17 -107 1 -191t58.5 -135t100.5 -83.5t120 -45t125 -12.5q98 0 174 28l82 510h293 l-113 -712q-222 -95 -467 -95q-121 0 -231 28t-204.5 89t-158 149.5t-89 218t-1.5 285.5zM793 -532h-232l119 403h266z" />
<glyph unicode="&#x123;" horiz-adv-x="1273" d="M760 1106h-246l160 397h213zM1063 18q-21 -131 -80 -229t-144.5 -155t-185 -85t-211.5 -28q-246 0 -422 100l39 240q146 -101 357 -101q92 0 165.5 25t127.5 86t69 152l15 90q-47 -59 -131 -100.5t-203 -41.5q-113 0 -200.5 45t-137.5 120t-68.5 172t-1.5 202 q16 98 61.5 187.5t114 160t165.5 112.5t206 42q236 0 336 -185l27 156h253zM334 483q-18 -112 37 -192t168 -80q94 0 172 48t123 120l38 239q-20 66 -78 110t-141 44q-125 0 -211.5 -80.5t-107.5 -208.5z" />
<glyph unicode="&#x126;" horiz-adv-x="1591" d="M379 0h-307l161 1018h-139l31 196h139l35 220h307l-35 -220h643l35 220h307l-34 -220h139l-31 -196h-139l-162 -1018h-307l94 592h-645zM541 1018l-29 -176h643l29 176h-643z" />
<glyph unicode="&#x127;" horiz-adv-x="1208" d="M451 889q66 55 148 89t163 34q123 0 207 -56t117.5 -149t15.5 -207l-96 -600h-285l92 580q14 94 -26 140t-119 46q-72 0 -140 -39t-118 -94l-99 -633h-284l176 1118h-125l26 176h127l23 140h285l-25 -140h270l-26 -176h-271z" />
<glyph unicode="&#x12a;" horiz-adv-x="616" d="M287 1434h307l-227 -1434h-308zM170 1810h668l-37 -225h-668z" />
<glyph unicode="&#x12b;" horiz-adv-x="530" d="M608 1155h-504l31 199h504zM313 0h-284l155 983h285z" />
<glyph unicode="&#x12e;" horiz-adv-x="616" d="M594 1434l-227 -1434q-72 -54 -117.5 -111t-48.5 -100q-2 -26 13.5 -41t49.5 -14q42 0 92 26l-30 -200q-74 -39 -172 -39q-114 0 -170.5 64t-40.5 159q24 136 180 260h-62l228 1430h305z" />
<glyph unicode="&#x12f;" horiz-adv-x="530" d="M213 1325q11 72 60.5 108.5t117.5 36.5q76 0 120.5 -47.5t31.5 -132.5q-11 -72 -60.5 -108.5t-117.5 -36.5q-75 0 -120 47t-32 133zM313 0h-2q-59 -54 -99 -110t-44 -99q-2 -26 13.5 -41.5t47.5 -15.5q47 0 88 14l-32 -192q-71 -35 -164 -35q-117 0 -172 62.5t-39 162.5 q19 116 160 254h-41l155 983h285z" />
<glyph unicode="&#x130;" horiz-adv-x="616" d="M287 1434h307l-227 -1434h-308zM637 1700q-11 -73 -59.5 -108.5t-116.5 -35.5q-77 0 -121.5 47.5t-30.5 133.5q11 71 60 107t116 36q77 0 121 -46.5t31 -133.5z" />
<glyph unicode="&#x131;" horiz-adv-x="530" d="M313 0h-284l155 983h285z" />
<glyph unicode="&#x132;" horiz-adv-x="1667" d="M287 1434h307l-227 -1434h-308zM969 1434h686l-158 -1004q-19 -125 -71 -216t-129.5 -142.5t-168.5 -75t-202 -23.5q-231 0 -365 78l43 277q119 -72 279 -72q279 0 315 227l107 674h-379z" />
<glyph unicode="&#x133;" horiz-adv-x="1060" d="M313 0h-284l155 983h285zM543 1290q-11 -72 -60.5 -108.5t-117.5 -36.5q-75 0 -120 47t-32 133q11 72 60.5 108.5t117.5 36.5q76 0 120.5 -47.5t31.5 -132.5zM817 -162q-14 -91 -49 -155t-88 -98.5t-111.5 -49t-132.5 -14.5q-104 0 -186 35l37 233q41 -18 100 -18 q67 0 107 34t53 111l168 1067h284zM1073 1290q-11 -72 -60.5 -108.5t-117.5 -36.5q-75 0 -120 47t-32 133q11 72 61 108.5t118 36.5q76 0 120 -47.5t31 -132.5z" />
<glyph unicode="&#x136;" horiz-adv-x="1413" d="M1190 1434h340l-569 -721l364 -713h-326l-299 586h-241l-92 -586h-308l228 1434h307l-90 -570h237zM668 -512h-232l119 403h266z" />
<glyph unicode="&#x137;" horiz-adv-x="1116" d="M831 983h328l-422 -491l285 -492h-299l-225 397h-127l-62 -397h-284l227 1434h285l-131 -811h122zM494 -512h-232l119 403h266z" />
<glyph unicode="&#x139;" horiz-adv-x="1185" d="M287 1434h307l-184 -1158h704l-45 -276h-1010zM608 1565h-295l232 303h332z" />
<glyph unicode="&#x13a;" horiz-adv-x="530" d="M266 1495h285l-238 -1495h-284zM565 1591h-295l232 303h332z" />
<glyph unicode="&#x13b;" horiz-adv-x="1185" d="M287 1434h307l-184 -1158h704l-45 -276h-1010zM561 -512h-231l119 403h266z" />
<glyph unicode="&#x13c;" horiz-adv-x="530" d="M266 1495h285l-238 -1495h-284zM137 -512h-231l119 403h266z" />
<glyph unicode="&#x13d;" horiz-adv-x="1189" d="M905 1434h258l-145 -414h-211zM287 1434h307l-184 -1158h704l-45 -276h-1010z" />
<glyph unicode="&#x13e;" horiz-adv-x="530" d="M678 1495h258l-131 -414h-225zM266 1495h285l-238 -1495h-284z" />
<glyph unicode="&#x13f;" horiz-adv-x="1200" d="M997 776q-11 -70 -58 -104.5t-112 -34.5q-74 0 -117 45.5t-30 130.5q10 68 58 102.5t112 34.5q75 0 117.5 -45t29.5 -129zM287 1434h307l-184 -1158h704l-45 -276h-1010z" />
<glyph unicode="&#x140;" horiz-adv-x="839" d="M266 1495h285l-238 -1495h-284zM874 698q-11 -75 -61.5 -112t-120.5 -37q-80 0 -125.5 48.5t-31.5 137.5q11 74 63 112t121 38q79 0 124 -48.5t31 -138.5z" />
<glyph unicode="&#x141;" horiz-adv-x="1230" d="M1116 0h-1012l80 506l-172 -64l39 250l174 64l107 678h307l-90 -564l379 140l-39 -250l-379 -139l-55 -345h704z" />
<glyph unicode="&#x142;" horiz-adv-x="739" d="M375 1495h282l-94 -590l170 64l-35 -224l-170 -63l-108 -682h-283l88 569l-168 -63l35 223l170 66z" />
<glyph unicode="&#x143;" horiz-adv-x="1566" d="M367 0h-308l228 1434h256l555 -936q7 107 22 200l117 736h307l-227 -1434h-256l-555 936q-2 -66 -19 -191zM1036 1565h-295l232 303h332z" />
<glyph unicode="&#x144;" horiz-adv-x="1206" d="M410 856q78 73 172 114.5t188 41.5q179 0 268 -117.5t62 -290.5l-96 -604h-285l92 580q14 95 -25.5 140.5t-119.5 45.5q-72 0 -140 -39t-118 -92l-99 -635h-284l155 983h250zM811 1114h-295l232 303h331z" />
<glyph unicode="&#x145;" horiz-adv-x="1566" d="M367 0h-308l228 1434h256l555 -936q7 107 22 200l117 736h307l-227 -1434h-256l-555 936q-2 -66 -19 -191zM690 -512h-231l119 403h266z" />
<glyph unicode="&#x146;" horiz-adv-x="1206" d="M410 856q78 73 172 114.5t188 41.5q179 0 268 -117.5t62 -290.5l-96 -604h-285l92 580q14 95 -25.5 140.5t-119.5 45.5q-72 0 -140 -39t-118 -92l-99 -635h-284l155 983h250zM489 -512h-231l119 403h266z" />
<glyph unicode="&#x147;" horiz-adv-x="1566" d="M367 0h-308l228 1434h256l555 -936q7 107 22 200l117 736h307l-227 -1434h-256l-555 936q-2 -66 -19 -191zM1362 1874l-318 -318h-251l-218 318h263l98 -148l145 148h281z" />
<glyph unicode="&#x148;" horiz-adv-x="1206" d="M410 856q78 73 172 114.5t188 41.5q179 0 268 -117.5t62 -290.5l-96 -604h-285l92 580q14 95 -25.5 140.5t-119.5 45.5q-72 0 -140 -39t-118 -92l-99 -635h-284l155 983h250zM1137 1423l-318 -317h-252l-217 317h262l99 -147l145 147h281z" />
<glyph unicode="&#x14a;" horiz-adv-x="1566" d="M1300 -100q-30 -184 -135 -278.5t-260 -94.5q-91 0 -174 24l41 254q34 -12 76 -12q127 0 151 152l23 121l-516 870q-2 -62 -19 -188l-120 -748h-308l228 1434h254l557 -934q6 102 22 200l117 734h307z" />
<glyph unicode="&#x14b;" horiz-adv-x="1206" d="M977 -162q-14 -92 -49 -156.5t-86.5 -98.5t-107.5 -48t-126 -14q-91 0 -166 33l37 233q40 -16 92 -16q112 0 134 145l106 664q14 95 -25.5 140.5t-119.5 45.5q-72 0 -140 -39t-118 -92l-99 -635h-284l155 983h250l-20 -127q78 73 172 114.5t188 41.5q179 0 268 -117.5 t62 -290.5z" />
<glyph unicode="&#x14c;" horiz-adv-x="1667" d="M1612 698q-18 -115 -63.5 -221t-121 -198.5t-173.5 -161t-227.5 -107.5t-276.5 -39q-119 0 -222 29t-178.5 80.5t-133.5 123t-88 156t-41 180t7 195.5q23 144 92 273.5t176 231.5t261.5 162t334.5 60q172 0 309.5 -63.5t219.5 -169t115.5 -243.5t9.5 -288zM401 709 q-14 -90 1 -170.5t58 -144t121.5 -101t184.5 -37.5q221 0 363 132t174 337q14 90 -1 170.5t-58 144t-121.5 101t-184.5 37.5q-219 0 -361 -132t-176 -337zM690 1810h668l-37 -225h-668z" />
<glyph unicode="&#x14d;" horiz-adv-x="1214" d="M1130 467q-15 -97 -57.5 -179.5t-102.5 -140t-134.5 -98t-154 -59.5t-159.5 -19q-110 0 -203.5 36.5t-161 103.5t-97 172t-9.5 233q19 121 78.5 217.5t144 156.5t184 91t206.5 31q104 0 196.5 -36.5t160.5 -103.5t99 -172.5t10 -232.5zM334 487q-16 -113 38 -187.5 t173 -74.5q120 0 201 74.5t102 196.5q16 113 -37 187.5t-170 74.5q-121 0 -203.5 -74.5t-103.5 -196.5zM387 1348h668l-37 -226h-668z" />
<glyph unicode="&#x150;" horiz-adv-x="1667" d="M1612 698q-18 -115 -63.5 -221t-121 -198.5t-173.5 -161t-227.5 -107.5t-276.5 -39q-119 0 -222 29t-178.5 80.5t-133.5 123t-88 156t-41 180t7 195.5q23 144 92 273.5t176 231.5t261.5 162t334.5 60q172 0 309.5 -63.5t219.5 -169t115.5 -243.5t9.5 -288zM401 709 q-14 -90 1 -170.5t58 -144t121.5 -101t184.5 -37.5q221 0 363 132t174 337q14 90 -1 170.5t-58 144t-121.5 101t-184.5 37.5q-219 0 -361 -132t-176 -337zM1298 1585h-264l199 313h280zM928 1585h-264l198 313h281z" />
<glyph unicode="&#x151;" horiz-adv-x="1214" d="M1130 467q-15 -97 -57.5 -179.5t-102.5 -140t-134.5 -98t-154 -59.5t-159.5 -19q-110 0 -203.5 36.5t-161 103.5t-97 172t-9.5 233q19 121 78.5 217.5t144 156.5t184 91t206.5 31q104 0 196.5 -36.5t160.5 -103.5t99 -172.5t10 -232.5zM334 487q-16 -113 38 -187.5 t173 -74.5q120 0 201 74.5t102 196.5q16 113 -37 187.5t-170 74.5q-121 0 -203.5 -74.5t-103.5 -196.5zM995 1122h-264l199 314h280zM625 1122h-265l199 314h281z" />
<glyph unicode="&#x152;" horiz-adv-x="2136" d="M991 -2q-108 -27 -229 -27q-181 0 -322 64t-223 172.5t-114.5 249.5t-6.5 297q23 141 91.5 267.5t174.5 225.5t258 157t328 58q141 0 246 -30l973 2l-43 -271h-656l-49 -305h596l-43 -268h-594l-51 -320h668l-43 -270zM406 725q-35 -209 73.5 -343t313.5 -134 q119 0 231 45l135 856q-75 37 -215 37q-204 0 -354 -128t-184 -333z" />
<glyph unicode="&#x153;" horiz-adv-x="1914" d="M944 168q-75 -96 -188 -145.5t-248 -49.5q-104 0 -195 36t-157 103t-95.5 172.5t-9.5 233.5q19 121 78 217.5t142 156t180 91t198 31.5q126 0 222.5 -49t148.5 -142q74 92 180 140.5t227 48.5q115 0 202.5 -36t136.5 -97t72 -140.5t16 -166.5t-39 -175h-695 q5 -70 51 -116.5t110 -65t142 -18.5q185 0 322 67l-37 -231q-144 -62 -356 -62q-136 0 -243 51t-165 146zM334 487q-16 -113 36.5 -187.5t166.5 -74.5q125 0 207.5 74t103.5 197q16 113 -36.5 187.5t-164.5 74.5q-125 0 -208.5 -74.5t-104.5 -196.5zM1415 795 q-99 0 -173.5 -59t-94.5 -154h440q5 24 7.5 52t-9 56.5t-30 52t-55 38t-85.5 14.5z" />
<glyph unicode="&#x154;" horiz-adv-x="1445" d="M367 0h-308l228 1434h581q84 0 160 -14.5t147.5 -50t119.5 -89t69.5 -138.5t5.5 -192q-52 -318 -375 -411l334 -539h-332l-301 502h-252zM551 1163l-64 -405h289q108 0 187.5 53.5t95.5 155.5q17 105 -42.5 150.5t-168.5 45.5h-297zM922 1565h-295l231 303h332z" />
<glyph unicode="&#x155;" horiz-adv-x="804" d="M410 840q135 189 428 161l-43 -274q-124 27 -231 -18t-167 -142l-88 -567h-284l155 983h252zM647 1114h-295l232 303h331z" />
<glyph unicode="&#x156;" horiz-adv-x="1445" d="M367 0h-308l228 1434h581q84 0 160 -14.5t147.5 -50t119.5 -89t69.5 -138.5t5.5 -192q-52 -318 -375 -411l334 -539h-332l-301 502h-252zM551 1163l-64 -405h289q108 0 187.5 53.5t95.5 155.5q17 105 -42.5 150.5t-168.5 45.5h-297zM664 -512h-232l119 403h266z" />
<glyph unicode="&#x157;" horiz-adv-x="804" d="M410 840q135 189 428 161l-43 -274q-124 27 -231 -18t-167 -142l-88 -567h-284l155 983h252zM131 -512h-231l118 403h267z" />
<glyph unicode="&#x158;" horiz-adv-x="1445" d="M367 0h-308l228 1434h581q84 0 160 -14.5t147.5 -50t119.5 -89t69.5 -138.5t5.5 -192q-52 -318 -375 -411l334 -539h-332l-301 502h-252zM551 1163l-64 -405h289q108 0 187.5 53.5t95.5 155.5q17 105 -42.5 150.5t-168.5 45.5h-297zM1247 1874l-317 -318h-252l-217 318 h262l98 -148l146 148h280z" />
<glyph unicode="&#x159;" horiz-adv-x="804" d="M410 840q135 189 428 161l-43 -274q-124 27 -231 -18t-167 -142l-88 -567h-284l155 983h252zM973 1423l-318 -317h-252l-217 317h263l98 -147l145 147h281z" />
<glyph unicode="&#x15a;" horiz-adv-x="1232" d="M166 1077q16 96 70 171.5t133 121t172.5 69t195.5 23.5q130 0 250.5 -32.5t204.5 -86.5l-41 -274q-172 126 -403 123q-256 -3 -273 -139q-5 -43 24.5 -79t81 -60t117 -51.5t134 -53.5t131.5 -66t109 -87.5t66.5 -121t4.5 -163.5q-15 -90 -55.5 -160t-96 -114.5 t-129.5 -73.5t-151.5 -40.5t-167.5 -11.5q-309 0 -525 133l45 283q196 -145 472 -145q274 0 296 139q7 45 -14.5 81.5t-62 62.5t-95 50t-114.5 47.5t-120 50.5t-112 64t-89.5 82.5t-53.5 111.5t-4 146zM858 1565h-295l232 303h331z" />
<glyph unicode="&#x15b;" horiz-adv-x="978" d="M90 727q13 80 58 138t111.5 88.5t136 44.5t145.5 14q199 0 364 -84l-37 -234q-66 45 -153 73t-172 28q-64 0 -109 -19.5t-51 -60.5q-5 -32 22.5 -56.5t74.5 -42t104.5 -35t113.5 -43t100 -59.5t66 -90.5t10 -130.5q-46 -287 -479 -287q-115 0 -217 25t-170 70l37 235 q68 -51 164.5 -78.5t191.5 -27.5q171 0 185 77q5 31 -22 55t-74 41.5t-104.5 36t-114 44.5t-101 60t-67.5 90t-13 128zM659 1114h-294l231 303h332z" />
<glyph unicode="&#x15e;" horiz-adv-x="1232" d="M764 -295q-9 -65 -59 -108t-112 -59.5t-134 -16.5q-125 0 -223 39l28 176q66 -37 164 -37q125 0 133 57q6 38 -49 52.5t-135 1.5l59 165q-241 21 -418 129l45 283q196 -145 472 -145q274 0 296 139q7 45 -14.5 81.5t-62 62.5t-95 50t-114.5 47.5t-120 50.5t-112 64 t-89.5 82.5t-53.5 111.5t-4 146q16 96 70 171.5t133 121t172.5 69t195.5 23.5q130 0 250.5 -32.5t204.5 -86.5l-41 -274q-172 126 -403 123q-256 -3 -273 -139q-5 -43 24.5 -79t81 -60t117 -51.5t134 -53.5t131.5 -66t109 -87.5t66.5 -121t4.5 -163.5q-62 -367 -512 -396 l-33 -75q94 -9 137 -59.5t29 -135.5z" />
<glyph unicode="&#x15f;" horiz-adv-x="978" d="M643 -295q-9 -65 -59 -108t-112.5 -59.5t-135.5 -16.5q-126 0 -221 39l28 176q66 -37 162 -37q127 0 135 57q6 38 -49 52.5t-137 1.5l59 165q-186 12 -305 91l37 235q68 -51 164.5 -78.5t191.5 -27.5q171 0 185 77q5 31 -22 55t-74 41.5t-104.5 36t-114 44.5t-101 60 t-67.5 90t-13 128q13 80 58 138t111.5 88.5t136 44.5t145.5 14q199 0 364 -84l-37 -234q-66 45 -153 73t-172 28q-64 0 -109 -19.5t-51 -60.5q-5 -32 22.5 -56.5t74.5 -42t104.5 -35t113.5 -43t100 -59.5t66 -90.5t10 -130.5q-38 -251 -362 -283l-35 -75q93 -9 135.5 -59.5 t30.5 -135.5z" />
<glyph unicode="&#x160;" horiz-adv-x="1232" d="M166 1077q16 96 70 171.5t133 121t172.5 69t195.5 23.5q130 0 250.5 -32.5t204.5 -86.5l-41 -274q-172 126 -403 123q-256 -3 -273 -139q-5 -43 24.5 -79t81 -60t117 -51.5t134 -53.5t131.5 -66t109 -87.5t66.5 -121t4.5 -163.5q-15 -90 -55.5 -160t-96 -114.5 t-129.5 -73.5t-151.5 -40.5t-167.5 -11.5q-309 0 -525 133l45 283q196 -145 472 -145q274 0 296 139q7 45 -14.5 81.5t-62 62.5t-95 50t-114.5 47.5t-120 50.5t-112 64t-89.5 82.5t-53.5 111.5t-4 146zM1184 1874l-318 -318h-252l-217 318h262l99 -148l145 148h281z" />
<glyph unicode="&#x161;" horiz-adv-x="978" d="M90 727q13 80 58 138t111.5 88.5t136 44.5t145.5 14q199 0 364 -84l-37 -234q-66 45 -153 73t-172 28q-64 0 -109 -19.5t-51 -60.5q-5 -32 22.5 -56.5t74.5 -42t104.5 -35t113.5 -43t100 -59.5t66 -90.5t10 -130.5q-46 -287 -479 -287q-115 0 -217 25t-170 70l37 235 q68 -51 164.5 -78.5t191.5 -27.5q171 0 185 77q5 31 -22 55t-74 41.5t-104.5 36t-114 44.5t-101 60t-67.5 90t-13 128zM985 1423l-317 -317h-252l-217 317h262l98 -147l146 147h280z" />
<glyph unicode="&#x162;" horiz-adv-x="1241" d="M160 1434h1186l-43 -277h-441l-182 -1157h-307l184 1157h-440zM494 -512h-232l119 403h266z" />
<glyph unicode="&#x163;" horiz-adv-x="849" d="M297 1268l293 69l-55 -354h311l-39 -240h-311l-64 -393q-12 -76 18.5 -107.5t110.5 -31.5q104 0 191 37l-37 -234q-97 -43 -256 -43q-73 0 -133.5 19.5t-107.5 58.5t-67 106.5t-6 155.5l68 432h-166l39 240h164zM434 -512h-231l119 403h266z" />
<glyph unicode="&#x164;" horiz-adv-x="1241" d="M160 1434h1186l-43 -277h-441l-182 -1157h-307l184 1157h-440zM1214 1874l-317 -318h-252l-217 318h262l98 -148l146 148h280z" />
<glyph unicode="&#x165;" horiz-adv-x="849" d="M786 1507h258l-129 -405h-225zM297 1268l293 69l-55 -354h311l-39 -240h-311l-64 -393q-12 -76 18.5 -107.5t110.5 -31.5q104 0 191 37l-37 -234q-97 -43 -256 -43q-73 0 -133.5 19.5t-107.5 58.5t-67 106.5t-6 155.5l68 432h-166l39 240h164z" />
<glyph unicode="&#x166;" horiz-adv-x="1263" d="M690 0h-307l92 578h-242l33 208h242l59 371h-440l43 277h1186l-43 -277h-441l-57 -371h242l-35 -208h-240z" />
<glyph unicode="&#x167;" horiz-adv-x="854" d="M848 983l-37 -225h-309l-23 -148h262l-26 -170h-264l-15 -90q-12 -76 18.5 -107.5t110.5 -31.5q101 0 191 37l-37 -234q-100 -43 -258 -43q-73 0 -133.5 19.5t-107.5 58.5t-67 106.5t-6 155.5l21 129h-94l26 170h95l24 148h-166l35 225h166l45 285l295 69l-57 -354h311z " />
<glyph unicode="&#x16a;" horiz-adv-x="1538" d="M1223 1434h307l-144 -904q-20 -124 -68 -221t-113.5 -159.5t-151 -103.5t-175.5 -58t-192 -17q-97 0 -184 18.5t-165 62.5t-130 108.5t-74 164t-2 222.5l139 887h308l-142 -887q-25 -162 45 -230.5t219 -68.5q333 0 385 315zM612 1810h668l-37 -225h-668z" />
<glyph unicode="&#x16b;" horiz-adv-x="1204" d="M864 983h283l-156 -983h-250l21 127q-64 -74 -151.5 -115t-188.5 -41q-186 0 -280 119t-66 295l94 598h283l-91 -580q-16 -95 24.5 -140.5t121.5 -45.5q77 0 144 37.5t112 93.5zM387 1360h668l-37 -225h-668z" />
<glyph unicode="&#x16e;" horiz-adv-x="1538" d="M1223 1434h307l-144 -904q-20 -124 -68 -221t-113.5 -159.5t-151 -103.5t-175.5 -58t-192 -17q-97 0 -184 18.5t-165 62.5t-130 108.5t-74 164t-2 222.5l139 887h308l-142 -887q-25 -162 45 -230.5t219 -68.5q333 0 385 315zM1186 1735q-18 -106 -98 -168t-181 -62 q-65 0 -121 31t-88 93.5t-20 142.5q18 102 98 162.5t180 60.5q104 0 176 -72.5t54 -187.5zM846 1755q-6 -41 15.5 -65.5t58.5 -24.5q38 0 66 21.5t34 60.5t-16 64.5t-58 25.5t-65 -22t-35 -60z" />
<glyph unicode="&#x16f;" horiz-adv-x="1204" d="M864 983h283l-156 -983h-250l21 127q-64 -74 -151.5 -115t-188.5 -41q-186 0 -280 119t-66 295l94 598h283l-91 -580q-16 -95 24.5 -140.5t121.5 -45.5q77 0 144 37.5t112 93.5zM961 1284q-18 -106 -98 -167.5t-181 -61.5q-48 0 -93 18.5t-78.5 51.5t-50 84t-7.5 112 q18 102 98 162.5t180 60.5q104 0 176 -72.5t54 -187.5zM621 1305q-6 -42 15.5 -66.5t57.5 -24.5q38 0 66.5 21.5t34.5 60.5t-16 64.5t-58 25.5t-65 -21.5t-35 -59.5z" />
<glyph unicode="&#x170;" horiz-adv-x="1538" d="M1223 1434h307l-144 -904q-20 -124 -68 -221t-113.5 -159.5t-151 -103.5t-175.5 -58t-192 -17q-97 0 -184 18.5t-165 62.5t-130 108.5t-74 164t-2 222.5l139 887h308l-142 -887q-25 -162 45 -230.5t219 -68.5q333 0 385 315zM1221 1585h-265l199 313h281zM850 1585h-264 l198 313h281z" />
<glyph unicode="&#x171;" horiz-adv-x="1204" d="M864 983h283l-156 -983h-250l21 127q-64 -74 -151.5 -115t-188.5 -41q-186 0 -280 119t-66 295l94 598h283l-91 -580q-16 -95 24.5 -140.5t121.5 -45.5q77 0 144 37.5t112 93.5zM995 1135h-264l199 313h280zM625 1135h-265l199 313h281z" />
<glyph unicode="&#x172;" horiz-adv-x="1538" d="M1085 563l138 871h307l-144 -904q-46 -285 -243 -432q-132 -97 -191 -177t-63 -132q-2 -27 13.5 -41.5t49.5 -13.5q48 0 92 26l-30 -200q-74 -39 -174 -39q-116 0 -171.5 63.5t-39.5 159.5q20 117 174 233q-59 -6 -117 -6q-97 0 -184 18.5t-165 62.5t-130 108.5t-74 164 t-2 222.5l139 887h308l-142 -887q-25 -162 45 -230.5t219 -68.5q333 0 385 315z" />
<glyph unicode="&#x173;" horiz-adv-x="1204" d="M1147 983l-156 -983q-76 -45 -128.5 -106.5t-55.5 -106.5q-2 -25 12.5 -39t44.5 -14q44 0 84 18l-30 -201q-73 -30 -160 -30q-113 0 -169 63.5t-40 159.5q24 134 194 272l19 111q-64 -74 -151.5 -115t-188.5 -41q-186 0 -280 119t-66 295l94 598h283l-91 -580 q-16 -95 24.5 -140.5t121.5 -45.5q77 0 144 37.5t112 93.5l100 635h283z" />
<glyph unicode="&#x174;" horiz-adv-x="2160" d="M1935 1434h338l-665 -1434h-342l-129 969l-439 -969h-338l-215 1434h320l119 -1082l485 1082h266l140 -1074zM1137 1868h249l205 -318h-260l-88 136l-129 -136h-283z" />
<glyph unicode="&#x175;" horiz-adv-x="1675" d="M1403 983h313l-483 -983h-299l-90 639l-307 -639h-295l-160 983h283l88 -651l303 651h270l92 -651zM836 1417h249l205 -317h-260l-88 135l-129 -135h-283z" />
<glyph unicode="&#x176;" horiz-adv-x="1437" d="M776 0h-305l82 508l-414 926h332l266 -646l469 646h359l-707 -926zM778 1868h250l205 -318h-260l-88 136l-129 -136h-283z" />
<glyph unicode="&#x177;" horiz-adv-x="1153" d="M545 311l321 672h330l-608 -1108q-106 -194 -221 -273t-250 -79q-85 0 -170 31l39 233q50 -20 104 -20q83 0 142.5 55t125.5 176l17 18l-307 967h297zM551 1417h250l205 -317h-261l-88 135l-129 -135h-282z" />
<glyph unicode="&#x178;" horiz-adv-x="1437" d="M776 0h-305l82 508l-414 926h332l266 -646l469 646h359l-707 -926zM1247 1688q-9 -56 -56.5 -95t-105.5 -39q-68 0 -108.5 50t-30.5 120q9 56 56 96t104 40q69 0 110.5 -50.5t30.5 -121.5zM809 1688q-9 -56 -56.5 -95t-105.5 -39q-68 0 -108.5 50t-30.5 120q9 56 56 96 t104 40q69 0 110.5 -50.5t30.5 -121.5z" />
<glyph unicode="&#x179;" horiz-adv-x="1257" d="M1094 0h-1123l33 217l832 940h-650l43 277h1067l-32 -222l-832 -936h705zM893 1565h-295l231 303h332z" />
<glyph unicode="&#x17a;" horiz-adv-x="987" d="M154 983h802l-28 -182l-547 -563h487l-39 -238h-860l29 184l547 564h-428zM698 1114h-295l232 303h332z" />
<glyph unicode="&#x17b;" horiz-adv-x="1257" d="M1094 0h-1123l33 217l832 940h-650l43 277h1067l-32 -222l-832 -936h705zM956 1700q-11 -73 -59.5 -108.5t-116.5 -35.5q-77 0 -121 47t-30 134q11 71 60 107t116 36q76 0 120 -46.5t31 -133.5z" />
<glyph unicode="&#x17c;" horiz-adv-x="987" d="M154 983h802l-28 -182l-547 -563h487l-39 -238h-860l29 184l547 564h-428zM762 1249q-11 -72 -59.5 -107.5t-116.5 -35.5q-77 0 -121.5 47t-30.5 133q11 71 60 107.5t116 36.5q76 0 120.5 -47t31.5 -134z" />
<glyph unicode="&#x17d;" horiz-adv-x="1257" d="M1094 0h-1123l33 217l832 940h-650l43 277h1067l-32 -222l-832 -936h705zM1219 1874l-318 -318h-252l-217 318h262l99 -148l145 148h281z" />
<glyph unicode="&#x17e;" horiz-adv-x="987" d="M154 983h802l-28 -182l-547 -563h487l-39 -238h-860l29 184l547 564h-428zM1024 1423l-317 -317h-252l-217 317h262l98 -147l145 147h281z" />
<glyph unicode="&#x2c6;" horiz-adv-x="753" d="M502 1868h250l204 -318h-260l-88 136l-129 -136h-282z" />
<glyph unicode="&#x2da;" horiz-adv-x="505" d="M741 1735q-18 -106 -97.5 -168t-180.5 -62q-48 0 -93 18.5t-79 51.5t-50.5 84.5t-7.5 112.5q18 102 98.5 162.5t180.5 60.5q104 0 175.5 -72.5t53.5 -187.5zM401 1755q-6 -41 15.5 -65.5t58.5 -24.5q38 0 66 21.5t34 60.5t-15.5 64.5t-57.5 25.5t-65.5 -22t-35.5 -60z " />
<glyph unicode="&#x2dc;" horiz-adv-x="729" d="M973 1827q9 -130 -55 -207.5t-166 -77.5q-55 0 -112.5 21.5t-103 43t-71.5 21.5q-33 0 -48 -26t-11 -48h-205q-9 128 55 206.5t164 78.5q55 0 113 -21.5t104 -43t72 -21.5q34 0 48.5 25t10.5 49h205z" />
<glyph unicode="&#x401;" horiz-adv-x="1263" d="M1200 1688q-9 -56 -56.5 -95t-105.5 -39q-68 0 -108.5 50t-30.5 120q9 56 56 96t104 40q69 0 110.5 -50.5t30.5 -121.5zM762 1688q-9 -56 -56.5 -95t-105.5 -39q-68 0 -108.5 50t-30.5 120q9 56 56 96t104 40q69 0 110.5 -50.5t30.5 -121.5zM287 1434h1009l-43 -271h-704 l-47 -305h641l-41 -268h-643l-51 -320h716l-43 -270h-1022z" />
<glyph unicode="&#x410;" horiz-adv-x="1513" d="M1413 0h-309l-64 268h-657l-145 -268h-326l811 1434h334zM801 1028l-281 -506h463l-115 506q-13 55 -16 123q-27 -76 -51 -123z" />
<glyph unicode="&#x411;" horiz-adv-x="1380" d="M510 901h313q83 0 155.5 -13.5t140.5 -47t112.5 -85.5t64 -134.5t2.5 -188.5q-66 -432 -608 -432h-631l228 1434h1054l-45 -277h-747zM410 270h311q239 0 270 185q7 46 -2 79t-27.5 51.5t-50.5 29t-61.5 13.5t-69.5 3h-313z" />
<glyph unicode="&#x412;" horiz-adv-x="1406" d="M287 1434h606q108 0 196.5 -24.5t152.5 -71t93 -120.5t15 -167q-36 -226 -267 -299q51 -16 93.5 -44.5t76 -72t47 -108.5t0.5 -144q-59 -383 -618 -383h-623zM1004 432q10 56 -3.5 94.5t-47.5 57.5t-72 26.5t-88 7.5h-330l-57 -368h301q265 0 297 182zM1040 1016 q15 85 -33.5 125.5t-152.5 40.5h-301l-51 -328h303q93 0 157.5 42.5t77.5 119.5z" />
<glyph unicode="&#x413;" horiz-adv-x="1181" d="M367 0h-308l228 1434h1001l-43 -277h-696z" />
<glyph unicode="&#x414;" horiz-adv-x="1654" d="M170 -311h-270l92 581h168q295 394 413 1164h971l-184 -1164h184l-92 -581h-270l49 311h-1012zM821 1157q-132 -609 -325 -887h559l141 887h-375z" />
<glyph unicode="&#x415;" horiz-adv-x="1263" d="M287 1434h1009l-43 -271h-704l-47 -305h641l-41 -268h-643l-51 -320h716l-43 -270h-1022z" />
<glyph unicode="&#x416;" horiz-adv-x="2019" d="M1780 1434h338l-516 -713l313 -721h-307l-254 586h-193l-92 -586h-307l94 586h-172l-434 -586h-340l551 735l-289 699h313l232 -570h182l90 570h307l-90 -570h174z" />
<glyph unicode="&#x417;" d="M1161 371q-14 -90 -57.5 -160t-104.5 -114.5t-141.5 -73.5t-163 -40.5t-174.5 -11.5q-267 0 -524 97l43 274q227 -94 473 -94q318 4 350 194q8 45 -5.5 77.5t-45.5 50t-71.5 25t-90.5 7.5h-344l45 270h281q118 0 188.5 40t83.5 116q12 80 -55 119t-191 39 q-224 0 -483 -117l47 297q221 96 477 96q117 0 216.5 -26.5t171.5 -76.5t106 -129t18 -177q-19 -110 -89.5 -187t-186.5 -112q54 -16 98.5 -46t79 -75.5t48.5 -113t1 -148.5z" />
<glyph unicode="&#x418;" horiz-adv-x="1564" d="M1544 1434l-227 -1434h-307l118 739q11 82 37 179l-829 -918h-277l228 1434h307l-119 -740q-11 -79 -35 -178l828 918h276z" />
<glyph unicode="&#x419;" horiz-adv-x="1564" d="M1544 1434l-227 -1434h-307l118 739q11 82 37 179l-829 -918h-277l228 1434h307l-119 -740q-11 -79 -35 -178l828 918h276zM1290 1624q-78 -48 -153.5 -70t-171.5 -22q-195 0 -316 92l35 223q71 -49 141 -68.5t158 -19.5q188 0 342 88z" />
<glyph unicode="&#x41a;" horiz-adv-x="1413" d="M1190 1434h340l-569 -721l364 -713h-326l-299 586h-241l-92 -586h-308l228 1434h307l-90 -570h237z" />
<glyph unicode="&#x41b;" horiz-adv-x="1533" d="M535 1434h978l-227 -1434h-305l182 1157h-385q-38 -172 -58 -260t-60 -235.5t-72.5 -226t-84.5 -179.5t-106.5 -151t-129 -86.5t-161.5 -36.5q-113 0 -184 32l41 269q48 -18 103 -15q58 4 109.5 52t93 130.5t77 184.5t66 226t56 242t50.5 244q11 58 17 87z" />
<glyph unicode="&#x41c;" horiz-adv-x="1855" d="M1524 1434h311l-227 -1434h-305l141 889l-451 -563h-207l-276 567l-143 -893h-308l228 1434h276l365 -748z" />
<glyph unicode="&#x41d;" horiz-adv-x="1564" d="M1237 1434h307l-227 -1434h-307l90 578h-643l-90 -578h-308l228 1434h307l-92 -578h643z" />
<glyph unicode="&#x41e;" horiz-adv-x="1665" d="M1610 698q-18 -115 -63.5 -221t-121 -198.5t-173.5 -161t-227.5 -107.5t-276.5 -39q-119 0 -222 29t-178.5 80.5t-133.5 123t-88 156t-41 180t7 195.5q23 144 92 273.5t176 231.5t261.5 162t334.5 60q172 0 309.5 -63.5t219.5 -169t115.5 -243.5t9.5 -288zM399 709 q-14 -90 1 -170.5t58 -144t121.5 -101t184.5 -37.5q221 0 362.5 132t173.5 337q14 90 -1 170.5t-57.5 144t-121 101t-184.5 37.5q-219 0 -361 -132t-176 -337z" />
<glyph unicode="&#x41f;" horiz-adv-x="1554" d="M367 0h-308l228 1434h1247l-227 -1434h-306l183 1157h-635z" />
<glyph unicode="&#x420;" horiz-adv-x="1363" d="M287 1434h540q99 0 183.5 -15.5t159.5 -52t123.5 -92.5t69 -143t3.5 -197q-17 -106 -59 -186.5t-102 -132.5t-142.5 -84.5t-173 -46t-201.5 -13.5h-248l-73 -471h-308zM1057 956q35 207 -244 207h-262l-68 -422h250q289 0 324 215z" />
<glyph unicode="&#x421;" horiz-adv-x="1329" d="M94 745q23 141 87.5 261.5t153 203t196.5 140.5t217 85t215 27q232 0 403 -104l-43 -275q-126 107 -324 107q-76 0 -151 -16.5t-149.5 -53t-134.5 -90.5t-104 -134.5t-59 -178.5q-18 -117 11 -209.5t92.5 -148t145.5 -84.5t173 -29q220 0 396 116l-50 -305 q-179 -86 -409 -86q-113 0 -219 29.5t-198.5 93t-156.5 153t-90 218.5t-2 280z" />
<glyph unicode="&#x422;" horiz-adv-x="1234" d="M158 1434h1185l-43 -277h-440l-182 -1157h-307l184 1157h-440z" />
<glyph unicode="&#x423;" horiz-adv-x="1355" d="M801 319q-125 -198 -243 -273t-259 -75q-128 0 -231 39l41 258q73 -28 153 -28q68 0 126 30.5t114 102.5l35 49l-410 1012h326l272 -750l432 750h338z" />
<glyph unicode="&#x424;" horiz-adv-x="1798" d="M942 -80h-295l33 180q-142 9 -263 56.5t-207.5 126.5t-126 196.5t-17.5 257.5q43 276 254.5 431.5t551.5 164.5l29 180h293l-29 -180q138 -11 256 -58.5t205 -126.5t127 -196t19 -256q-44 -275 -253.5 -430t-547.5 -166zM369 719q-11 -67 3 -127t53 -111t114 -85t180 -42 l115 723q-110 -8 -195 -38.5t-140 -79t-87 -108t-43 -132.5zM1126 1079l-114 -723q211 18 322 113t136 246q24 140 -61.5 243t-282.5 121z" />
<glyph unicode="&#x425;" horiz-adv-x="1380" d="M254 0h-367l650 739l-383 695h344l243 -457l398 457h366l-612 -697l405 -737h-344l-264 504z" />
<glyph unicode="&#x426;" horiz-adv-x="1644" d="M1442 -311h-271l50 311h-1162l228 1434h307l-184 -1158h637l182 1158h307l-182 -1158h180z" />
<glyph unicode="&#x427;" horiz-adv-x="1417" d="M1169 0h-305l80 516q-175 -63 -356 -63q-240 2 -368.5 131t-90.5 370l76 480h305l-76 -486q-19 -116 47 -165.5t199 -49.5q149 0 309 60l103 641h305z" />
<glyph unicode="&#x428;" horiz-adv-x="2152" d="M1905 0h-1846l228 1434h307l-184 -1158h462l185 1158h307l-184 -1158h462l185 1158h305z" />
<glyph unicode="&#x429;" horiz-adv-x="2242" d="M2038 -311h-269l50 311h-1760l228 1434h307l-184 -1158h462l185 1158h307l-184 -1158h462l185 1158h305l-182 -1158h182z" />
<glyph unicode="&#x42a;" horiz-adv-x="1576" d="M819 0h-547l183 1157h-340l43 277h647l-74 -471h230q103 0 189 -15t161 -51.5t122.5 -92.5t67.5 -143t2 -198q-16 -106 -58 -186.5t-102 -132.5t-143.5 -84.5t-175.5 -46t-205 -13.5zM688 692l-67 -422h241q52 0 94 5t84 19.5t72.5 38t53 63t30.5 91.5 q17 110 -53.5 157.5t-196.5 47.5h-258z" />
<glyph unicode="&#x42b;" horiz-adv-x="1888" d="M606 0h-547l228 1434h307l-76 -471h232q102 0 187.5 -15t160.5 -51.5t123 -92.5t68 -143t3 -198q-17 -106 -59 -186.5t-102.5 -132.5t-144 -84.5t-175.5 -46t-205 -13.5zM477 692l-67 -422h241q52 0 94 5t84 19.5t72.5 38t53 63t30.5 91.5q17 110 -53.5 157.5 t-196.5 47.5h-258zM1640 0h-307l228 1434h307z" />
<glyph unicode="&#x42c;" horiz-adv-x="1363" d="M606 0h-547l228 1434h307l-76 -471h232q102 0 187.5 -15t160.5 -51.5t123 -92.5t68 -143t3 -198q-17 -106 -59 -186.5t-102.5 -132.5t-144 -84.5t-175.5 -46t-205 -13.5zM477 692l-67 -422h241q52 0 94 5t84 19.5t72.5 38t53 63t30.5 91.5q17 110 -53.5 157.5 t-196.5 47.5h-258z" />
<glyph unicode="&#x42d;" horiz-adv-x="1335" d="M211 1370q174 92 405 92q113 0 218 -29.5t197.5 -90t154 -153.5t88.5 -220t0 -289q-23 -146 -81.5 -265.5t-141 -200.5t-187.5 -136.5t-218.5 -81t-235.5 -25.5q-226 0 -406 97l45 280q144 -100 344 -100q94 0 176.5 18t158 56.5t133.5 107.5t89 162l-649 -2l41 264 l647 2q-3 74 -29.5 132t-67.5 94.5t-96.5 60t-111 33t-117.5 10.5q-232 0 -403 -113z" />
<glyph unicode="&#x42e;" horiz-adv-x="2260" d="M2208 698q-23 -145 -91 -274t-175 -231t-262 -162t-337 -60q-154 0 -278 48t-203.5 132t-123 193.5t-46.5 235.5h-235l-90 -580h-308l228 1434h307l-92 -578h227q38 126 109 233.5t172.5 192t241 132.5t300.5 48q172 0 310 -63.5t220 -169t116 -243.5t10 -288zM997 709 q-14 -90 1 -170.5t58 -144t121.5 -101t184.5 -37.5q221 0 362.5 132t173.5 337q14 90 -1 170.5t-57.5 144t-121 101t-184.5 37.5q-219 0 -361 -132t-176 -337z" />
<glyph unicode="&#x42f;" horiz-adv-x="1431" d="M291 0h-361l498 541q-139 58 -207 167.5t-41 264.5q19 123 79 214t149.5 144t194.5 78t226 25h582l-227 -1434h-305l75 487h-213zM492 956q-18 -109 44 -161t185 -52h274l68 420h-262q-127 0 -209.5 -52t-99.5 -155z" />
<glyph unicode="&#x430;" d="M831 145q-138 -174 -370 -174q-113 0 -200.5 45t-137.5 120t-68.5 172t-1.5 202q16 98 60.5 187.5t113 160t165.5 112.5t208 42q125 0 209.5 -55.5t128.5 -137.5l27 164h249l-155 -983h-250zM336 485q-18 -114 37 -194t168 -80q94 0 172 49.5t123 122.5l38 229 q-18 69 -76.5 114.5t-142.5 45.5q-125 0 -211.5 -81t-107.5 -206z" />
<glyph unicode="&#x431;" horiz-adv-x="1196" d="M1104 430q-23 -149 -105 -254t-201.5 -155t-267.5 -50q-87 0 -162 22t-138 68.5t-102 118.5t-53.5 173t7.5 231q73 462 397 655q86 46 177 76t162 42.5t136.5 24.5t123 32t98.5 54l-35 -272q-47 -35 -110.5 -54.5t-119.5 -25.5t-132.5 -26t-141.5 -54 q-88 -38 -150.5 -114.5t-87.5 -153.5q59 71 146 112.5t190 41.5q87 0 161.5 -34t127.5 -95t75.5 -155.5t4.5 -207.5zM348 436q-5 -43 2.5 -83t29 -75.5t64.5 -57t103 -21.5q65 0 116.5 24.5t82 64.5t48 84.5t23.5 92.5q2 31 0 62.5t-16 62t-35 54t-57 38t-82 14.5 q-64 0 -116.5 -24t-85 -62.5t-52 -83t-25.5 -90.5z" />
<glyph unicode="&#x432;" horiz-adv-x="1122" d="M627 0h-602l155 983h572q161 0 236 -81t59 -197q-27 -153 -187 -216q75 -24 113 -86t24 -155q-17 -109 -105 -178.5t-265 -69.5zM373 408l-33 -213h219q71 0 113.5 25t52.5 87q7 52 -23.5 76.5t-87.5 24.5h-241zM434 788l-33 -208h209q134 0 150 110q9 51 -22 74.5 t-89 23.5h-215z" />
<glyph unicode="&#x433;" horiz-adv-x="899" d="M309 0h-284l155 983h750l-39 -240h-465z" />
<glyph unicode="&#x434;" horiz-adv-x="1335" d="M170 -260h-262l76 477h139q109 156 170.5 339.5t95.5 426.5h805l-121 -766h148l-76 -477h-262l41 260h-713zM610 764q-33 -181 -77.5 -308t-116.5 -239h379l88 547h-273z" />
<glyph unicode="&#x435;" horiz-adv-x="1110" d="M51 512q15 103 57 187.5t99 141.5t127 96.5t141.5 57t142.5 17.5q96 0 174 -25.5t129 -70t83.5 -104t42.5 -128t1 -141.5t-36 -146h-695q4 -53 31 -93t70.5 -62.5t94 -33.5t108.5 -11q187 0 321 67l-35 -231q-144 -62 -356 -62q-113 0 -211.5 36.5t-170.5 103t-104.5 171 t-13.5 230.5zM786 582q5 24 7.5 52t-9 56.5t-30 52t-55 38t-85.5 14.5q-99 0 -173.5 -59t-94.5 -154h440z" />
<glyph unicode="&#x436;" horiz-adv-x="1615" d="M215 0h-309l424 506l-228 477h279l184 -391h103l61 391h285l-62 -391h107l282 391h308l-387 -516l249 -467h-286l-199 367h-111l-57 -367h-285l58 367h-113z" />
<glyph unicode="&#x437;" horiz-adv-x="1009" d="M887 254q-9 -57 -41.5 -105.5t-93 -89t-160 -64t-230.5 -24.5q-234 0 -378 88l34 217q58 -37 144 -61.5t172 -24.5q122 0 192 27.5t80 95.5q5 31 -8.5 51.5t-42.5 29.5t-57.5 12.5t-65.5 3.5h-203l29 178h176q195 0 213 106q6 47 -39.5 74t-136.5 27q-94 0 -192.5 -23.5 t-174.5 -60.5l35 225q168 79 377 76q120 0 208.5 -26.5t136 -71.5t66.5 -99t9 -113q-12 -77 -64 -128t-133 -74q79 -26 120 -90t28 -156z" />
<glyph unicode="&#x438;" horiz-adv-x="1206" d="M274 0h-249l155 983h285l-86 -539l520 539h250l-156 -983h-282l84 537z" />
<glyph unicode="&#x439;" horiz-adv-x="1206" d="M1020 1194q-144 -92 -326 -92q-181 0 -315 92l33 213q141 -88 299 -88q179 0 342 88zM274 0h-249l155 983h285l-86 -539l520 539h250l-156 -983h-282l84 537z" />
<glyph unicode="&#x43a;" horiz-adv-x="1120" d="M309 0h-284l155 983h285l-59 -360h124l301 360h328l-422 -491l285 -492h-299l-225 397h-127z" />
<glyph unicode="&#x43b;" horiz-adv-x="1206" d="M580 758q-22 -105 -41 -185t-44.5 -165t-52.5 -145.5t-62.5 -117t-76 -90.5t-92 -54.5t-111.5 -20.5q-99 0 -168 26l37 232q29 -20 80 -17q38 2 70.5 27.5t60 76.5t50.5 114t45 154t39.5 180.5t37.5 209.5h797l-156 -983h-282l118 758h-249z" />
<glyph unicode="&#x43c;" horiz-adv-x="1398" d="M303 0h-278l155 983h262l232 -487l385 487h282l-155 -983h-279l94 580l-284 -361h-146l-174 365z" />
<glyph unicode="&#x43d;" horiz-adv-x="1204" d="M309 0h-284l155 983h285l-59 -373h399l57 373h285l-156 -983h-284l59 373h-399z" />
<glyph unicode="&#x43e;" horiz-adv-x="1214" d="M1130 467q-15 -97 -57.5 -179.5t-102.5 -140t-134.5 -98t-154 -59.5t-159.5 -19q-110 0 -203.5 36.5t-161 103.5t-97 172t-9.5 233q19 121 78.5 217.5t144 156.5t184 91t206.5 31q104 0 196.5 -36.5t160.5 -103.5t99 -172.5t10 -232.5zM334 487q-16 -113 38 -187.5 t173 -74.5q120 0 201 74.5t102 196.5q16 113 -37 187.5t-170 74.5q-121 0 -203.5 -74.5t-103.5 -196.5z" />
<glyph unicode="&#x43f;" horiz-adv-x="1204" d="M309 0h-284l155 983h967l-156 -983h-284l118 743h-399z" />
<glyph unicode="&#x440;" d="M408 838q61 78 156.5 126t215.5 48q109 0 195.5 -45t137.5 -120t71 -172t4 -202q-16 -98 -60.5 -187.5t-113 -160t-165.5 -112.5t-208 -42q-216 0 -313 154l-90 -576h-285l227 1434h252zM903 500q18 112 -37 192t-168 80q-93 0 -171 -50.5t-126 -123.5l-36 -233 q20 -67 77.5 -110.5t141.5 -43.5q125 0 211.5 81.5t107.5 207.5z" />
<glyph unicode="&#x441;" horiz-adv-x="1015" d="M51 506q16 107 62.5 194t109 144.5t140 96.5t155.5 56t156 17q177 0 311 -84l-39 -236q-97 72 -241 72q-64 0 -122.5 -16t-110.5 -48.5t-88 -88.5t-48 -130q-19 -132 56 -199t204 -67q148 0 299 74l-41 -256q-149 -64 -328 -64q-108 0 -200.5 32.5t-163 95.5 t-101.5 168.5t-10 238.5z" />
<glyph unicode="&#x442;" horiz-adv-x="972" d="M535 0h-285l119 743h-314l39 240h910l-39 -240h-314z" />
<glyph unicode="&#x443;" horiz-adv-x="1153" d="M545 311l321 672h330l-608 -1108q-106 -194 -221 -273t-250 -79q-85 0 -170 31l39 233q50 -20 104 -20q83 0 142.5 55t125.5 176l17 18l-307 967h297z" />
<glyph unicode="&#x444;" horiz-adv-x="1525" d="M731 -451h-270l67 424q-85 3 -163.5 28.5t-143 72.5t-109 110.5t-62.5 147.5t-3 178q35 226 208.5 359.5t436.5 142.5l68 422h270l-67 -424q109 -4 204.5 -43.5t164.5 -107.5t101 -168.5t13 -217.5q-35 -225 -211.5 -359t-437.5 -143zM324 489q-8 -53 2.5 -100.5t38 -87 t79.5 -64t123 -28.5l90 565q-136 -7 -224 -85t-109 -200zM926 774l-90 -565q140 7 226 84.5t105 200.5q18 110 -44 191.5t-197 88.5z" />
<glyph unicode="&#x445;" horiz-adv-x="1081" d="M240 0h-334l465 514l-285 469h305l162 -278l242 278h331l-442 -489l299 -494h-303l-178 303z" />
<glyph unicode="&#x446;" horiz-adv-x="1280" d="M1090 -260h-265l41 260h-841l155 983h285l-119 -743h389l117 743h285l-119 -750h147z" />
<glyph unicode="&#x447;" horiz-adv-x="1099" d="M887 0h-285l49 303q-107 -37 -243 -37q-62 0 -116.5 13t-101 42t-77.5 70.5t-43.5 102.5t-1.5 135l57 354h283l-54 -336q-11 -79 27.5 -110t114.5 -31q104 0 194 37l68 440h284z" />
<glyph unicode="&#x448;" horiz-adv-x="1662" d="M1450 0h-1425l155 983h285l-119 -743h287l119 743h282l-116 -743h286l119 743h283z" />
<glyph unicode="&#x449;" horiz-adv-x="1748" d="M1556 -260h-262l41 260h-1310l155 983h285l-119 -743h287l119 743h282l-116 -743h286l119 743h283l-117 -750h145z" />
<glyph unicode="&#x44a;" horiz-adv-x="1236" d="M709 0h-519l119 760h-252l35 223h537l-47 -307h229q174 0 268.5 -102.5t69.5 -254.5q-23 -140 -138 -229.5t-302 -89.5zM547 471l-41 -266h153q184 0 205 139q9 57 -28 92t-113 35h-176z" />
<glyph unicode="&#x44b;" horiz-adv-x="1591" d="M543 0h-518l155 983h285l-49 -307h229q174 0 269 -102.5t71 -254.5q-23 -140 -138 -229.5t-304 -89.5zM381 471l-41 -266h154q183 0 204 139q9 57 -28 92t-113 35h-176zM1378 0h-284l155 983h285z" />
<glyph unicode="&#x44c;" horiz-adv-x="1073" d="M543 0h-518l155 983h285l-49 -307h229q174 0 269 -102.5t71 -254.5q-23 -140 -138 -229.5t-304 -89.5zM381 471l-41 -266h154q183 0 204 139q9 57 -28 92t-113 35h-176z" />
<glyph unicode="&#x44d;" horiz-adv-x="1028" d="M942 455q-20 -125 -79 -221t-142 -151.5t-177.5 -83.5t-195.5 -28q-117 0 -194.5 21t-161.5 69l35 211q53 -38 125 -60t145 -22q278 0 354 201l-430 -2l35 213l432 2q-5 67 -47.5 111t-100 61t-128.5 17q-165 0 -320 -91l37 224q149 86 328 86q82 0 158.5 -20t144.5 -64 t114.5 -107.5t66 -158t1.5 -207.5z" />
<glyph unicode="&#x44e;" horiz-adv-x="1708" d="M1626 467q-15 -97 -58 -179.5t-103 -140t-134.5 -98t-154 -59.5t-160.5 -19q-186 0 -318.5 109t-144.5 299h-184l-60 -379h-284l155 983h285l-62 -379h179q31 100 91.5 179t138 128.5t165.5 75t180 25.5q105 0 197.5 -36.5t161 -103.5t99.5 -172.5t11 -232.5zM831 487 q-18 -113 35.5 -187.5t173.5 -74.5t201 74.5t102 196.5q16 113 -37 187.5t-169 74.5q-122 0 -204.5 -74.5t-101.5 -196.5z" />
<glyph unicode="&#x44f;" horiz-adv-x="1126" d="M256 0h-322l322 352q-180 98 -145 312q10 63 41.5 118.5t84 101.5t133.5 72.5t179 26.5h520l-156 -983h-282l47 293h-152zM391 633q-8 -57 30 -96t111 -39h177l43 268h-164q-83 0 -135 -34.5t-62 -98.5z" />
<glyph unicode="&#x451;" horiz-adv-x="1110" d="M1024 1237q-9 -55 -56 -94t-106 -39q-68 0 -108.5 50t-30.5 120q9 56 56 95.5t104 39.5q69 0 110.5 -50.5t30.5 -121.5zM586 1237q-9 -55 -56 -94t-106 -39q-68 0 -108.5 50t-30.5 120q9 56 55.5 95.5t103.5 39.5q69 0 111 -50.5t31 -121.5zM51 512q15 103 57 187.5 t99 141.5t127 96.5t141.5 57t142.5 17.5q96 0 174 -25.5t129 -70t83.5 -104t42.5 -128t1 -141.5t-36 -146h-695q4 -53 31 -93t70.5 -62.5t94 -33.5t108.5 -11q187 0 321 67l-35 -231q-144 -62 -356 -62q-113 0 -211.5 36.5t-170.5 103t-104.5 171t-13.5 230.5zM786 582 q5 24 7.5 52t-9 56.5t-30 52t-55 38t-85.5 14.5q-99 0 -173.5 -59t-94.5 -154h440z" />
<glyph unicode="&#x2000;" horiz-adv-x="997" />
<glyph unicode="&#x2001;" horiz-adv-x="1995" />
<glyph unicode="&#x2002;" horiz-adv-x="997" />
<glyph unicode="&#x2003;" horiz-adv-x="1995" />
<glyph unicode="&#x2004;" horiz-adv-x="665" />
<glyph unicode="&#x2005;" horiz-adv-x="498" />
<glyph unicode="&#x2006;" horiz-adv-x="332" />
<glyph unicode="&#x2007;" horiz-adv-x="332" />
<glyph unicode="&#x2008;" horiz-adv-x="249" />
<glyph unicode="&#x2009;" horiz-adv-x="399" />
<glyph unicode="&#x200a;" horiz-adv-x="110" />
<glyph unicode="&#x2010;" horiz-adv-x="989" d="M119 618h762l-39 -239h-762z" />
<glyph unicode="&#x2011;" horiz-adv-x="989" d="M119 618h762l-39 -239h-762z" />
<glyph unicode="&#x2012;" horiz-adv-x="989" d="M119 618h762l-39 -239h-762z" />
<glyph unicode="&#x2013;" horiz-adv-x="1185" d="M1038 379h-958l39 239h958z" />
<glyph unicode="&#x2014;" horiz-adv-x="1587" d="M1440 379h-1360l39 239h1360z" />
<glyph unicode="&#x2018;" horiz-adv-x="548" d="M408 883h-304l287 551h234z" />
<glyph unicode="&#x2019;" horiz-adv-x="540" d="M352 883h-233l217 551h303z" />
<glyph unicode="&#x201a;" horiz-adv-x="542" d="M109 -297h-234l217 551h305z" />
<glyph unicode="&#x201c;" horiz-adv-x="942" d="M801 883h-303l286 551h234zM408 883h-304l287 551h234z" />
<glyph unicode="&#x201d;" horiz-adv-x="933" d="M745 883h-233l217 551h303zM352 883h-233l217 551h303z" />
<glyph unicode="&#x201e;" horiz-adv-x="935" d="M502 -297h-234l217 551h306zM109 -297h-234l217 551h305z" />
<glyph unicode="&#x2026;" horiz-adv-x="1513" d="M1362 123q-13 -75 -63.5 -112.5t-120.5 -37.5q-79 0 -125.5 49t-32.5 138q11 74 62.5 111.5t119.5 37.5q81 0 127 -48t33 -138zM358 123q-13 -75 -63.5 -112.5t-120.5 -37.5q-79 0 -125.5 49t-32.5 138q11 74 63 111.5t122 37.5q79 0 124.5 -48t32.5 -138zM860 123 q-13 -75 -63.5 -112.5t-120.5 -37.5q-79 0 -125.5 49t-32.5 138q11 74 62.5 111.5t121.5 37.5q80 0 125.5 -48t32.5 -138z" />
<glyph unicode="&#x202f;" horiz-adv-x="399" />
<glyph unicode="&#x2039;" horiz-adv-x="677" d="M526 94h-280l-205 371l8 59l316 365h294l-346 -397z" />
<glyph unicode="&#x203a;" horiz-adv-x="677" d="M281 94h-295l346 398l-213 397h280l207 -371l-10 -59z" />
<glyph unicode="&#x205f;" horiz-adv-x="498" />
<glyph unicode="&#x20ac;" horiz-adv-x="1488" d="M1448 1044q-138 105 -344 105q-147 0 -270.5 -54.5t-198.5 -166.5h532l-28 -183h-582q-11 -42 -14 -98h581l-28 -182h-525q45 -105 146.5 -162t230.5 -57q106 0 212.5 31t185.5 83l-48 -303q-185 -86 -407 -86q-116 0 -223.5 32t-195.5 92.5t-149.5 155.5t-82.5 214h-189 l29 182h151q2 51 13 98h-150l29 183h174q51 124 138 220.5t193 155t222.5 88t236.5 29.5q215 0 404 -100z" />
<glyph unicode="&#x2122;" horiz-adv-x="1392" d="M827 905h-159l84 529h153l121 -250l188 250h177l-82 -529h-160l43 275l-127 -162h-115l-80 160zM440 905h-161l63 385h-158l23 144h473l-23 -144h-157z" />
<glyph unicode="&#x25fc;" horiz-adv-x="983" d="M0 983h983v-983h-983v983z" />
</font>
</defs>
</svg>
