<?xml version="1.0" standalone="no"?>
<!DOCTYPE svg PUBLIC "-//W3C//DTD SVG 1.1//EN" "http://www.w3.org/Graphics/SVG/1.1/DTD/svg11.dtd" >
<svg xmlns="http://www.w3.org/2000/svg" xmlns:xlink="http://www.w3.org/1999/xlink" version="1.1">
<metadata></metadata>
<defs>
<font id="mullerbold" horiz-adv-x="1208" >
<font-face units-per-em="2048" ascent="1597" descent="-451" />
<missing-glyph horiz-adv-x="454" />
<glyph horiz-adv-x="0" />
<glyph horiz-adv-x="682" />
<glyph unicode=" "  horiz-adv-x="454" />
<glyph unicode="&#x09;" horiz-adv-x="454" />
<glyph unicode="&#xa0;" horiz-adv-x="454" />
<glyph unicode="!" horiz-adv-x="552" d="M408 492h-263l-18 942h299zM449 141q0 -83 -49.5 -125.5t-123.5 -42.5q-73 0 -122.5 42.5t-49.5 125.5q0 80 49.5 123t122.5 43q74 0 123.5 -42.5t49.5 -123.5z" />
<glyph unicode="&#x22;" horiz-adv-x="823" d="M692 985h-200v449h253zM307 985h-201v449h254z" />
<glyph unicode="#" horiz-adv-x="1406" d="M408 0h-271l72 309h-139v209h188l86 359h-172v208h221l74 310h270l-73 -310h264l73 310h271l-74 -310h137v-208h-186l-86 -359h170v-209h-219l-72 -309h-270l71 309h-264zM614 877l-86 -359h265l86 359h-265z" />
<glyph unicode="$" horiz-adv-x="1239" d="M721 -266h-223v243q-235 22 -412 123v293q227 -151 514 -151q131 0 195.5 31.5t64.5 105.5q0 43 -26 75.5t-70.5 54.5t-102 40.5t-121 37.5t-127 41t-121 55.5t-102 76t-70.5 108t-26 146.5q0 174 110.5 275t293.5 126v244h223v-246q215 -19 362 -102v-287 q-89 64 -204.5 96.5t-237.5 30.5q-233 -3 -233 -133q0 -50 42.5 -85.5t110 -58.5t149.5 -45t164 -54.5t149.5 -77.5t110 -122.5t42.5 -181.5q0 -83 -23 -150.5t-63.5 -114t-99 -79.5t-124.5 -50.5t-145 -23.5v-241z" />
<glyph unicode="%" horiz-adv-x="1886" d="M631 -123h-205l838 1679h204zM801 1110q0 -166 -106.5 -259t-262.5 -93q-76 0 -142.5 23t-118.5 66t-82 111t-30 152t30 152t82 111t118.5 66t142.5 23q156 0 262.5 -93t106.5 -259zM289 1110q0 -60 36 -100.5t107 -40.5q68 0 103.5 40.5t35.5 100.5t-35.5 100.5 t-103.5 40.5q-71 0 -107 -40.5t-36 -100.5zM1827 324q0 -166 -106.5 -259.5t-262.5 -93.5q-102 0 -185 39t-135.5 121t-52.5 193q0 84 30 152t82 111t118.5 66t142.5 23q156 0 262.5 -93t106.5 -259zM1315 324q0 -60 36 -101t107 -41q68 0 103.5 41t35.5 101t-35.5 100.5 t-103.5 40.5q-71 0 -107 -40.5t-36 -100.5z" />
<glyph unicode="&#x26;" horiz-adv-x="1484" d="M1217 264l274 -264h-326l-116 109q-199 -138 -465 -138q-225 0 -362.5 107t-137.5 276q0 69 23 130t66 108.5t89.5 83t106.5 69.5q-160 172 -160 326q0 169 135.5 280t345.5 111q186 0 309 -100t123 -258q0 -73 -30 -136.5t-86 -113.5t-111 -84.5t-129 -71.5l262 -254 q71 123 68 256h280q0 -110 -41 -224.5t-118 -211.5zM850 1092q0 65 -43 103t-123 38q-91 0 -147 -49.5t-56 -116.5q0 -56 30.5 -103.5t88.5 -105.5q54 25 92.5 46.5t77.5 51t59.5 64t20.5 72.5zM377 381q0 -80 64 -125t182 -45q132 0 243 68l-327 305q-162 -90 -162 -203z " />
<glyph unicode="'" horiz-adv-x="438" d="M307 985h-201v449h254z" />
<glyph unicode="(" horiz-adv-x="645" d="M381 1659h229q-114 -198 -179.5 -446.5t-65.5 -495.5t65.5 -495.5t179.5 -446.5h-229q-141 199 -224 448.5t-83 493.5t83 493.5t224 448.5z" />
<glyph unicode=")" horiz-adv-x="645" d="M35 1659h229q141 -199 224 -448.5t83 -493.5t-83 -493.5t-224 -448.5h-229q114 198 180 446.5t66 495.5t-66 495.5t-180 446.5z" />
<glyph unicode="*" horiz-adv-x="983" d="M492 911l-134 -252l-217 152l181 184l-254 52l90 249l233 -116l-33 254h267l-33 -254l233 116l90 -249l-253 -52l180 -184l-217 -152z" />
<glyph unicode="+" horiz-adv-x="1105" d="M674 838h358v-242h-358v-358h-242v358h-358v242h358v358h242v-358z" />
<glyph unicode="," horiz-adv-x="536" d="M242 -297h-230l129 551h301z" />
<glyph unicode="-" horiz-adv-x="987" d="M113 618h761v-239h-761v239z" />
<glyph unicode="." horiz-adv-x="509" d="M428 141q0 -82 -49 -125t-123 -43t-124 43t-50 125t50 125t124 43t123 -43t49 -125z" />
<glyph unicode="/" horiz-adv-x="923" d="M250 -121h-203l627 1675h203z" />
<glyph unicode="0" horiz-adv-x="1445" d="M88 696q0 154 37.5 283t112.5 229t199 156.5t286 56.5t286 -56.5t199 -156.5t112.5 -229t37.5 -283t-37.5 -283t-112.5 -229t-199 -156.5t-286 -56.5t-286 56.5t-199 156.5t-112.5 229t-37.5 283zM1051 696q0 455 -328 455t-328 -455q0 -454 328 -454t328 454z" />
<glyph unicode="1" horiz-adv-x="944" d="M442 1393h224v-1129h233v-264h-795v264h263v821l-263 -98v277z" />
<glyph unicode="2" horiz-adv-x="1220" d="M129 1274q206 147 479 147q108 0 198.5 -24.5t160.5 -73.5t109.5 -129t39.5 -184q0 -68 -23 -131t-56.5 -109.5t-87 -94t-100 -79.5t-110.5 -70q-168 -99 -213 -133q-95 -70 -96 -131l696 2v-264h-1044v137q0 66 14 126t35.5 106t57 90t69 75t81.5 65t84 56t87 52 q21 12 31 18q14 8 52 29.5t52 30t44 28t42 30.5t31.5 31t27.5 37t14.5 39.5t6.5 46.5q0 75 -61.5 115.5t-169.5 40.5t-226 -42t-225 -124v287z" />
<glyph unicode="3" horiz-adv-x="1220" d="M1079 1036q0 -107 -56 -186t-155 -113q118 -36 193.5 -124.5t75.5 -231.5q0 -85 -30.5 -154.5t-82.5 -116.5t-124 -79t-152 -46t-168 -14q-257 0 -484 95v284q112 -63 221 -86.5t238 -21.5q128 0 208.5 44.5t80.5 137.5q0 162 -242 162h-229l2 262l192 -2q104 0 162.5 38 t58.5 109q0 76 -65.5 118t-190.5 42q-207 0 -411 -125v285q199 108 454 108q147 0 259 -42.5t178.5 -130.5t66.5 -212z" />
<glyph unicode="4" horiz-adv-x="1341" d="M764 1393h305v-883h211v-256h-211v-254h-293v254h-731v254zM776 510v508l-411 -508h411z" />
<glyph unicode="5" horiz-adv-x="1206" d="M182 1395h885v-265l-608 3l-19 -273q103 21 181 21q86 0 160.5 -15.5t139 -49.5t110.5 -85t72.5 -126.5t26.5 -168.5q0 -117 -48.5 -208.5t-131.5 -146t-187 -82.5t-222 -28q-251 0 -449 95v284q82 -52 194 -81t220 -29q143 0 230 51t87 149q0 205 -340 205 q-184 0 -350 -59z" />
<glyph unicode="6" horiz-adv-x="1314" d="M393 807q175 94 373 94q95 0 181.5 -29t154.5 -83.5t108.5 -142t40.5 -195.5q0 -115 -43 -208t-116.5 -151.5t-169 -89.5t-203.5 -31q-631 0 -631 725q0 149 35 271t96 205t145.5 140t181 83t204.5 26q197 0 383 -86v-270q-71 47 -161.5 72.5t-180.5 25.5 q-350 0 -398 -356zM393 559q21 -185 96.5 -261.5t204.5 -76.5q110 0 180 53t70 162q0 58 -22 100t-61 65t-85.5 33.5t-103.5 10.5q-146 0 -279 -86z" />
<glyph unicode="7" horiz-adv-x="1159" d="M51 1395h1071v-221l-571 -1174h-332l551 1130h-719v265z" />
<glyph unicode="8" horiz-adv-x="1347" d="M135 1036q0 73 31.5 139.5t93.5 122.5t168.5 89.5t243.5 33.5q128 0 232.5 -33.5t170 -90t101 -125.5t36.5 -144q3 -188 -176 -321q228 -113 228 -330q0 -63 -20.5 -121t-66 -110.5t-112.5 -91t-167 -61t-222 -22.5q-150 0 -267 34.5t-186 94t-104 132.5t-35 155 q0 103 59 197t158 153q-166 114 -166 299zM707 573q-29 11 -99.5 33.5t-107.5 36.5q-55 -46 -83 -104.5t-26 -114.5q2 -95 79 -153t228 -58q112 0 186 43.5t74 112.5q0 35 -14.5 63t-32.5 46t-58 37.5t-65.5 29t-80.5 28.5zM918 1006q0 76 -67.5 125t-191.5 49 q-106 0 -168.5 -42.5t-62.5 -103.5q0 -23 5 -42.5t17.5 -36t23.5 -29t34.5 -25.5t37.5 -21t46 -19.5t46.5 -16.5t51.5 -17q23 -6 67 -18.5t62 -17.5q49 49 75 106t24 109z" />
<glyph unicode="9" horiz-adv-x="1314" d="M63 942q0 115 43 208t117 151t169.5 89t203.5 31q631 0 631 -725q0 -149 -35 -271t-96 -205t-145.5 -140t-181 -83t-204.5 -26q-197 0 -383 86v271q72 -47 162 -73t180 -26q75 0 137 17.5t117.5 57t93 111t50.5 171.5q-175 -94 -371 -94q-96 0 -183 29t-155.5 83.5 t-109 142t-40.5 195.5zM621 1171q-110 0 -180 -53t-70 -162q0 -58 22 -99.5t61 -64.5t85.5 -33.5t103.5 -10.5q143 0 279 83q-21 187 -96.5 263.5t-204.5 76.5z" />
<glyph unicode=":" horiz-adv-x="575" d="M461 764q0 -83 -49 -125.5t-123 -42.5q-75 0 -124.5 42.5t-49.5 125.5q0 82 50 125t124 43t123 -43t49 -125zM461 141q0 -82 -49 -125t-123 -43t-124 43t-50 125t50 125t124 43t123 -43t49 -125z" />
<glyph unicode=";" horiz-adv-x="595" d="M270 -297h-229l129 551h301zM473 821q0 -83 -49.5 -126.5t-124.5 -43.5q-73 0 -122.5 43.5t-49.5 126.5q0 81 49.5 123.5t122.5 42.5q76 0 125 -42t49 -124z" />
<glyph unicode="&#x3c;" horiz-adv-x="1036" d="M895 535v-256l-815 296v283l815 297v-256l-567 -182z" />
<glyph unicode="=" horiz-adv-x="1183" d="M1063 801h-942v239h942v-239zM1063 393h-942v240h942v-240z" />
<glyph unicode="&#x3e;" horiz-adv-x="1036" d="M956 575l-815 -296v256l568 182l-568 182v256l815 -297v-283z" />
<glyph unicode="?" horiz-adv-x="1021" d="M598 471h-270q0 72 33.5 142.5t80.5 125.5t94.5 105t81 100.5t33.5 93.5q0 154 -233 154q-172 0 -346 -100v270q186 100 397 100q101 0 186 -20t154.5 -61t109 -112t39.5 -165q0 -79 -37 -155.5t-90 -137t-106 -116.5t-90 -114t-37 -110zM637 141q0 -82 -49 -125 t-123 -43t-124 43t-50 125t50 125t124 43t123 -43t49 -125z" />
<glyph unicode="@" horiz-adv-x="2146" d="M76 492q0 150 41.5 292t126.5 265t204.5 215t284.5 145t357 53q189 0 351.5 -54.5t274.5 -144.5t191.5 -206.5t117 -239.5t37.5 -244q0 -278 -120 -419.5t-328 -141.5q-122 0 -212.5 55.5t-125.5 151.5q-42 -72 -115.5 -114t-173.5 -42q-120 0 -210 62.5t-133.5 157.5 t-43.5 204q0 82 25 157.5t72.5 136t123.5 96.5t170 36q183 0 279 -137v113h217v-506q0 -160 141 -160q174 0 174 350q0 91 -27.5 182.5t-86 176.5t-140.5 150t-200.5 104t-257.5 39q-141 0 -263 -39.5t-211 -108.5t-153 -161.5t-95.5 -200.5t-31.5 -223q0 -145 43 -266 t119.5 -206.5t181.5 -144.5t228 -87t261 -28q223 0 445 72v-235q-209 -74 -453 -74q-174 0 -333.5 38.5t-297 118.5t-238.5 193.5t-158.5 272.5t-57.5 346zM1247 567q-22 61 -74.5 101.5t-125.5 40.5q-92 0 -146.5 -64.5t-54.5 -157.5t54.5 -157t146.5 -64q72 0 125 41 t75 101v159z" />
<glyph unicode="A" horiz-adv-x="1513" d="M324 0h-318l586 1434h332l583 -1434h-317l-105 268h-655zM725 1036l-199 -514h463l-201 514q-20 58 -30 113q-11 -59 -33 -113z" />
<glyph unicode="B" horiz-adv-x="1404" d="M154 1434h626q235 0 365.5 -91.5t130.5 -271.5q0 -121 -58.5 -200t-158.5 -113q119 -35 196.5 -122.5t77.5 -234.5q0 -94 -35 -166.5t-90.5 -116t-132 -71t-150.5 -37.5t-155 -10h-616v1434zM1026 434q0 184 -244 184h-323v-368h307q57 0 99.5 7t81 26t59 57t20.5 94z M971 1018q0 83 -56.5 123.5t-160.5 40.5h-293v-328h309q91 0 146 41.5t55 122.5z" />
<glyph unicode="C" horiz-adv-x="1339" d="M74 700q1 152 44.5 279.5t117 215.5t172.5 149t209 89.5t227 28.5q223 0 409 -92v-293q-69 54 -163.5 83.5t-194.5 29.5q-78 0 -149.5 -17.5t-137 -56t-114 -94.5t-77 -138.5t-28.5 -183.5q-1 -92 27.5 -168t77.5 -128t114.5 -88.5t137.5 -53t149 -16.5q112 0 208.5 30.5 t160.5 88.5v-302q-192 -92 -416 -92q-117 0 -227.5 27.5t-210.5 86t-174 142.5t-118 206t-44 267z" />
<glyph unicode="D" horiz-adv-x="1519" d="M154 1434h536q187 0 332 -53t236 -149.5t137.5 -226.5t46.5 -288t-46.5 -288t-137.5 -226.5t-236 -149.5t-332 -53h-536v1434zM1128 717q0 220 -111.5 333t-326.5 113h-229v-893h229q215 0 326.5 113.5t111.5 333.5z" />
<glyph unicode="E" horiz-adv-x="1265" d="M154 1434h1009v-271h-702v-305h641v-268h-641v-320h715v-270h-1022v1434z" />
<glyph unicode="F" horiz-adv-x="1234" d="M154 1434h1011v-277h-704v-334h645v-276h-645v-547h-307v1434z" />
<glyph unicode="G" horiz-adv-x="1437" d="M76 717q0 151 43.5 276.5t117.5 211t174.5 144.5t212 86t232.5 27q233 0 440 -92v-293q-168 111 -399 111q-100 0 -188 -27t-161 -81.5t-116 -148t-43 -214.5q0 -110 31.5 -195.5t80.5 -137.5t116 -85.5t131.5 -46t132.5 -12.5q87 0 157 26v512h293v-710 q-227 -97 -467 -97q-123 0 -236 26.5t-214.5 85t-176 144t-118 211.5t-43.5 279z" />
<glyph unicode="H" horiz-adv-x="1564" d="M1104 1434h307v-1434h-307v578h-643v-578h-307v1434h307v-578h643v578z" />
<glyph unicode="I" horiz-adv-x="614" d="M154 1434h307v-1434h-307v1434z" />
<glyph unicode="J" horiz-adv-x="1054" d="M223 1434h688v-1002q0 -99 -27 -177.5t-74 -130.5t-112.5 -86.5t-139.5 -49.5t-159 -15q-208 0 -370 74v287q127 -78 297 -78q278 0 278 211v690h-381v277z" />
<glyph unicode="K" horiz-adv-x="1415" d="M461 0h-307v1434h307v-570h231l363 570h342l-465 -699l491 -735h-340l-391 586h-231v-586z" />
<glyph unicode="L" horiz-adv-x="1189" d="M154 1434h307v-1158h702v-276h-1009v1434z" />
<glyph unicode="M" horiz-adv-x="1857" d="M1419 1434h285v-1434h-307v883l-379 -576h-178l-379 578v-885h-307v1434h284l492 -746z" />
<glyph unicode="N" horiz-adv-x="1564" d="M461 0h-307v1434h288l668 -936q-6 89 -6 196v740h307v-1434h-289l-667 936q6 -89 6 -197v-739z" />
<glyph unicode="O" horiz-adv-x="1671" d="M74 717q0 148 48.5 280.5t141 237t240.5 166t332 61.5t332 -61.5t240 -166t140.5 -237t48.5 -280.5q0 -118 -30 -227t-92 -203.5t-151 -165t-214.5 -110.5t-273.5 -40q-184 0 -332 61.5t-240.5 166t-141 237.5t-48.5 281zM1282 717q0 96 -28.5 178.5t-82.5 146 t-140.5 100t-194.5 36.5q-109 0 -196 -36.5t-141.5 -100t-83 -146t-28.5 -178.5t28.5 -178.5t83 -146t141.5 -100t196 -36.5q108 0 194.5 36.5t140.5 100t82.5 146t28.5 178.5z" />
<glyph unicode="P" horiz-adv-x="1363" d="M154 1434h540q619 0 619 -482q0 -481 -619 -481h-233v-471h-307v1434zM999 952q0 62 -22.5 104.5t-64 65t-90.5 32t-113 9.5h-248v-422h248q63 0 112.5 9.5t91 32.5t64 65.5t22.5 103.5z" />
<glyph unicode="Q" horiz-adv-x="1671" d="M1597 66l-206 -187l-177 176q-165 -84 -378 -84q-184 0 -332 61.5t-240.5 166t-141 237.5t-48.5 281t48.5 280.5t141 237t240.5 166t332 61.5t332 -61.5t240 -166t140.5 -237t48.5 -280.5q0 -287 -165 -488zM387 717q0 -96 28.5 -178.5t83 -146t141.5 -100t196 -36.5 q78 0 151 27l-172 172l197 194l196 -194q74 112 74 262q0 96 -28.5 179.5t-82.5 147.5t-140.5 101t-194.5 37q-109 0 -196 -37t-141.5 -101t-83 -147.5t-28.5 -179.5z" />
<glyph unicode="R" horiz-adv-x="1445" d="M461 0h-307v1434h589q88 0 166.5 -13.5t154 -47t129.5 -85.5t87 -134t33 -187q0 -173 -85.5 -277t-228.5 -149l428 -541h-354l-387 502h-225v-502zM461 1163v-405h297q105 0 173 50t68 153q0 104 -67.5 153t-173.5 49h-297z" />
<glyph unicode="S" horiz-adv-x="1241" d="M90 1055q0 100 42 179.5t114.5 128t166 74t201.5 25.5q128 0 250.5 -29t214.5 -81v-287q-89 64 -204.5 96.5t-237.5 30.5q-234 -3 -234 -133q0 -39 27 -71t72.5 -54.5t104 -43.5t124 -43t130.5 -47.5t123.5 -62.5t104 -82.5t72.5 -112.5t27 -149q0 -94 -29.5 -167.5 t-80 -120.5t-123 -78t-152.5 -43.5t-174 -12.5q-300 0 -531 129v293q227 -151 508 -151q131 0 199.5 32t68.5 105q0 43 -27 77t-72 58t-104 46t-124 44.5t-130 47.5t-124 61.5t-104 82t-72 112t-27 147.5z" />
<glyph unicode="T" horiz-adv-x="1239" d="M27 1434h1185v-277h-440v-1157h-305v1157h-440v277z" />
<glyph unicode="U" horiz-adv-x="1536" d="M1092 1434h305v-895q0 -123 -35.5 -221.5t-94.5 -162t-141 -106t-170.5 -60.5t-187.5 -18t-187.5 18t-170.5 60.5t-141 106t-94.5 162t-35.5 221.5v895h307v-879q0 -307 322 -307q324 0 324 307v879z" />
<glyph unicode="V" horiz-adv-x="1456" d="M885 0h-316l-557 1434h332l383 -1074l385 1074h332z" />
<glyph unicode="W" horiz-adv-x="2162" d="M1810 1434h332l-442 -1434h-334l-285 977l-284 -977h-334l-443 1434h332l285 -1084l309 1084h271l309 -1084z" />
<glyph unicode="X" horiz-adv-x="1388" d="M346 0h-358l514 743l-484 691h359l317 -471l316 471h360l-483 -691l514 -743h-361l-346 522z" />
<glyph unicode="Y" horiz-adv-x="1437" d="M872 0h-305v508l-561 926h346l367 -643l366 643h347l-560 -926v-508z" />
<glyph unicode="Z" horiz-adv-x="1257" d="M1188 0h-1122v221l692 936h-662v277h1067v-222l-694 -936h719v-276z" />
<glyph unicode="[" horiz-adv-x="677" d="M618 -225h-493v1884h493v-256h-206v-1370h206v-258z" />
<glyph unicode="\" horiz-adv-x="923" d="M877 -121h-203l-627 1675h203z" />
<glyph unicode="]" horiz-adv-x="677" d="M553 -225h-494v258h207v1370h-207v256h494v-1884z" />
<glyph unicode="^" d="M371 725h-305l413 709h250l414 -709h-305l-234 426z" />
<glyph unicode="_" horiz-adv-x="991" d="M991 -354h-991v241h991v-241z" />
<glyph unicode="`" horiz-adv-x="518" d="M498 1565h-275l-221 303h311z" />
<glyph unicode="a" horiz-adv-x="1136" d="M999 254q0 -66 70 -66q26 0 53 9v-187q-79 -28 -157 -28q-156 0 -217 110q-153 -121 -355 -121q-145 0 -244.5 80.5t-99.5 220.5q0 72 26.5 129.5t69 94t100 60.5t116 34t120.5 10q116 0 234 -27v35q0 76 -60 121t-172 45q-164 0 -348 -74v246q196 66 381 66 q232 0 357.5 -105.5t125.5 -339.5v-313zM547 430q-56 0 -100.5 -12.5t-75.5 -44t-31 -78.5q0 -54 44 -87.5t110 -33.5q128 0 221 80v154q-95 22 -168 22z" />
<glyph unicode="b" horiz-adv-x="1273" d="M121 1434h285v-555q116 133 323 133q113 0 205.5 -43.5t151.5 -116.5t90.5 -165.5t31.5 -194.5t-31.5 -195t-90.5 -166t-151.5 -116.5t-205.5 -43.5q-126 0 -215 48.5t-141 123.5v-143h-252v1434zM918 492q0 119 -70.5 199.5t-188.5 80.5q-89 0 -156.5 -47t-99.5 -117 v-233q32 -70 99.5 -117t156.5 -47q118 0 188.5 81t70.5 200z" />
<glyph unicode="c" horiz-adv-x="1003" d="M66 477q0 109 31.5 200t85 152.5t125.5 104t150.5 61.5t162.5 19q168 0 303 -72v-250q-115 74 -262 74q-61 0 -114 -15.5t-97 -46.5t-69.5 -85.5t-25.5 -126.5q0 -133 88 -204t213 -71q156 0 277 72v-252q-155 -66 -332 -66q-104 0 -197.5 30.5t-170.5 90.5t-122.5 159.5 t-45.5 225.5z" />
<glyph unicode="d" horiz-adv-x="1273" d="M870 1434h283v-1434h-250v143q-54 -75 -142.5 -123.5t-213.5 -48.5q-114 0 -207 43.5t-151.5 116.5t-90.5 166t-32 195t32 194.5t90.5 165.5t151.5 116.5t207 43.5q203 0 323 -133v555zM870 608q-32 70 -99.5 117t-156.5 47q-118 0 -188 -80.5t-70 -199.5 q0 -120 70 -200.5t188 -80.5q89 0 156.5 47t99.5 117v233z" />
<glyph unicode="e" horiz-adv-x="1120" d="M66 492q0 107 31.5 196t82.5 148t118 99.5t135.5 58.5t137.5 18q99 0 181 -25t137.5 -69t96 -103.5t56 -127.5t18.5 -141.5t-16 -146.5h-692q23 -101 119 -151.5t227 -50.5q163 0 297 59v-223q-146 -62 -360 -62q-118 0 -220.5 34t-180.5 98t-123 164t-45 225zM788 584 q4 28 -3.5 62t-28.5 68.5t-66 57.5t-108 23q-95 0 -162 -56.5t-70 -154.5h438z" />
<glyph unicode="f" horiz-adv-x="825" d="M500 0h-283v743h-170v240h170v96q0 86 22.5 153.5t59.5 110t88.5 70t104.5 38.5t112 11q139 0 242 -41v-239q-71 41 -170 41q-176 0 -176 -156v-84h301v-240h-301v-743z" />
<glyph unicode="g" horiz-adv-x="1273" d="M66 492q0 102 32 194.5t90.5 165.5t151.5 116.5t207 43.5q125 0 213.5 -48.5t142.5 -123.5v143h250v-956q0 -135 -47 -236t-128 -158.5t-178.5 -84.5t-211.5 -27q-224 0 -416 92v250q173 -103 379 -103q319 0 319 254v90q-120 -133 -323 -133q-114 0 -207 43.5 t-151.5 116.5t-90.5 166t-32 195zM870 608q-32 70 -99.5 117t-156.5 47q-118 0 -188 -80.5t-70 -199.5q0 -120 70 -200.5t188 -80.5q88 0 156 45.5t100 112.5v239z" />
<glyph unicode="h" d="M121 1434h285v-541q126 119 294 119q188 0 294 -114t106 -290v-608h-285v571q0 96 -51.5 145.5t-138.5 49.5q-69 0 -126 -37t-93 -88v-641h-285v1434z" />
<glyph unicode="i" horiz-adv-x="532" d="M408 0h-285v983h285v-983zM432 1309q0 -80 -47.5 -121t-120.5 -41q-71 0 -118.5 41t-47.5 121q0 79 47.5 119t118.5 40q73 0 120.5 -40t47.5 -119z" />
<glyph unicode="j" horiz-adv-x="530" d="M408 -139q0 -92 -28.5 -160.5t-78 -106.5t-109 -55.5t-129.5 -17.5q-106 0 -176 28v244q44 -20 103 -20q60 0 97.5 33.5t37.5 105.5v1071h283v-1122zM432 1309q0 -80 -47.5 -121t-118.5 -41q-72 0 -120 41t-48 121q0 79 48 119t120 40q71 0 118.5 -40t47.5 -119z" />
<glyph unicode="k" horiz-adv-x="1120" d="M1122 0h-319l-283 389h-114v-389h-285v1434h285v-818h118l250 367h320l-338 -485z" />
<glyph unicode="l" horiz-adv-x="534" d="M125 1495h285v-1495h-285v1495z" />
<glyph unicode="m" horiz-adv-x="1792" d="M406 0h-285v983h252v-115q47 56 129 100t184 44q202 0 301 -146q150 146 328 146q80 0 144 -24t104.5 -62.5t68 -90.5t38.5 -104.5t11 -107.5v-623h-282v604q0 75 -42.5 118.5t-111.5 43.5q-107 0 -194 -98q2 -14 2 -45v-623h-283v604q0 75 -42.5 118.5t-111.5 43.5 q-60 0 -115.5 -34t-94.5 -85v-647z" />
<glyph unicode="n" d="M373 858q133 154 327 154q188 0 294 -114t106 -290v-608h-285v571q0 96 -51.5 145.5t-138.5 49.5q-69 0 -126 -37t-93 -88v-641h-285v983h252v-125z" />
<glyph unicode="o" horiz-adv-x="1216" d="M66 492q0 125 44.5 225.5t120 164t172.5 97t205 33.5q109 0 206 -33.5t173 -97t120 -164t44 -225.5q0 -101 -29 -186t-79.5 -146t-119.5 -104t-148.5 -64t-166.5 -21q-108 0 -205 33.5t-172.5 97t-120 164.5t-44.5 226zM862 492q0 118 -67 192t-187 74q-118 0 -185 -74 t-67 -192t67 -192.5t185 -74.5q120 0 187 74.5t67 192.5z" />
<glyph unicode="p" horiz-adv-x="1273" d="M373 840q52 75 141 123.5t215 48.5q113 0 205.5 -43.5t151.5 -116.5t90.5 -165.5t31.5 -194.5t-31.5 -195t-90.5 -166t-151.5 -116.5t-205.5 -43.5q-203 0 -323 133v-555h-285v1434h252v-143zM918 492q0 119 -70.5 199.5t-188.5 80.5q-89 0 -156.5 -47t-99.5 -117v-233 q32 -70 99.5 -117t156.5 -47q118 0 188.5 81t70.5 200z" />
<glyph unicode="q" horiz-adv-x="1273" d="M66 492q0 102 32 194.5t90.5 165.5t151.5 116.5t207 43.5q125 0 213.5 -48.5t142.5 -123.5v143h250v-1434h-283v555q-120 -133 -323 -133q-114 0 -207 43.5t-151.5 116.5t-90.5 166t-32 195zM870 608q-32 70 -99.5 117t-156.5 47q-118 0 -188 -80.5t-70 -199.5 q0 -120 70 -200.5t188 -80.5q89 0 156.5 47t99.5 117v233z" />
<glyph unicode="r" horiz-adv-x="800" d="M373 836q55 86 159.5 133.5t237.5 34.5v-277q-118 20 -219 -21t-145 -128v-578h-285v983h252v-147z" />
<glyph unicode="s" horiz-adv-x="976" d="M78 709q0 82 34 142.5t93.5 94.5t129.5 50t152 16q192 0 363 -84v-234q-64 43 -160.5 72t-183.5 29q-55 0 -96 -19t-41 -59q0 -29 24 -51.5t63 -36.5t88.5 -29.5t102 -30.5t102 -40t88.5 -56.5t63 -82.5t24 -116q0 -84 -36 -144.5t-100 -94t-141 -49t-170 -15.5 q-235 0 -391 92v236q76 -50 178.5 -77t196.5 -27q172 0 172 73q0 28 -24 50t-63 36t-88.5 30t-102 31.5t-102 41t-88.5 57t-63 82t-24 113.5z" />
<glyph unicode="t" horiz-adv-x="856" d="M195 1270l282 67v-354h311v-240h-311v-385q0 -76 39 -111.5t119 -35.5q96 0 178 33v-230q-121 -43 -264 -43q-74 0 -136 18t-112 56t-78 104t-28 154v440h-166v240h166v287z" />
<glyph unicode="u" d="M803 983h284v-983h-251v125q-61 -70 -145 -112t-183 -42q-192 0 -295.5 113t-103.5 291v608h284v-571q0 -96 49.5 -145.5t139.5 -49.5q70 0 126.5 36.5t94.5 88.5v641z" />
<glyph unicode="v" horiz-adv-x="1146" d="M825 983h303l-405 -983h-299l-406 983h304l251 -682z" />
<glyph unicode="w" horiz-adv-x="1673" d="M1348 983h301l-316 -983h-301l-194 641l-195 -641h-303l-315 983h303l178 -674l196 674h271l194 -674z" />
<glyph unicode="x" horiz-adv-x="1085" d="M741 983h322l-354 -487l374 -496h-321l-217 301l-219 -301h-322l375 496l-356 487h321l201 -295z" />
<glyph unicode="y" horiz-adv-x="1153" d="M594 319l244 664h295l-437 -1102q-145 -358 -424 -358q-60 0 -153 22v236q68 -14 117 -14q154 0 233 215l2 4l-465 997h301z" />
<glyph unicode="z" horiz-adv-x="987" d="M90 983h801v-184l-461 -561h494v-238h-861v184l461 564h-434v235z" />
<glyph unicode="{" horiz-adv-x="731" d="M653 25v-250q-210 -46 -328 33.5t-118 254.5v392q0 141 -152 137v250q152 -4 152 137v391q0 175 118 255t328 34v-250q-88 14 -123.5 -27t-35.5 -137v-303q0 -103 -52.5 -162.5t-122.5 -62.5q70 -3 122.5 -62.5t52.5 -162.5v-304q0 -96 35.5 -136.5t123.5 -26.5z" />
<glyph unicode="|" horiz-adv-x="536" d="M412 -205h-287v1864h287v-1864z" />
<glyph unicode="}" horiz-adv-x="731" d="M524 63q0 -175 -118 -254.5t-328 -33.5v250q88 -14 124 26.5t36 136.5v304q0 103 52.5 162.5t121.5 62.5q-69 3 -121.5 62.5t-52.5 162.5v303q0 96 -36 137t-124 27v250q210 46 328 -34t118 -255v-391q0 -141 152 -137v-250q-152 4 -152 -137v-392z" />
<glyph unicode="~" horiz-adv-x="1230" d="M1118 834q18 -156 -55.5 -242t-204.5 -86q-64 0 -151 28t-162.5 55t-116.5 25q-71 0 -59 -88h-242q-9 80 7.5 143.5t52.5 102.5t85.5 59.5t108.5 20.5q71 0 155 -27t158.5 -53.5t120.5 -26.5q72 0 62 89h241z" />
<glyph unicode="&#xa1;" horiz-adv-x="532" d="M416 -449h-299l18 943h262zM438 844q0 -82 -49 -124t-123 -42q-73 0 -122.5 42.5t-49.5 123.5q0 83 49.5 125.5t122.5 42.5q74 0 123 -42.5t49 -125.5z" />
<glyph unicode="&#xa2;" horiz-adv-x="1038" d="M750 223q109 18 188 66v-252q-87 -38 -188 -53v-230h-197v219q-97 7 -181.5 41t-153 94t-108.5 155t-40 214q0 124 40 224t109 163t153.5 99.5t180.5 46.5v219h197v-225q99 -19 178 -62v-250q-81 51 -178 66v-535zM553 752q-88 -25 -140.5 -89t-52.5 -171q0 -102 53 -168 t140 -91v519z" />
<glyph unicode="&#xa3;" horiz-adv-x="1234" d="M1159 0h-1081v250h53q65 0 103 48.5t38 125.5v147h-163v230h163v127q0 102 27 185.5t74 140t111.5 94.5t136.5 55.5t153 17.5q177 0 330 -75v-250q-115 90 -273 90q-118 0 -195 -65.5t-77 -198.5v-121h397v-230h-397v-147q0 -123 -70 -174h670v-250z" />
<glyph unicode="&#xa4;" horiz-adv-x="1165" d="M369 362l-127 -126l-142 141l119 117q-63 94 -63 223t63 223l-119 119l140 141l129 -129q94 49 213 49t213 -49l129 129l141 -141l-121 -121q64 -97 64 -221q0 -129 -64 -221l121 -119l-141 -141l-127 126q-94 -49 -215 -49q-119 0 -213 49zM399 717q0 -77 48 -128.5 t135 -51.5q86 0 134 51.5t48 128.5t-48 128.5t-134 51.5q-87 0 -135 -51.5t-48 -128.5z" />
<glyph unicode="&#xa5;" horiz-adv-x="1462" d="M1075 1393h330l-412 -680h221v-197h-331v-106h331v-197h-331v-213h-305v213h-330v197h330v106h-330v197h219l-412 680h330l344 -615z" />
<glyph unicode="&#xa6;" horiz-adv-x="561" d="M424 897h-287v762h287v-762zM424 -205h-287v762h287v-762z" />
<glyph unicode="&#xa7;" horiz-adv-x="1069" d="M956 231q0 -67 -24 -120t-64.5 -87t-98.5 -56t-121.5 -31t-137.5 -9q-215 0 -371 92v228q77 -49 172 -75t185 -26q86 0 128 16t42 60q0 23 -16 41t-48.5 33t-66.5 26.5t-85 26.5q-6 2 -9.5 3t-9 2.5t-9.5 2.5q-55 17 -96 33t-87 42.5t-75 57.5t-48.5 76.5t-19.5 100.5 q0 165 146 264q-125 83 -125 227q0 82 34.5 142.5t94.5 94.5t132 50t157 16q185 0 356 -84v-225q-65 38 -161 65t-175 27q-63 0 -105 -18.5t-42 -59.5q0 -17 8 -31.5t25.5 -27t36.5 -22t48.5 -20t55 -18t61.5 -17.5q6 -2 9 -2.5t7.5 -2t8.5 -2.5q53 -16 93.5 -32t84 -41.5 t71.5 -55.5t46 -74.5t18 -97.5q0 -155 -143 -258q118 -86 118 -234zM510 596q19 -5 58.5 -17.5t58.5 -17.5q39 24 59.5 56.5t20.5 64.5q0 43 -34.5 70t-101.5 53l-54 18t-71 23q-44 -22 -66 -55.5t-22 -69.5q0 -45 37 -70.5t115 -54.5z" />
<glyph unicode="&#xa8;" horiz-adv-x="708" d="M727 1706q0 -63 -44.5 -107.5t-107.5 -44.5q-64 0 -108.5 44.5t-44.5 107.5t44.5 108.5t108.5 45.5q63 0 107.5 -45.5t44.5 -108.5zM289 1706q0 -63 -44.5 -107.5t-107.5 -44.5t-108 44.5t-45 107.5t45 108.5t108 45.5t107.5 -45.5t44.5 -108.5z" />
<glyph unicode="&#xa9;" horiz-adv-x="1732" d="M1651 717q0 -144 -44.5 -267.5t-120 -210t-176 -148t-213.5 -91t-231 -29.5t-231 29.5t-213 91t-176 148t-120 210t-44 267.5t44 267t120 210t176 148t213 90.5t231 29.5t231 -29.5t213.5 -90.5t176 -148t120 -210t44.5 -267zM1184 369q-71 -37 -136 -53.5t-155 -16.5 q-77 0 -150 23.5t-136 70t-101.5 126t-38.5 181.5q0 89 25.5 162.5t69 123.5t101.5 84t122 49.5t133 15.5q153 0 266 -70v-182q-109 61 -226 61q-48 0 -91.5 -12t-81.5 -37t-60.5 -72t-22.5 -110q0 -62 22 -107.5t59.5 -70t79.5 -35.5t91 -11q116 0 230 62v-182zM184 717 q0 -126 38.5 -233.5t104.5 -183t153 -129.5t185 -79.5t201 -25.5t201 25.5t185 79.5t153 129.5t104.5 183t38.5 233.5t-38.5 233.5t-104.5 183t-153 129.5t-185 79.5t-201 25.5t-201 -25.5t-185 -79.5t-153 -129.5t-104.5 -183t-38.5 -233.5z" />
<glyph unicode="&#xab;" horiz-adv-x="1144" d="M1077 94h-286l-265 371v53l265 371h286l-278 -397zM610 94h-286l-265 371v53l265 371h286l-278 -397z" />
<glyph unicode="&#xac;" horiz-adv-x="1181" d="M1055 487h-244v254h-715v242h959v-496z" />
<glyph unicode="&#xad;" horiz-adv-x="987" d="M113 618h761v-239h-761v239z" />
<glyph unicode="&#xae;" horiz-adv-x="1718" d="M1636 717q0 -141 -43.5 -263t-118.5 -209.5t-174 -150t-211 -93t-229 -30.5q-118 0 -230.5 30.5t-211.5 93t-174 150t-118.5 209.5t-43.5 263t43.5 263t118.5 209.5t174 149.5t211.5 92.5t230.5 30.5q117 0 229 -30.5t211 -92.5t174 -149.5t118.5 -209.5t43.5 -263z M184 717q0 -157 56.5 -282.5t152 -203.5t215.5 -119.5t252 -41.5t251.5 41.5t215 119.5t152.5 204t57 282t-57 282t-152.5 204t-215 119.5t-251.5 41.5t-252 -41.5t-215.5 -119.5t-152 -203.5t-56.5 -282.5zM737 326h-196v800h387q47 0 91 -9t86 -30t73 -51.5t50 -78 t19 -105.5q0 -96 -47.5 -158.5t-122.5 -85.5l217 -282h-223l-197 262h-18h-119v-262zM737 942v-194h166q135 0 135 96q0 98 -135 98h-166z" />
<glyph unicode="&#xaf;" horiz-adv-x="737" d="M35 1796h667v-225h-667v225z" />
<glyph unicode="&#xb0;" horiz-adv-x="851" d="M786 1120q0 -110 -50 -190t-130.5 -119t-179.5 -39q-153 0 -258 92.5t-105 255.5q0 105 51 184t132.5 118.5t179.5 39.5q152 0 256 -92.5t104 -249.5zM274 1120q0 -70 42.5 -111.5t111.5 -41.5t109.5 41.5t40.5 111.5q0 68 -40.5 108t-109.5 40t-111.5 -40.5 t-42.5 -107.5z" />
<glyph unicode="&#xb1;" horiz-adv-x="1179" d="M711 1327v-358h358v-242h-358v-358h-242v358h-358v242h358v358h242zM1069 0h-958v242h958v-242z" />
<glyph unicode="&#xb4;" horiz-adv-x="491" d="M293 1565h-275l185 303h311z" />
<glyph unicode="&#xb6;" horiz-adv-x="1497" d="M823 -451h-293v998q-220 0 -345.5 117.5t-125.5 326.5q0 207 125.5 325t345.5 118h816v-1885h-293v1608h-230v-1608z" />
<glyph unicode="&#xb7;" horiz-adv-x="540" d="M442 489q0 -83 -49 -125t-123 -42q-75 0 -124.5 42t-49.5 125q0 82 50 125t124 43t123 -43t49 -125z" />
<glyph unicode="&#xb8;" horiz-adv-x="454" d="M127 0h199l-27 -98q193 -18 193 -178q1 -69 -44 -116.5t-110 -67t-141 -19.5q-120 0 -209 39v176q68 -41 164 -41q127 0 127 61q0 38 -57 51t-140 3z" />
<glyph unicode="&#xbb;" horiz-adv-x="1144" d="M821 94h-286l278 398l-278 397h286l264 -371v-53zM354 94h-286l278 398l-278 397h286l264 -371v-53z" />
<glyph unicode="&#xbc;" horiz-adv-x="1875" d="M1493 836h199v-521h120v-168h-120v-147h-189v147h-434v166zM1503 315v277l-225 -277h225zM483 -29h-92l938 1491h92zM326 1393h143v-664h154v-172h-529v172h182v465l-176 -57v178z" />
<glyph unicode="&#xbd;" horiz-adv-x="1800" d="M475 -29h-92l938 1491h92zM1128 764q130 90 293 90q137 0 222.5 -63.5t85.5 -188.5q0 -50 -18.5 -94.5t-53.5 -81t-69.5 -62.5t-82.5 -55q-54 -30 -72 -41t-51 -32.5t-44.5 -36t-12.5 -29.5l406 2v-172h-629v88q0 55 16 103t39.5 80.5t61 64t68 51t73.5 44.5q11 6 16 9 q9 5 34.5 19.5t34 20t27.5 18t26 20.5t17 21t13.5 26.5t3.5 28.5q0 42 -34 64t-95 22q-141 0 -275 -102v186zM317 1393h144v-664h153v-172h-528v172h182v465l-176 -57v178z" />
<glyph unicode="&#xbe;" horiz-adv-x="1988" d="M602 -29h-92l938 1491h92zM1606 836h198v-521h121v-168h-121v-147h-188v147h-434v166zM1616 315v277l-225 -277h225zM680 1190q0 -64 -31.5 -111t-85.5 -69q66 -23 109 -76t43 -137q0 -52 -19 -94t-50.5 -70.5t-75.5 -47.5t-92.5 -27.5t-102.5 -8.5q-146 0 -289 57v185 q121 -69 272 -66q168 0 168 98q0 88 -135 88h-139l2 170h115q58 0 91.5 20t33.5 60q0 86 -146 86q-127 0 -248 -78v185q124 67 275 67q136 0 220.5 -59.5t84.5 -171.5z" />
<glyph unicode="&#xbf;" horiz-adv-x="1007" d="M942 -377q-191 -100 -397 -100q-80 0 -150.5 12t-133.5 39.5t-108 68t-71.5 101.5t-26.5 137q0 58 20 114.5t51.5 103t70.5 91.5t77.5 86t70 79.5t51.5 79.5t20 79h270q0 -71 -33.5 -141.5t-81 -125.5t-95 -105.5t-81 -101t-33.5 -93.5q0 -154 234 -154q171 0 346 101 v-271zM721 844q0 -81 -49.5 -123.5t-122.5 -42.5q-76 0 -125 42t-49 124q0 83 49 125.5t125 42.5q73 0 122.5 -42.5t49.5 -125.5z" />
<glyph unicode="&#xc0;" horiz-adv-x="1513" d="M324 0h-318l586 1434h332l583 -1434h-317l-105 268h-655zM725 1036l-199 -514h463l-201 514q-20 58 -30 113q-11 -59 -33 -113zM934 1565h-275l-221 303h312z" />
<glyph unicode="&#xc1;" horiz-adv-x="1513" d="M324 0h-318l586 1434h332l583 -1434h-317l-105 268h-655zM725 1036l-199 -514h463l-201 514q-20 58 -30 113q-11 -59 -33 -113zM850 1565h-275l185 303h311z" />
<glyph unicode="&#xc2;" horiz-adv-x="1513" d="M324 0h-318l586 1434h332l583 -1434h-317l-105 268h-655zM725 1036l-199 -514h463l-201 514q-20 58 -30 113q-11 -59 -33 -113zM631 1868h252l254 -318h-271l-108 133l-109 -133h-272z" />
<glyph unicode="&#xc3;" horiz-adv-x="1513" d="M324 0h-318l586 1434h332l583 -1434h-317l-105 268h-655zM725 1036l-199 -514h463l-201 514q-20 58 -30 113q-11 -59 -33 -113zM1120 1812q29 -123 -28 -203.5t-164 -80.5q-57 0 -116.5 21.5t-105 43t-69.5 21.5q-33 0 -43.5 -23.5t-3.5 -50.5h-205q-29 123 28 204 t162 81q57 0 116 -21.5t105 -43t72 -21.5q33 0 43.5 23t3.5 50h205z" />
<glyph unicode="&#xc4;" horiz-adv-x="1513" d="M324 0h-318l586 1434h332l583 -1434h-317l-105 268h-655zM725 1036l-199 -514h463l-201 514q-20 58 -30 113q-11 -59 -33 -113zM1126 1706q0 -63 -44 -107.5t-107 -44.5q-64 0 -109 44.5t-45 107.5t45 108.5t109 45.5q63 0 107 -45.5t44 -108.5zM688 1706 q0 -63 -44 -107.5t-107 -44.5t-108.5 44.5t-45.5 107.5t45.5 108.5t108.5 45.5t107 -45.5t44 -108.5z" />
<glyph unicode="&#xc5;" horiz-adv-x="1513" d="M324 0h-318l586 1434h332l583 -1434h-317l-105 268h-655zM725 1036l-199 -514h463l-201 514q-20 58 -30 113q-11 -59 -33 -113zM1010 1753q0 -114 -74 -181t-182 -67q-106 0 -181 67t-75 181q0 110 75 176t181 66q107 0 181.5 -66t74.5 -176zM670 1751q0 -39 24.5 -63.5 t61.5 -24.5t61.5 24.5t24.5 63.5q0 38 -24.5 62t-61.5 24t-61.5 -24t-24.5 -62z" />
<glyph unicode="&#xc6;" horiz-adv-x="2072" d="M1319 590v-320h666v-270h-973v276h-545l-180 -276h-320l936 1434h1069v-271h-653v-305h592v-268h-592zM621 522h389v598z" />
<glyph unicode="&#xc7;" horiz-adv-x="1339" d="M1264 365v-302q-139 -68 -306 -86l-20 -75q192 -18 192 -178q1 -69 -44 -116.5t-109.5 -67t-140.5 -19.5q-120 0 -209 39v176q68 -41 164 -41q59 0 93 15.5t34 45.5q0 38 -57 51t-140 3l39 165q-108 10 -206.5 43.5t-186.5 94t-153 142.5t-102.5 196.5t-37.5 248.5 q1 152 44.5 279.5t117 215.5t172.5 149t209 89.5t227 28.5q223 0 409 -92v-293q-69 54 -163.5 83.5t-194.5 29.5q-78 0 -149.5 -17.5t-137 -56t-114 -94.5t-77 -138.5t-28.5 -183.5q-1 -92 27.5 -168t77.5 -128t114.5 -88.5t137.5 -53t149 -16.5q112 0 208.5 30.5 t160.5 88.5z" />
<glyph unicode="&#xc8;" horiz-adv-x="1265" d="M154 1434h1009v-271h-702v-305h641v-268h-641v-320h715v-270h-1022v1434zM856 1565h-274l-222 303h312z" />
<glyph unicode="&#xc9;" horiz-adv-x="1265" d="M154 1434h1009v-271h-702v-305h641v-268h-641v-320h715v-270h-1022v1434zM772 1565h-274l184 303h311z" />
<glyph unicode="&#xca;" horiz-adv-x="1265" d="M154 1434h1009v-271h-702v-305h641v-268h-641v-320h715v-270h-1022v1434zM553 1868h252l254 -318h-271l-108 133l-109 -133h-272z" />
<glyph unicode="&#xcb;" horiz-adv-x="1265" d="M154 1434h1009v-271h-702v-305h641v-268h-641v-320h715v-270h-1022v1434zM1049 1706q0 -63 -44.5 -107.5t-107.5 -44.5q-64 0 -109 44.5t-45 107.5t45 108.5t109 45.5q63 0 107.5 -45.5t44.5 -108.5zM610 1706q0 -63 -44 -107.5t-107 -44.5t-108.5 44.5t-45.5 107.5 t45.5 108.5t108.5 45.5t107 -45.5t44 -108.5z" />
<glyph unicode="&#xcc;" horiz-adv-x="614" d="M154 1434h307v-1434h-307v1434zM487 1565h-274l-221 303h311z" />
<glyph unicode="&#xcd;" horiz-adv-x="614" d="M154 1434h307v-1434h-307v1434zM403 1565h-274l184 303h312z" />
<glyph unicode="&#xce;" horiz-adv-x="614" d="M154 1434h307v-1434h-307v1434zM184 1868h252l254 -318h-270l-109 133l-108 -133h-273z" />
<glyph unicode="&#xcf;" horiz-adv-x="614" d="M154 1434h307v-1434h-307v1434zM680 1706q0 -63 -44.5 -107.5t-107.5 -44.5q-64 0 -108.5 44.5t-44.5 107.5t44.5 108.5t108.5 45.5q63 0 107.5 -45.5t44.5 -108.5zM242 1706q0 -63 -44.5 -107.5t-107.5 -44.5t-108 44.5t-45 107.5t45 108.5t108 45.5t107.5 -45.5 t44.5 -108.5z" />
<glyph unicode="&#xd0;" horiz-adv-x="1540" d="M176 1434h537q150 0 273.5 -34.5t211.5 -98t148 -152.5t89 -197.5t29 -234.5t-29 -234.5t-89 -197.5t-148 -152.5t-211.5 -98t-273.5 -34.5h-537v602h-151v227h151v605zM483 270h230q215 0 326.5 113.5t111.5 333.5t-111.5 333t-326.5 113h-230v-334h318v-227h-318v-332z " />
<glyph unicode="&#xd1;" horiz-adv-x="1564" d="M461 0h-307v1434h288l668 -936q-6 89 -6 196v740h307v-1434h-289l-667 936q6 -89 6 -197v-739zM1147 1812q29 -123 -28.5 -203.5t-164.5 -80.5q-57 0 -116 21.5t-104.5 43t-69.5 21.5q-33 0 -44 -24t-4 -50h-204q-29 123 28 204t162 81q57 0 116 -21.5t105 -43t72 -21.5 q33 0 43.5 23t3.5 50h205z" />
<glyph unicode="&#xd2;" horiz-adv-x="1671" d="M74 717q0 148 48.5 280.5t141 237t240.5 166t332 61.5t332 -61.5t240 -166t140.5 -237t48.5 -280.5q0 -118 -30 -227t-92 -203.5t-151 -165t-214.5 -110.5t-273.5 -40q-184 0 -332 61.5t-240.5 166t-141 237.5t-48.5 281zM1282 717q0 96 -28.5 178.5t-82.5 146 t-140.5 100t-194.5 36.5q-109 0 -196 -36.5t-141.5 -100t-83 -146t-28.5 -178.5t28.5 -178.5t83 -146t141.5 -100t196 -36.5q108 0 194.5 36.5t140.5 100t82.5 146t28.5 178.5zM1014 1565h-275l-221 303h311z" />
<glyph unicode="&#xd3;" horiz-adv-x="1671" d="M74 717q0 148 48.5 280.5t141 237t240.5 166t332 61.5t332 -61.5t240 -166t140.5 -237t48.5 -280.5q0 -118 -30 -227t-92 -203.5t-151 -165t-214.5 -110.5t-273.5 -40q-184 0 -332 61.5t-240.5 166t-141 237.5t-48.5 281zM1282 717q0 96 -28.5 178.5t-82.5 146 t-140.5 100t-194.5 36.5q-109 0 -196 -36.5t-141.5 -100t-83 -146t-28.5 -178.5t28.5 -178.5t83 -146t141.5 -100t196 -36.5q108 0 194.5 36.5t140.5 100t82.5 146t28.5 178.5zM930 1565h-275l185 303h311z" />
<glyph unicode="&#xd4;" horiz-adv-x="1671" d="M74 717q0 148 48.5 280.5t141 237t240.5 166t332 61.5t332 -61.5t240 -166t140.5 -237t48.5 -280.5q0 -118 -30 -227t-92 -203.5t-151 -165t-214.5 -110.5t-273.5 -40q-184 0 -332 61.5t-240.5 166t-141 237.5t-48.5 281zM1282 717q0 96 -28.5 178.5t-82.5 146 t-140.5 100t-194.5 36.5q-109 0 -196 -36.5t-141.5 -100t-83 -146t-28.5 -178.5t28.5 -178.5t83 -146t141.5 -100t196 -36.5q108 0 194.5 36.5t140.5 100t82.5 146t28.5 178.5zM711 1868h252l254 -318h-271l-108 133l-109 -133h-272z" />
<glyph unicode="&#xd5;" horiz-adv-x="1671" d="M74 717q0 148 48.5 280.5t141 237t240.5 166t332 61.5t332 -61.5t240 -166t140.5 -237t48.5 -280.5q0 -118 -30 -227t-92 -203.5t-151 -165t-214.5 -110.5t-273.5 -40q-184 0 -332 61.5t-240.5 166t-141 237.5t-48.5 281zM1282 717q0 96 -28.5 178.5t-82.5 146 t-140.5 100t-194.5 36.5q-109 0 -196 -36.5t-141.5 -100t-83 -146t-28.5 -178.5t28.5 -178.5t83 -146t141.5 -100t196 -36.5q108 0 194.5 36.5t140.5 100t82.5 146t28.5 178.5zM1200 1812q29 -123 -28 -203.5t-164 -80.5q-57 0 -116.5 21.5t-105 43t-69.5 21.5 q-33 0 -43.5 -23.5t-3.5 -50.5h-205q-29 123 28 204t162 81q57 0 116 -21.5t105 -43t72 -21.5q33 0 43.5 23t3.5 50h205z" />
<glyph unicode="&#xd6;" horiz-adv-x="1671" d="M74 717q0 148 48.5 280.5t141 237t240.5 166t332 61.5t332 -61.5t240 -166t140.5 -237t48.5 -280.5q0 -118 -30 -227t-92 -203.5t-151 -165t-214.5 -110.5t-273.5 -40q-184 0 -332 61.5t-240.5 166t-141 237.5t-48.5 281zM1282 717q0 96 -28.5 178.5t-82.5 146 t-140.5 100t-194.5 36.5q-109 0 -196 -36.5t-141.5 -100t-83 -146t-28.5 -178.5t28.5 -178.5t83 -146t141.5 -100t196 -36.5q108 0 194.5 36.5t140.5 100t82.5 146t28.5 178.5zM1206 1706q0 -63 -44 -107.5t-107 -44.5q-64 0 -109 44.5t-45 107.5t45 108.5t109 45.5 q63 0 107 -45.5t44 -108.5zM768 1706q0 -63 -44.5 -107.5t-107.5 -44.5t-108 44.5t-45 107.5t45 108.5t108 45.5t107.5 -45.5t44.5 -108.5z" />
<glyph unicode="&#xd7;" horiz-adv-x="1032" d="M516 559l-256 -256l-160 158l256 258l-256 256l160 158l256 -256l256 256l160 -158l-256 -256l256 -258l-160 -158z" />
<glyph unicode="&#xd8;" horiz-adv-x="1671" d="M1513 1532l-170 -236q125 -104 189.5 -255t64.5 -324q0 -118 -30 -227t-92 -203.5t-151 -165t-214.5 -110.5t-273.5 -40q-217 0 -383 86l-111 -155h-205l178 245q-118 104 -179.5 253t-61.5 317q0 148 48.5 280.5t141 237t240.5 166t332 61.5q206 0 368 -78l107 148h202z M836 1178q-109 0 -196 -36.5t-141.5 -100t-83 -146t-28.5 -178.5q0 -194 109 -318l532 742q-78 37 -192 37zM627 299q87 -43 209 -43q108 0 194.5 36.5t140.5 100t82.5 146t28.5 178.5q0 204 -117 330z" />
<glyph unicode="&#xd9;" horiz-adv-x="1536" d="M1092 1434h305v-895q0 -123 -35.5 -221.5t-94.5 -162t-141 -106t-170.5 -60.5t-187.5 -18t-187.5 18t-170.5 60.5t-141 106t-94.5 162t-35.5 221.5v895h307v-879q0 -307 322 -307q324 0 324 307v879zM944 1565h-274l-221 303h311z" />
<glyph unicode="&#xda;" horiz-adv-x="1536" d="M1092 1434h305v-895q0 -123 -35.5 -221.5t-94.5 -162t-141 -106t-170.5 -60.5t-187.5 -18t-187.5 18t-170.5 60.5t-141 106t-94.5 162t-35.5 221.5v895h307v-879q0 -307 322 -307q324 0 324 307v879zM860 1565h-274l184 303h311z" />
<glyph unicode="&#xdb;" horiz-adv-x="1536" d="M1092 1434h305v-895q0 -123 -35.5 -221.5t-94.5 -162t-141 -106t-170.5 -60.5t-187.5 -18t-187.5 18t-170.5 60.5t-141 106t-94.5 162t-35.5 221.5v895h307v-879q0 -307 322 -307q324 0 324 307v879zM641 1868h252l254 -318h-270l-109 133l-109 -133h-272z" />
<glyph unicode="&#xdc;" horiz-adv-x="1536" d="M1092 1434h305v-895q0 -123 -35.5 -221.5t-94.5 -162t-141 -106t-170.5 -60.5t-187.5 -18t-187.5 18t-170.5 60.5t-141 106t-94.5 162t-35.5 221.5v895h307v-879q0 -307 322 -307q324 0 324 307v879zM1137 1706q0 -63 -44.5 -107.5t-107.5 -44.5q-64 0 -109 44.5 t-45 107.5t45 108.5t109 45.5q63 0 107.5 -45.5t44.5 -108.5zM698 1706q0 -63 -44 -107.5t-107 -44.5t-108.5 44.5t-45.5 107.5t45.5 108.5t108.5 45.5t107 -45.5t44 -108.5z" />
<glyph unicode="&#xdd;" horiz-adv-x="1437" d="M872 0h-305v508l-561 926h346l367 -643l366 643h347l-560 -926v-508zM811 1565h-274l184 303h311z" />
<glyph unicode="&#xde;" horiz-adv-x="1361" d="M461 1198h233q619 0 619 -481q0 -109 -31.5 -192.5t-86 -137t-134.5 -88t-169 -48.5t-198 -15h-233v-236h-307v1434h307v-236zM461 506h248q63 0 112.5 9.5t91 32.5t64 65.5t22.5 103.5q0 62 -22.5 104.5t-64 65t-90.5 32t-113 9.5h-248v-422z" />
<glyph unicode="&#xdf;" d="M1163 293q0 -81 -34.5 -144.5t-93 -101.5t-129 -57t-148.5 -19q-131 0 -242 49v224q94 -47 184 -47q77 0 125.5 30t48.5 90q0 36 -30 78t-72.5 82t-85 81t-72.5 90t-30 95q0 41 15 78.5t37 67.5t43.5 60t36.5 69.5t15 83.5q0 68 -42 102.5t-111 34.5q-79 0 -125.5 -44.5 t-46.5 -123.5v-1071h-285v1004q0 219 119 337.5t338 120.5q109 1 194 -28.5t133 -77t72 -100.5t24 -107q0 -59 -25 -117t-54.5 -95t-54.5 -79t-25 -74q0 -35 33 -75.5t80 -81.5t94.5 -88t80.5 -111.5t33 -134.5z" />
<glyph unicode="&#xe0;" horiz-adv-x="1136" d="M999 254q0 -66 70 -66q26 0 53 9v-187q-79 -28 -157 -28q-156 0 -217 110q-153 -121 -355 -121q-145 0 -244.5 80.5t-99.5 220.5q0 72 26.5 129.5t69 94t100 60.5t116 34t120.5 10q116 0 234 -27v35q0 76 -60 121t-172 45q-164 0 -348 -74v246q196 66 381 66 q232 0 357.5 -105.5t125.5 -339.5v-313zM547 430q-56 0 -100.5 -12.5t-75.5 -44t-31 -78.5q0 -54 44 -87.5t110 -33.5q128 0 221 80v154q-95 22 -168 22zM696 1128h-274l-221 304h311z" />
<glyph unicode="&#xe1;" horiz-adv-x="1136" d="M999 254q0 -66 70 -66q26 0 53 9v-187q-79 -28 -157 -28q-156 0 -217 110q-153 -121 -355 -121q-145 0 -244.5 80.5t-99.5 220.5q0 72 26.5 129.5t69 94t100 60.5t116 34t120.5 10q116 0 234 -27v35q0 76 -60 121t-172 45q-164 0 -348 -74v246q196 66 381 66 q232 0 357.5 -105.5t125.5 -339.5v-313zM547 430q-56 0 -100.5 -12.5t-75.5 -44t-31 -78.5q0 -54 44 -87.5t110 -33.5q128 0 221 80v154q-95 22 -168 22zM612 1128h-274l184 304h312z" />
<glyph unicode="&#xe2;" horiz-adv-x="1136" d="M999 254q0 -66 70 -66q26 0 53 9v-187q-79 -28 -157 -28q-156 0 -217 110q-153 -121 -355 -121q-145 0 -244.5 80.5t-99.5 220.5q0 72 26.5 129.5t69 94t100 60.5t116 34t120.5 10q116 0 234 -27v35q0 76 -60 121t-172 45q-164 0 -348 -74v246q196 66 381 66 q232 0 357.5 -105.5t125.5 -339.5v-313zM547 430q-56 0 -100.5 -12.5t-75.5 -44t-31 -78.5q0 -54 44 -87.5t110 -33.5q128 0 221 80v154q-95 22 -168 22zM393 1432h252l254 -318h-270l-109 133l-108 -133h-273z" />
<glyph unicode="&#xe3;" horiz-adv-x="1136" d="M999 254q0 -66 70 -66q26 0 53 9v-187q-79 -28 -157 -28q-156 0 -217 110q-153 -121 -355 -121q-145 0 -244.5 80.5t-99.5 220.5q0 72 26.5 129.5t69 94t100 60.5t116 34t120.5 10q116 0 234 -27v35q0 76 -60 121t-172 45q-164 0 -348 -74v246q196 66 381 66 q232 0 357.5 -105.5t125.5 -339.5v-313zM547 430q-56 0 -100.5 -12.5t-75.5 -44t-31 -78.5q0 -54 44 -87.5t110 -33.5q128 0 221 80v154q-95 22 -168 22zM883 1376q29 -123 -28.5 -203.5t-164.5 -80.5q-57 0 -116.5 21.5t-105 43t-69.5 21.5q-33 0 -43.5 -23.5t-3.5 -50.5 h-205q-29 123 28.5 204t162.5 81q57 0 116 -21.5t105 -43t72 -21.5q33 0 43.5 23t3.5 50h205z" />
<glyph unicode="&#xe4;" horiz-adv-x="1136" d="M999 254q0 -66 70 -66q26 0 53 9v-187q-79 -28 -157 -28q-156 0 -217 110q-153 -121 -355 -121q-145 0 -244.5 80.5t-99.5 220.5q0 72 26.5 129.5t69 94t100 60.5t116 34t120.5 10q116 0 234 -27v35q0 76 -60 121t-172 45q-164 0 -348 -74v246q196 66 381 66 q232 0 357.5 -105.5t125.5 -339.5v-313zM547 430q-56 0 -100.5 -12.5t-75.5 -44t-31 -78.5q0 -54 44 -87.5t110 -33.5q128 0 221 80v154q-95 22 -168 22zM889 1270q0 -63 -44.5 -107.5t-107.5 -44.5q-64 0 -108.5 44.5t-44.5 107.5t44.5 108t108.5 45q63 0 107.5 -45 t44.5 -108zM451 1270q0 -63 -44.5 -107.5t-107.5 -44.5t-108.5 44.5t-45.5 107.5t45.5 108t108.5 45t107.5 -45t44.5 -108z" />
<glyph unicode="&#xe5;" horiz-adv-x="1136" d="M999 254q0 -66 70 -66q26 0 53 9v-187q-79 -28 -157 -28q-156 0 -217 110q-153 -121 -355 -121q-145 0 -244.5 80.5t-99.5 220.5q0 72 26.5 129.5t69 94t100 60.5t116 34t120.5 10q116 0 234 -27v35q0 76 -60 121t-172 45q-164 0 -348 -74v246q196 66 381 66 q232 0 357.5 -105.5t125.5 -339.5v-313zM547 430q-56 0 -100.5 -12.5t-75.5 -44t-31 -78.5q0 -54 44 -87.5t110 -33.5q128 0 221 80v154q-95 22 -168 22zM772 1317q0 -114 -74 -181t-182 -67q-106 0 -181 67t-75 181q0 110 75 176t181 66q107 0 181.5 -66t74.5 -176z M432 1315q0 -39 24.5 -63.5t61.5 -24.5t61.5 24.5t24.5 63.5q0 38 -24.5 62t-61.5 24t-61.5 -24t-24.5 -62z" />
<glyph unicode="&#xe6;" horiz-adv-x="1777" d="M883 129q-202 -158 -473 -158q-153 0 -257 80t-104 221q0 93 38.5 159.5t106 102t143.5 51t167 15.5q133 0 241 -27v33q0 78 -63.5 122t-194.5 44q-173 0 -352 -76v250q196 66 383 66q272 0 377 -152q69 75 162.5 113.5t189.5 38.5q82 0 152 -19t121.5 -53t91 -80 t63 -101t35 -115.5t9 -123.5t-16.5 -125h-692q16 -67 68.5 -112.5t123 -65.5t154.5 -20q164 0 295 59v-221q-151 -64 -361 -64q-127 0 -232.5 41t-174.5 117zM342 295q0 -59 44.5 -89t113.5 -30q80 0 149 23t142 80q-23 63 -29 135q-122 18 -191 18q-98 0 -163.5 -32.5 t-65.5 -104.5zM1239 793q-96 0 -162 -57t-69 -158h438q3 23 -0.5 50t-17 56.5t-36.5 53.5t-62.5 39.5t-90.5 15.5z" />
<glyph unicode="&#xe7;" horiz-adv-x="1003" d="M934 289v-252q-107 -46 -221 -57l-21 -78q191 -17 191 -178q1 -69 -44 -116.5t-110 -67t-141 -19.5q-120 0 -209 39v176q68 -41 164 -41q127 0 127 61q0 38 -57 51t-140 3l41 167q-92 12 -171 48t-142 96t-99 151.5t-36 204.5q0 109 31.5 200t85 152.5t125.5 104 t150.5 61.5t162.5 19q168 0 303 -72v-250q-115 74 -262 74q-61 0 -114 -15.5t-97 -46.5t-69.5 -85.5t-25.5 -126.5q0 -133 88 -204t213 -71q156 0 277 72z" />
<glyph unicode="&#xe8;" horiz-adv-x="1120" d="M66 492q0 107 31.5 196t82.5 148t118 99.5t135.5 58.5t137.5 18q99 0 181 -25t137.5 -69t96 -103.5t56 -127.5t18.5 -141.5t-16 -146.5h-692q23 -101 119 -151.5t227 -50.5q163 0 297 59v-223q-146 -62 -360 -62q-118 0 -220.5 34t-180.5 98t-123 164t-45 225zM788 584 q4 28 -3.5 62t-28.5 68.5t-66 57.5t-108 23q-95 0 -162 -56.5t-70 -154.5h438zM752 1114h-275l-221 303h311z" />
<glyph unicode="&#xe9;" horiz-adv-x="1120" d="M66 492q0 107 31.5 196t82.5 148t118 99.5t135.5 58.5t137.5 18q99 0 181 -25t137.5 -69t96 -103.5t56 -127.5t18.5 -141.5t-16 -146.5h-692q23 -101 119 -151.5t227 -50.5q163 0 297 59v-223q-146 -62 -360 -62q-118 0 -220.5 34t-180.5 98t-123 164t-45 225zM788 584 q4 28 -3.5 62t-28.5 68.5t-66 57.5t-108 23q-95 0 -162 -56.5t-70 -154.5h438zM668 1114h-275l185 303h311z" />
<glyph unicode="&#xea;" horiz-adv-x="1120" d="M66 492q0 107 31.5 196t82.5 148t118 99.5t135.5 58.5t137.5 18q99 0 181 -25t137.5 -69t96 -103.5t56 -127.5t18.5 -141.5t-16 -146.5h-692q23 -101 119 -151.5t227 -50.5q163 0 297 59v-223q-146 -62 -360 -62q-118 0 -220.5 34t-180.5 98t-123 164t-45 225zM788 584 q4 28 -3.5 62t-28.5 68.5t-66 57.5t-108 23q-95 0 -162 -56.5t-70 -154.5h438zM449 1417h251l254 -317h-270l-109 133l-108 -133h-272z" />
<glyph unicode="&#xeb;" horiz-adv-x="1120" d="M66 492q0 107 31.5 196t82.5 148t118 99.5t135.5 58.5t137.5 18q99 0 181 -25t137.5 -69t96 -103.5t56 -127.5t18.5 -141.5t-16 -146.5h-692q23 -101 119 -151.5t227 -50.5q163 0 297 59v-223q-146 -62 -360 -62q-118 0 -220.5 34t-180.5 98t-123 164t-45 225zM788 584 q4 28 -3.5 62t-28.5 68.5t-66 57.5t-108 23q-95 0 -162 -56.5t-70 -154.5h438zM944 1255q0 -63 -44 -107t-107 -44q-64 0 -109 44t-45 107t45 108.5t109 45.5q63 0 107 -45.5t44 -108.5zM506 1255q0 -63 -44.5 -107t-107.5 -44t-108 44t-45 107t45 108.5t108 45.5 t107.5 -45.5t44.5 -108.5z" />
<glyph unicode="&#xec;" horiz-adv-x="530" d="M408 0h-285v983h285v-983zM432 1114h-268l-166 303h303z" />
<glyph unicode="&#xed;" horiz-adv-x="530" d="M123 983h285v-983h-285v983zM360 1114h-274l184 303h312z" />
<glyph unicode="&#xee;" horiz-adv-x="530" d="M141 1411h252l211 -311h-256l-80 125l-82 -125h-254zM123 983h285v-983h-285v983z" />
<glyph unicode="&#xef;" horiz-adv-x="530" d="M600 1255q0 -59 -41 -100t-100 -41q-60 0 -102 41t-42 100t42 101.5t102 42.5q58 0 99.5 -42.5t41.5 -101.5zM217 1255q0 -58 -42 -99.5t-101 -41.5t-100.5 41.5t-41.5 99.5q0 59 42 101.5t100 42.5t100.5 -42.5t42.5 -101.5zM123 983h285v-983h-285v983z" />
<glyph unicode="&#xf0;" horiz-adv-x="1198" d="M1118 567q0 -156 -40 -273t-112.5 -186.5t-165.5 -103t-208 -33.5q-111 0 -206 31t-166 89.5t-111.5 149.5t-40.5 203q0 206 122.5 329.5t305.5 123.5q112 0 202.5 -41t135.5 -111q0 9 -5 54q-40 224 -233 340l-164 -164l-131 131l113 111q-99 22 -207 22v215 q202 0 379 -63l153 153l131 -131l-110 -110q166 -109 262 -293t96 -443zM358 444q0 -95 59 -163t175 -68q60 0 104.5 19t70.5 52t39.5 70t16.5 80q0 60 -23.5 112t-79 89t-134.5 37q-76 0 -129.5 -35t-76 -85t-22.5 -108z" />
<glyph unicode="&#xf1;" d="M373 858q133 154 327 154q188 0 294 -114t106 -290v-608h-285v571q0 96 -51.5 145.5t-138.5 49.5q-69 0 -126 -37t-93 -88v-641h-285v983h252v-125zM958 1362q29 -124 -28 -204.5t-164 -80.5q-57 0 -116.5 21.5t-105 43t-69.5 21.5q-33 0 -43.5 -23t-3.5 -50h-205 q-29 123 28.5 203.5t162.5 80.5q57 0 116 -21.5t105 -43t72 -21.5q33 0 43.5 23.5t3.5 50.5h204z" />
<glyph unicode="&#xf2;" horiz-adv-x="1216" d="M66 492q0 125 44.5 225.5t120 164t172.5 97t205 33.5q109 0 206 -33.5t173 -97t120 -164t44 -225.5q0 -101 -29 -186t-79.5 -146t-119.5 -104t-148.5 -64t-166.5 -21q-108 0 -205 33.5t-172.5 97t-120 164.5t-44.5 226zM862 492q0 118 -67 192t-187 74q-118 0 -185 -74 t-67 -192t67 -192.5t185 -74.5q120 0 187 74.5t67 192.5zM788 1102h-274l-221 303h311z" />
<glyph unicode="&#xf3;" horiz-adv-x="1216" d="M66 492q0 125 44.5 225.5t120 164t172.5 97t205 33.5q109 0 206 -33.5t173 -97t120 -164t44 -225.5q0 -101 -29 -186t-79.5 -146t-119.5 -104t-148.5 -64t-166.5 -21q-108 0 -205 33.5t-172.5 97t-120 164.5t-44.5 226zM862 492q0 118 -67 192t-187 74q-118 0 -185 -74 t-67 -192t67 -192.5t185 -74.5q120 0 187 74.5t67 192.5zM705 1102h-275l184 303h312z" />
<glyph unicode="&#xf4;" horiz-adv-x="1216" d="M66 492q0 125 44.5 225.5t120 164t172.5 97t205 33.5q109 0 206 -33.5t173 -97t120 -164t44 -225.5q0 -101 -29 -186t-79.5 -146t-119.5 -104t-148.5 -64t-166.5 -21q-108 0 -205 33.5t-172.5 97t-120 164.5t-44.5 226zM862 492q0 118 -67 192t-187 74q-118 0 -185 -74 t-67 -192t67 -192.5t185 -74.5q120 0 187 74.5t67 192.5zM485 1405h252l254 -318h-270l-109 134l-108 -134h-273z" />
<glyph unicode="&#xf5;" horiz-adv-x="1216" d="M66 492q0 125 44.5 225.5t120 164t172.5 97t205 33.5q109 0 206 -33.5t173 -97t120 -164t44 -225.5q0 -101 -29 -186t-79.5 -146t-119.5 -104t-148.5 -64t-166.5 -21q-108 0 -205 33.5t-172.5 97t-120 164.5t-44.5 226zM862 492q0 118 -67 192t-187 74q-118 0 -185 -74 t-67 -192t67 -192.5t185 -74.5q120 0 187 74.5t67 192.5zM975 1350q29 -123 -28.5 -204t-164.5 -81q-57 0 -116 21.5t-104.5 43t-69.5 21.5q-33 0 -44 -24t-4 -50h-204q-29 123 28 204t162 81q57 0 116 -21.5t105 -43t72 -21.5q33 0 43.5 23.5t3.5 50.5h205z" />
<glyph unicode="&#xf6;" horiz-adv-x="1216" d="M66 492q0 125 44.5 225.5t120 164t172.5 97t205 33.5q109 0 206 -33.5t173 -97t120 -164t44 -225.5q0 -101 -29 -186t-79.5 -146t-119.5 -104t-148.5 -64t-166.5 -21q-108 0 -205 33.5t-172.5 97t-120 164.5t-44.5 226zM862 492q0 118 -67 192t-187 74q-118 0 -185 -74 t-67 -192t67 -192.5t185 -74.5q120 0 187 74.5t67 192.5zM981 1243q0 -63 -44.5 -107t-107.5 -44q-64 0 -108.5 44t-44.5 107t44.5 108.5t108.5 45.5q63 0 107.5 -45.5t44.5 -108.5zM543 1243q0 -63 -44.5 -107t-107.5 -44t-108 44t-45 107t45 108.5t108 45.5t107.5 -45.5 t44.5 -108.5z" />
<glyph unicode="&#xf7;" horiz-adv-x="1142" d="M1063 596h-983v242h983v-242zM745 260q0 -83 -49 -126.5t-123 -43.5t-124 43.5t-50 126.5q0 82 50 124t124 42t123 -42t49 -124zM745 1176q0 -83 -49 -126.5t-123 -43.5t-124 43.5t-50 126.5q0 82 49.5 123.5t124.5 41.5q74 0 123 -41.5t49 -123.5z" />
<glyph unicode="&#xf8;" horiz-adv-x="1216" d="M1065 1112l-125 -197q211 -140 211 -423q0 -101 -29 -186t-79.5 -146t-119.5 -104t-148.5 -64t-166.5 -21q-129 0 -241 47l-95 -145h-122l124 197q-98 66 -153 172.5t-55 249.5q0 125 44.5 225.5t120 164t172.5 97t205 33.5q133 0 240 -45l94 145h123zM608 758 q-118 0 -185 -74t-67 -192q0 -119 66 -191l285 440q-53 17 -99 17zM508 242q53 -17 100 -17q120 0 187 74.5t67 192.5q0 120 -69 192z" />
<glyph unicode="&#xf9;" d="M803 983h284v-983h-251v125q-61 -70 -145 -112t-183 -42q-192 0 -295.5 113t-103.5 291v608h284v-571q0 -96 49.5 -145.5t139.5 -49.5q70 0 126.5 36.5t94.5 88.5v641zM780 1114h-274l-221 303h311z" />
<glyph unicode="&#xfa;" d="M803 983h284v-983h-251v125q-61 -70 -145 -112t-183 -42q-192 0 -295.5 113t-103.5 291v608h284v-571q0 -96 49.5 -145.5t139.5 -49.5q70 0 126.5 36.5t94.5 88.5v641zM696 1114h-274l184 303h312z" />
<glyph unicode="&#xfb;" d="M803 983h284v-983h-251v125q-61 -70 -145 -112t-183 -42q-192 0 -295.5 113t-103.5 291v608h284v-571q0 -96 49.5 -145.5t139.5 -49.5q70 0 126.5 36.5t94.5 88.5v641zM477 1417h252l254 -317h-270l-109 133l-108 -133h-273z" />
<glyph unicode="&#xfc;" d="M803 983h284v-983h-251v125q-61 -70 -145 -112t-183 -42q-192 0 -295.5 113t-103.5 291v608h284v-571q0 -96 49.5 -145.5t139.5 -49.5q70 0 126.5 36.5t94.5 88.5v641zM973 1255q0 -63 -44.5 -107t-107.5 -44q-64 0 -108.5 44t-44.5 107t44.5 108.5t108.5 45.5 q63 0 107.5 -45.5t44.5 -108.5zM535 1255q0 -63 -44.5 -107t-107.5 -44t-108.5 44t-45.5 107t45.5 108.5t108.5 45.5t107.5 -45.5t44.5 -108.5z" />
<glyph unicode="&#xfd;" horiz-adv-x="1153" d="M594 319l244 664h295l-437 -1102q-145 -358 -424 -358q-60 0 -153 22v236q68 -14 117 -14q154 0 233 215l2 4l-465 997h301zM653 1114h-274l184 303h311z" />
<glyph unicode="&#xfe;" horiz-adv-x="1273" d="M121 1434h285v-570q130 148 329 148q113 0 204.5 -44t149 -118t88.5 -166t31 -192q0 -103 -32.5 -197t-91.5 -166t-149.5 -115t-199.5 -43q-107 0 -191 40t-138 100v-562h-285v1885zM918 492q0 120 -69 200t-187 80q-90 0 -159 -48.5t-100 -121.5v-219q36 -71 104.5 -118 t154.5 -48q115 -1 185.5 78t70.5 197z" />
<glyph unicode="&#xff;" horiz-adv-x="1153" d="M594 319l244 664h295l-437 -1102q-145 -358 -424 -358q-60 0 -153 22v236q68 -14 117 -14q154 0 233 215l2 4l-465 997h301zM930 1255q0 -63 -44.5 -107t-107.5 -44q-64 0 -108.5 44t-44.5 107t44.5 108.5t108.5 45.5q63 0 107.5 -45.5t44.5 -108.5zM492 1255 q0 -63 -44.5 -107t-107.5 -44t-108.5 44t-45.5 107t45.5 108.5t108.5 45.5t107.5 -45.5t44.5 -108.5z" />
<glyph unicode="&#x100;" horiz-adv-x="1513" d="M324 0h-318l586 1434h332l583 -1434h-317l-105 268h-655zM725 1036l-199 -514h463l-201 514q-20 58 -30 113q-11 -59 -33 -113zM422 1796h668v-225h-668v225z" />
<glyph unicode="&#x101;" horiz-adv-x="1136" d="M999 254q0 -66 70 -66q26 0 53 9v-187q-79 -28 -157 -28q-156 0 -217 110q-153 -121 -355 -121q-145 0 -244.5 80.5t-99.5 220.5q0 72 26.5 129.5t69 94t100 60.5t116 34t120.5 10q116 0 234 -27v35q0 76 -60 121t-172 45q-164 0 -348 -74v246q196 66 381 66 q232 0 357.5 -105.5t125.5 -339.5v-313zM547 430q-56 0 -100.5 -12.5t-75.5 -44t-31 -78.5q0 -54 44 -87.5t110 -33.5q128 0 221 80v154q-95 22 -168 22zM184 1360h668v-225h-668v225z" />
<glyph unicode="&#x102;" horiz-adv-x="1513" d="M324 0h-318l586 1434h332l583 -1434h-317l-105 268h-655zM725 1036l-199 -514h463l-201 514q-20 58 -30 113q-11 -59 -33 -113zM1077 1626q-131 -92 -321 -92q-189 0 -320 92v223q141 -88 320 -88q180 0 321 88v-223z" />
<glyph unicode="&#x103;" horiz-adv-x="1136" d="M999 254q0 -66 70 -66q26 0 53 9v-187q-79 -28 -157 -28q-156 0 -217 110q-153 -121 -355 -121q-145 0 -244.5 80.5t-99.5 220.5q0 72 26.5 129.5t69 94t100 60.5t116 34t120.5 10q116 0 234 -27v35q0 76 -60 121t-172 45q-164 0 -348 -74v246q196 66 381 66 q232 0 357.5 -105.5t125.5 -339.5v-313zM547 430q-56 0 -100.5 -12.5t-75.5 -44t-31 -78.5q0 -54 44 -87.5t110 -33.5q128 0 221 80v154q-95 22 -168 22zM840 1190q-131 -92 -322 -92q-188 0 -319 92v223q141 -88 319 -88q181 0 322 88v-223z" />
<glyph unicode="&#x104;" horiz-adv-x="1513" d="M1360 -199q-1 -33 18.5 -50t53.5 -17q43 0 84 26v-192q-73 -47 -179 -47q-111 0 -172 58t-59 147q0 67 39.5 139t114.5 135h-70l-105 268h-655l-106 -268h-318l586 1434h332l583 -1434q-73 -49 -111 -103t-36 -96zM725 1036l-199 -514h463l-201 514q-20 58 -30 113 q-15 -70 -33 -113z" />
<glyph unicode="&#x105;" horiz-adv-x="1138" d="M494 174q128 0 221 80v154q-95 22 -168 22q-56 0 -100.5 -12.5t-75.5 -44t-31 -78.5q0 -54 44 -87.5t110 -33.5zM1120 -238v-192q-71 -39 -168 -39q-111 -1 -172 57.5t-59 147.5q0 66 36 135.5t105 126.5q-75 25 -114 94q-153 -121 -355 -121q-145 0 -244.5 80.5 t-99.5 220.5q0 72 26.5 129.5t69 94t100 60.5t116 34t120.5 10q116 0 234 -27v35q0 76 -60 121t-172 45q-164 0 -348 -74v246q196 66 381 66q232 0 357.5 -105.5t125.5 -339.5v-313q0 -66 70 -66q26 0 53 9v-187q-73 -49 -111 -103.5t-36 -96.5q-1 -33 18.5 -49.5 t53.5 -16.5q39 0 73 18z" />
<glyph unicode="&#x106;" horiz-adv-x="1339" d="M74 700q1 152 44.5 279.5t117 215.5t172.5 149t209 89.5t227 28.5q223 0 409 -92v-293q-69 54 -163.5 83.5t-194.5 29.5q-78 0 -149.5 -17.5t-137 -56t-114 -94.5t-77 -138.5t-28.5 -183.5q-1 -92 27.5 -168t77.5 -128t114.5 -88.5t137.5 -53t149 -16.5q112 0 208.5 30.5 t160.5 88.5v-302q-192 -92 -416 -92q-117 0 -227.5 27.5t-210.5 86t-174 142.5t-118 206t-44 267zM922 1565h-275l184 303h312z" />
<glyph unicode="&#x107;" horiz-adv-x="1003" d="M66 477q0 109 31.5 200t85 152.5t125.5 104t150.5 61.5t162.5 19q168 0 303 -72v-250q-115 74 -262 74q-61 0 -114 -15.5t-97 -46.5t-69.5 -85.5t-25.5 -126.5q0 -133 88 -204t213 -71q156 0 277 72v-252q-155 -66 -332 -66q-104 0 -197.5 30.5t-170.5 90.5t-122.5 159.5 t-45.5 225.5zM698 1114h-274l184 303h312z" />
<glyph unicode="&#x10a;" horiz-adv-x="1339" d="M74 700q1 152 44.5 279.5t117 215.5t172.5 149t209 89.5t227 28.5q223 0 409 -92v-293q-69 54 -163.5 83.5t-194.5 29.5q-78 0 -149.5 -17.5t-137 -56t-114 -94.5t-77 -138.5t-28.5 -183.5q-1 -92 27.5 -168t77.5 -128t114.5 -88.5t137.5 -53t149 -16.5q112 0 208.5 30.5 t160.5 88.5v-302q-192 -92 -416 -92q-117 0 -227.5 27.5t-210.5 86t-174 142.5t-118 206t-44 267zM659 1708q0 78 47 120t119 42t120 -42t48 -120q0 -80 -47.5 -121t-120.5 -41q-72 0 -119 41t-47 121z" />
<glyph unicode="&#x10b;" horiz-adv-x="1003" d="M66 477q0 109 31.5 200t85 152.5t125.5 104t150.5 61.5t162.5 19q168 0 303 -72v-250q-115 74 -262 74q-61 0 -114 -15.5t-97 -46.5t-69.5 -85.5t-25.5 -126.5q0 -133 88 -204t213 -71q156 0 277 72v-252q-155 -66 -332 -66q-104 0 -197.5 30.5t-170.5 90.5t-122.5 159.5 t-45.5 225.5zM436 1257q0 78 47 120t119 42t120 -42t48 -120q0 -80 -47.5 -120.5t-120.5 -40.5t-119.5 40.5t-46.5 120.5z" />
<glyph unicode="&#x10c;" horiz-adv-x="1339" d="M74 700q1 152 44.5 279.5t117 215.5t172.5 149t209 89.5t227 28.5q223 0 409 -92v-293q-69 54 -163.5 83.5t-194.5 29.5q-78 0 -149.5 -17.5t-137 -56t-114 -94.5t-77 -138.5t-28.5 -183.5q-1 -92 27.5 -168t77.5 -128t114.5 -88.5t137.5 -53t149 -16.5q112 0 208.5 30.5 t160.5 88.5v-302q-192 -92 -416 -92q-117 0 -227.5 27.5t-210.5 86t-174 142.5t-118 206t-44 267zM1223 1874l-267 -318h-251l-269 318h273l120 -145l123 145h271z" />
<glyph unicode="&#x10d;" horiz-adv-x="1003" d="M66 477q0 109 31.5 200t85 152.5t125.5 104t150.5 61.5t162.5 19q168 0 303 -72v-250q-115 74 -262 74q-61 0 -114 -15.5t-97 -46.5t-69.5 -85.5t-25.5 -126.5q0 -133 88 -204t213 -71q156 0 277 72v-252q-155 -66 -332 -66q-104 0 -197.5 30.5t-170.5 90.5t-122.5 159.5 t-45.5 225.5zM999 1423l-266 -317h-252l-268 317h272l121 -145l123 145h270z" />
<glyph unicode="&#x10e;" horiz-adv-x="1519" d="M154 1434h536q187 0 332 -53t236 -149.5t137.5 -226.5t46.5 -288t-46.5 -288t-137.5 -226.5t-236 -149.5t-332 -53h-536v1434zM1128 717q0 220 -111.5 333t-326.5 113h-229v-893h229q215 0 326.5 113.5t111.5 333.5zM1098 1874l-267 -318h-251l-269 318h273l121 -145 l122 145h271z" />
<glyph unicode="&#x10f;" horiz-adv-x="1271" d="M1280 1434h244l-66 -414h-211zM870 1434h283v-1434h-250v143q-54 -75 -142.5 -123.5t-213.5 -48.5q-114 0 -207 43.5t-151.5 116.5t-90.5 166t-32 195t32 194.5t90.5 165.5t151.5 116.5t207 43.5q203 0 323 -133v555zM870 608q-32 70 -99.5 117t-156.5 47 q-118 0 -188 -80.5t-70 -199.5q0 -120 70 -200.5t188 -80.5q89 0 156.5 47t99.5 117v233z" />
<glyph unicode="&#x110;" horiz-adv-x="1540" d="M176 1434h537q150 0 273.5 -34.5t211.5 -98t148 -152.5t89 -197.5t29 -234.5t-29 -234.5t-89 -197.5t-148 -152.5t-211.5 -98t-273.5 -34.5h-537v602h-151v227h151v605zM483 270h230q215 0 326.5 113.5t111.5 333.5t-111.5 333t-326.5 113h-230v-334h318v-227h-318v-332z " />
<glyph unicode="&#x111;" horiz-adv-x="1271" d="M1153 1303h127v-177h-127v-1126h-250v143q-54 -75 -142.5 -123.5t-213.5 -48.5q-114 0 -207 43.5t-151.5 116.5t-90.5 166t-32 195t32 194.5t90.5 165.5t151.5 116.5t207 43.5q203 0 323 -133v247h-284v177h284v131h283v-131zM614 211q89 0 156.5 47t99.5 117v233 q-32 70 -99.5 117t-156.5 47q-118 0 -188 -80.5t-70 -199.5q0 -120 70 -200.5t188 -80.5z" />
<glyph unicode="&#x112;" horiz-adv-x="1265" d="M154 1434h1009v-271h-702v-305h641v-268h-641v-320h715v-270h-1022v1434zM344 1796h668v-225h-668v225z" />
<glyph unicode="&#x113;" horiz-adv-x="1120" d="M66 492q0 107 31.5 196t82.5 148t118 99.5t135.5 58.5t137.5 18q99 0 181 -25t137.5 -69t96 -103.5t56 -127.5t18.5 -141.5t-16 -146.5h-692q23 -101 119 -151.5t227 -50.5q163 0 297 59v-223q-146 -62 -360 -62q-118 0 -220.5 34t-180.5 98t-123 164t-45 225zM788 584 q4 28 -3.5 62t-28.5 68.5t-66 57.5t-108 23q-95 0 -162 -56.5t-70 -154.5h438zM240 1346h667v-226h-667v226z" />
<glyph unicode="&#x116;" horiz-adv-x="1265" d="M154 1434h1009v-271h-702v-305h641v-268h-641v-320h715v-270h-1022v1434zM510 1708q0 78 47 120t119 42t120 -42t48 -120q0 -80 -47.5 -121t-120.5 -41q-72 0 -119 41t-47 121z" />
<glyph unicode="&#x117;" horiz-adv-x="1120" d="M66 492q0 107 31.5 196t82.5 148t118 99.5t135.5 58.5t137.5 18q99 0 181 -25t137.5 -69t96 -103.5t56 -127.5t18.5 -141.5t-16 -146.5h-692q23 -101 119 -151.5t227 -50.5q163 0 297 59v-223q-146 -62 -360 -62q-118 0 -220.5 34t-180.5 98t-123 164t-45 225zM788 584 q4 28 -3.5 62t-28.5 68.5t-66 57.5t-108 23q-95 0 -162 -56.5t-70 -154.5h438zM406 1257q0 78 47 120t118 42q72 0 120 -42t48 -120q0 -80 -47.5 -120.5t-120.5 -40.5q-72 0 -118.5 40.5t-46.5 120.5z" />
<glyph unicode="&#x118;" horiz-adv-x="1265" d="M1176 270v-270q-74 -50 -116 -105t-40 -96q-1 -32 18.5 -48.5t53.5 -16.5q46 0 84 24v-192q-74 -45 -179 -45q-111 -1 -172 57.5t-59 147.5q0 68 44 141t122 133h-778v1434h1009v-271h-702v-305h641v-268h-641v-320h715z" />
<glyph unicode="&#x119;" horiz-adv-x="1120" d="M969 -432q-73 -47 -178 -47q-111 0 -172.5 58t-59.5 147q0 137 139 247q-20 -2 -63 -2q-118 0 -220.5 34t-180.5 98t-123 164t-45 225q0 107 31.5 196t82.5 148t118 99.5t135.5 58.5t137.5 18q99 0 181 -25t137.5 -69t96 -103.5t56 -127.5t18.5 -141.5t-16 -146.5h-692 q23 -101 119 -151.5t227 -50.5q163 0 297 59v-223q-182 -133 -182 -232q0 -33 19.5 -50t52.5 -17q43 0 84 26v-192zM582 795q-95 0 -162 -56.5t-70 -154.5h438q4 28 -3.5 62t-28.5 68.5t-66 57.5t-108 23z" />
<glyph unicode="&#x11a;" horiz-adv-x="1265" d="M154 1434h1009v-271h-702v-305h641v-268h-641v-320h715v-270h-1022v1434zM1073 1874l-266 -318h-252l-268 318h272l121 -145l123 145h270z" />
<glyph unicode="&#x11b;" horiz-adv-x="1120" d="M66 492q0 107 31.5 196t82.5 148t118 99.5t135.5 58.5t137.5 18q99 0 181 -25t137.5 -69t96 -103.5t56 -127.5t18.5 -141.5t-16 -146.5h-692q23 -101 119 -151.5t227 -50.5q163 0 297 59v-223q-146 -62 -360 -62q-118 0 -220.5 34t-180.5 98t-123 164t-45 225zM788 584 q4 28 -3.5 62t-28.5 68.5t-66 57.5t-108 23q-95 0 -162 -56.5t-70 -154.5h438zM969 1423l-267 -317h-251l-269 317h273l120 -145l123 145h271z" />
<glyph unicode="&#x11e;" horiz-adv-x="1437" d="M76 717q0 151 43.5 276.5t117.5 211t174.5 144.5t212 86t232.5 27q233 0 440 -92v-293q-168 111 -399 111q-100 0 -188 -27t-161 -81.5t-116 -148t-43 -214.5q0 -110 31.5 -195.5t80.5 -137.5t116 -85.5t131.5 -46t132.5 -12.5q87 0 157 26v512h293v-710 q-227 -97 -467 -97q-123 0 -236 26.5t-214.5 85t-176 144t-118 211.5t-43.5 279zM1135 1626q-131 -92 -322 -92q-188 0 -319 92v223q141 -88 319 -88q181 0 322 88v-223z" />
<glyph unicode="&#x11f;" horiz-adv-x="1273" d="M66 492q0 102 32 194.5t90.5 165.5t151.5 116.5t207 43.5q125 0 213.5 -48.5t142.5 -123.5v143h250v-956q0 -135 -47 -236t-128 -158.5t-178.5 -84.5t-211.5 -27q-224 0 -416 92v250q173 -103 379 -103q319 0 319 254v90q-120 -133 -323 -133q-114 0 -207 43.5 t-151.5 116.5t-90.5 166t-32 195zM870 608q-32 70 -99.5 117t-156.5 47q-118 0 -188 -80.5t-70 -199.5q0 -120 70 -200.5t188 -80.5q88 0 156 45.5t100 112.5v239zM899 1176q-133 -93 -321 -93q-187 0 -320 93v223q141 -88 320 -88q180 0 321 88v-223z" />
<glyph unicode="&#x120;" horiz-adv-x="1437" d="M76 717q0 151 43.5 276.5t117.5 211t174.5 144.5t212 86t232.5 27q233 0 440 -92v-293q-168 111 -399 111q-100 0 -188 -27t-161 -81.5t-116 -148t-43 -214.5q0 -110 31.5 -195.5t80.5 -137.5t116 -85.5t131.5 -46t132.5 -12.5q87 0 157 26v512h293v-710 q-227 -97 -467 -97q-123 0 -236 26.5t-214.5 85t-176 144t-118 211.5t-43.5 279zM645 1708q0 78 47 120t119 42t120 -42t48 -120q0 -80 -47.5 -121t-120.5 -41q-72 0 -119 41t-47 121z" />
<glyph unicode="&#x121;" horiz-adv-x="1273" d="M66 492q0 102 32 194.5t90.5 165.5t151.5 116.5t207 43.5q125 0 213.5 -48.5t142.5 -123.5v143h250v-956q0 -135 -47 -236t-128 -158.5t-178.5 -84.5t-211.5 -27q-224 0 -416 92v250q173 -103 379 -103q319 0 319 254v90q-120 -133 -323 -133q-114 0 -207 43.5 t-151.5 116.5t-90.5 166t-32 195zM870 608q-32 70 -99.5 117t-156.5 47q-118 0 -188 -80.5t-70 -199.5q0 -120 70 -200.5t188 -80.5q88 0 156 45.5t100 112.5v239zM410 1257q0 78 47 120t118 42q72 0 120 -42t48 -120q0 -80 -47.5 -120.5t-120.5 -40.5q-72 0 -118.5 40.5 t-46.5 120.5z" />
<glyph unicode="&#x122;" horiz-adv-x="1437" d="M76 717q0 151 43.5 276.5t117.5 211t174.5 144.5t212 86t232.5 27q233 0 440 -92v-293q-168 111 -399 111q-100 0 -188 -27t-161 -81.5t-116 -148t-43 -214.5q0 -110 31.5 -195.5t80.5 -137.5t116 -85.5t131.5 -46t132.5 -12.5q87 0 157 26v512h293v-710 q-227 -97 -467 -97q-123 0 -236 26.5t-214.5 85t-176 144t-118 211.5t-43.5 279zM887 -559h-230l66 430h262z" />
<glyph unicode="&#x123;" horiz-adv-x="1273" d="M725 1106h-244l97 397h210zM66 492q0 102 32 194.5t90.5 165.5t151.5 116.5t207 43.5q125 0 213.5 -48.5t142.5 -123.5v143h250v-956q0 -135 -47 -236t-128 -158.5t-178.5 -84.5t-211.5 -27q-224 0 -416 92v250q173 -103 379 -103q319 0 319 254v90q-120 -133 -323 -133 q-114 0 -207 43.5t-151.5 116.5t-90.5 166t-32 195zM870 608q-32 70 -99.5 117t-156.5 47q-118 0 -188 -80.5t-70 -199.5q0 -120 70 -200.5t188 -80.5q88 0 156 45.5t100 112.5v239z" />
<glyph unicode="&#x126;" horiz-adv-x="1593" d="M475 0h-307v1018h-139v196h139v220h307v-220h643v220h307v-220h140v-196h-140v-1018h-307v592h-643v-592zM475 1018v-176h643v176h-643z" />
<glyph unicode="&#x127;" horiz-adv-x="1204" d="M401 891q124 121 295 121q188 0 294 -114t106 -290v-608h-283v571q0 96 -52 145.5t-138 49.5q-70 0 -127 -36.5t-95 -88.5v-641h-282v1118h-109v176h109v140h282v-140h289v-176h-289v-227z" />
<glyph unicode="&#x12a;" horiz-adv-x="614" d="M154 1434h307v-1434h-307v1434zM-25 1796h668v-225h-668v225z" />
<glyph unicode="&#x12b;" horiz-adv-x="530" d="M12 1354h504v-199h-504v199zM123 983h285v-983h-285v983z" />
<glyph unicode="&#x12e;" horiz-adv-x="614" d="M338 -201q-1 -32 18.5 -48.5t53.5 -16.5q47 0 84 24v-192q-74 -45 -179 -45q-111 -1 -172 57.5t-59 147.5q0 136 135 274h-65v1434h307v-1434h2q-62 -54 -94.5 -107t-30.5 -94z" />
<glyph unicode="&#x12f;" horiz-adv-x="532" d="M436 1309q0 -80 -47.5 -121t-118.5 -41q-72 0 -120 41t-48 121q0 79 48 119t120 40q71 0 118.5 -40t47.5 -119zM297 -201q0 -65 72 -65q47 0 84 24v-192q-74 -45 -179 -45q-111 -1 -171 57t-60 148q0 66 35 139t92 135h-45v983h285v-983q-51 -51 -82 -106t-31 -95z" />
<glyph unicode="&#x130;" horiz-adv-x="614" d="M154 1434h307v-1434h-307v1434zM141 1708q0 78 47 120t119 42t120 -42t48 -120q0 -80 -47.5 -121t-120.5 -41q-72 0 -119 41t-47 121z" />
<glyph unicode="&#x131;" horiz-adv-x="534" d="M125 983h285v-983h-285v983z" />
<glyph unicode="&#x132;" horiz-adv-x="1669" d="M154 1434h307v-1434h-307v1434zM838 1434h688v-1002q0 -99 -27 -177.5t-74 -130.5t-112.5 -86.5t-139.5 -49.5t-159 -15q-209 0 -371 74v287q127 -78 297 -78q279 0 279 211v690h-381v277z" />
<glyph unicode="&#x133;" horiz-adv-x="1062" d="M408 0h-285v983h285v-983zM432 1309q0 -80 -47.5 -121t-120.5 -41q-71 0 -118.5 41t-47.5 121q0 79 47.5 119t118.5 40q73 0 120.5 -40t47.5 -119zM940 -139q0 -74 -19 -133t-50.5 -97.5t-76.5 -63.5t-93.5 -35.5t-104.5 -10.5q-106 0 -176 28v244q44 -20 102 -20 q60 0 97.5 33.5t37.5 105.5v1071h283v-1122zM965 1309q0 -80 -47.5 -121t-118.5 -41q-72 0 -120 41t-48 121q0 79 48 119t120 40q71 0 118.5 -40t47.5 -119z" />
<glyph unicode="&#x136;" horiz-adv-x="1415" d="M461 0h-307v1434h307v-570h231l363 570h342l-465 -699l491 -735h-340l-391 586h-231v-586zM784 -539h-229l66 430h262z" />
<glyph unicode="&#x137;" horiz-adv-x="1120" d="M1122 0h-319l-283 389h-114v-389h-285v1434h285v-818h118l250 367h320l-338 -485zM633 -539h-230l66 430h262z" />
<glyph unicode="&#x139;" horiz-adv-x="1189" d="M154 1434h307v-1158h702v-276h-1009v1434zM401 1565h-274l184 303h312z" />
<glyph unicode="&#x13a;" horiz-adv-x="534" d="M125 1495h285v-1495h-285v1495zM377 1591h-275l185 303h311z" />
<glyph unicode="&#x13b;" horiz-adv-x="1189" d="M154 1434h307v-1158h702v-276h-1009v1434zM700 -539h-229l66 430h262z" />
<glyph unicode="&#x13c;" horiz-adv-x="534" d="M125 1495h285v-1495h-285v1495zM311 -539h-229l65 430h263z" />
<glyph unicode="&#x13d;" horiz-adv-x="1191" d="M772 1434h244l-66 -414h-211zM154 1434h307v-1158h702v-276h-1009v1434z" />
<glyph unicode="&#x13e;" horiz-adv-x="532" d="M535 1495h243l-65 -414h-211zM125 1495h285v-1495h-285v1495z" />
<glyph unicode="&#x13f;" horiz-adv-x="1204" d="M973 795q0 -77 -46.5 -117.5t-115.5 -40.5t-115.5 40.5t-46.5 117.5q0 75 46.5 115t115.5 40t115.5 -40t46.5 -115zM154 1434h307v-1158h702v-276h-1009v1434z" />
<glyph unicode="&#x140;" horiz-adv-x="813" d="M125 1495h285v-1495h-285v1495zM846 717q0 -83 -49 -125.5t-123 -42.5q-75 0 -124.5 42.5t-49.5 125.5q0 82 50 125t124 43t123 -43t49 -125z" />
<glyph unicode="&#x141;" horiz-adv-x="1236" d="M1210 0h-1009v506l-164 -64v250l164 64v678h307v-564l356 140v-250l-356 -139v-345h702v-276z" />
<glyph unicode="&#x142;" horiz-adv-x="737" d="M227 1495h285v-590l160 64v-224l-160 -63v-682h-285v569l-159 -63v223l159 66v700z" />
<glyph unicode="&#x143;" horiz-adv-x="1564" d="M461 0h-307v1434h288l668 -936q-6 89 -6 196v740h307v-1434h-289l-667 936q6 -89 6 -197v-739zM877 1565h-275l184 303h312z" />
<glyph unicode="&#x144;" d="M373 858q133 154 327 154q188 0 294 -114t106 -290v-608h-285v571q0 96 -51.5 145.5t-138.5 49.5q-69 0 -126 -37t-93 -88v-641h-285v983h252v-125zM688 1114h-274l184 303h311z" />
<glyph unicode="&#x145;" horiz-adv-x="1564" d="M461 0h-307v1434h288l668 -936q-6 89 -6 196v740h307v-1434h-289l-667 936q6 -89 6 -197v-739zM854 -539h-229l65 430h262z" />
<glyph unicode="&#x146;" d="M373 858q133 154 327 154q188 0 294 -114t106 -290v-608h-285v571q0 96 -51.5 145.5t-138.5 49.5q-69 0 -126 -37t-93 -88v-641h-285v983h252v-125zM657 -539h-229l66 430h262z" />
<glyph unicode="&#x147;" horiz-adv-x="1564" d="M461 0h-307v1434h288l668 -936q-6 89 -6 196v740h307v-1434h-289l-667 936q6 -89 6 -197v-739zM1178 1874l-267 -318h-252l-268 318h273l120 -145l123 145h271z" />
<glyph unicode="&#x148;" d="M373 858q133 154 327 154q188 0 294 -114t106 -290v-608h-285v571q0 96 -51.5 145.5t-138.5 49.5q-69 0 -126 -37t-93 -88v-641h-285v983h252v-125zM989 1423l-266 -317h-252l-268 317h272l121 -145l123 145h270z" />
<glyph unicode="&#x14a;" horiz-adv-x="1564" d="M1411 -92q0 -183 -95.5 -282t-256.5 -99q-70 0 -156 22v256q33 -10 70 -10q131 0 131 142v90l-649 909q6 -89 6 -197v-739h-307v1434h288l668 -936q-6 89 -6 196v740h307v-1526z" />
<glyph unicode="&#x14b;" d="M1100 -154q0 -73 -20 -131t-52.5 -93.5t-77 -59t-89 -32.5t-93.5 -9q-92 0 -164 28v228q38 -15 80 -15q131 0 131 136v673q0 96 -51.5 145.5t-138.5 49.5q-69 0 -126 -37t-93 -88v-641h-285v983h252v-125q133 154 327 154q188 0 294 -114t106 -290v-762z" />
<glyph unicode="&#x14c;" horiz-adv-x="1671" d="M74 717q0 148 48.5 280.5t141 237t240.5 166t332 61.5t332 -61.5t240 -166t140.5 -237t48.5 -280.5q0 -118 -30 -227t-92 -203.5t-151 -165t-214.5 -110.5t-273.5 -40q-184 0 -332 61.5t-240.5 166t-141 237.5t-48.5 281zM1282 717q0 96 -28.5 178.5t-82.5 146 t-140.5 100t-194.5 36.5q-109 0 -196 -36.5t-141.5 -100t-83 -146t-28.5 -178.5t28.5 -178.5t83 -146t141.5 -100t196 -36.5q108 0 194.5 36.5t140.5 100t82.5 146t28.5 178.5zM502 1796h667v-225h-667v225z" />
<glyph unicode="&#x14d;" horiz-adv-x="1216" d="M66 492q0 125 44.5 225.5t120 164t172.5 97t205 33.5q109 0 206 -33.5t173 -97t120 -164t44 -225.5q0 -101 -29 -186t-79.5 -146t-119.5 -104t-148.5 -64t-166.5 -21q-108 0 -205 33.5t-172.5 97t-120 164.5t-44.5 226zM862 492q0 118 -67 192t-187 74q-118 0 -185 -74 t-67 -192t67 -192.5t185 -74.5q120 0 187 74.5t67 192.5zM276 1333h668v-225h-668v225z" />
<glyph unicode="&#x150;" horiz-adv-x="1671" d="M74 717q0 148 48.5 280.5t141 237t240.5 166t332 61.5t332 -61.5t240 -166t140.5 -237t48.5 -280.5q0 -118 -30 -227t-92 -203.5t-151 -165t-214.5 -110.5t-273.5 -40q-184 0 -332 61.5t-240.5 166t-141 237.5t-48.5 281zM1282 717q0 96 -28.5 178.5t-82.5 146 t-140.5 100t-194.5 36.5q-109 0 -196 -36.5t-141.5 -100t-83 -146t-28.5 -178.5t28.5 -178.5t83 -146t141.5 -100t196 -36.5q108 0 194.5 36.5t140.5 100t82.5 146t28.5 178.5zM1130 1585h-260l148 313h278zM760 1585h-260l147 313h279z" />
<glyph unicode="&#x151;" horiz-adv-x="1216" d="M66 492q0 125 44.5 225.5t120 164t172.5 97t205 33.5q109 0 206 -33.5t173 -97t120 -164t44 -225.5q0 -101 -29 -186t-79.5 -146t-119.5 -104t-148.5 -64t-166.5 -21q-108 0 -205 33.5t-172.5 97t-120 164.5t-44.5 226zM862 492q0 118 -67 192t-187 74q-118 0 -185 -74 t-67 -192t67 -192.5t185 -74.5q120 0 187 74.5t67 192.5zM905 1122h-260l148 314h278zM535 1122h-261l148 314h278z" />
<glyph unicode="&#x152;" horiz-adv-x="2138" d="M1083 0q-113 -29 -247 -29q-184 0 -332 61.5t-240.5 166t-141 237.5t-48.5 281t48.5 280.5t141 237t240.5 166t332 61.5q138 0 247 -28h955v-271h-654v-305h592v-268h-592v-320h666v-270h-967zM389 717q0 -210 130 -339.5t335 -129.5q114 0 229 43v854q-118 41 -229 41 q-206 0 -335.5 -129t-129.5 -340z" />
<glyph unicode="&#x153;" horiz-adv-x="1914" d="M995 172q-63 -99 -169.5 -150t-241.5 -51q-101 0 -193 33.5t-165 97t-116.5 164.5t-43.5 226q0 100 28.5 185.5t77.5 146.5t114.5 104t140.5 63.5t155 20.5q134 0 241.5 -50.5t169.5 -146.5q70 100 173 148.5t214 48.5q83 0 153.5 -19t122.5 -53t92 -80t63.5 -101 t35 -115.5t9.5 -123.5t-17 -125h-692q16 -67 68.5 -112.5t123.5 -65.5t156 -20q162 0 293 59v-221q-148 -64 -358 -64q-140 0 -252.5 50t-182.5 151zM356 492q0 -118 67 -192.5t185 -74.5q120 0 187 74.5t67 192.5t-67 192t-187 74q-118 0 -185 -74t-67 -192zM1376 793 q-96 0 -162 -57t-69 -158h438q3 23 -0.5 50t-17 56.5t-36.5 53.5t-62.5 39.5t-90.5 15.5z" />
<glyph unicode="&#x154;" horiz-adv-x="1445" d="M461 0h-307v1434h589q88 0 166.5 -13.5t154 -47t129.5 -85.5t87 -134t33 -187q0 -173 -85.5 -277t-228.5 -149l428 -541h-354l-387 502h-225v-502zM461 1163v-405h297q105 0 173 50t68 153q0 104 -67.5 153t-173.5 49h-297zM788 1565h-274l184 303h312z" />
<glyph unicode="&#x155;" horiz-adv-x="800" d="M373 836q55 86 159.5 133.5t237.5 34.5v-277q-118 20 -219 -21t-145 -128v-578h-285v983h252v-147zM530 1114h-274l184 303h312z" />
<glyph unicode="&#x156;" horiz-adv-x="1445" d="M461 0h-307v1434h589q88 0 166.5 -13.5t154 -47t129.5 -85.5t87 -134t33 -187q0 -173 -85.5 -277t-228.5 -149l428 -541h-354l-387 502h-225v-502zM461 1163v-405h297q105 0 173 50t68 153q0 104 -67.5 153t-173.5 49h-297zM780 -539h-229l65 430h263z" />
<glyph unicode="&#x157;" horiz-adv-x="800" d="M373 836q55 86 159.5 133.5t237.5 34.5v-277q-118 20 -219 -21t-145 -128v-578h-285v983h252v-147zM301 -539h-229l65 430h262z" />
<glyph unicode="&#x158;" horiz-adv-x="1445" d="M461 0h-307v1434h589q88 0 166.5 -13.5t154 -47t129.5 -85.5t87 -134t33 -187q0 -173 -85.5 -277t-228.5 -149l428 -541h-354l-387 502h-225v-502zM461 1163v-405h297q105 0 173 50t68 153q0 104 -67.5 153t-173.5 49h-297zM1090 1874l-267 -318h-252l-268 318h272 l121 -145l123 145h271z" />
<glyph unicode="&#x159;" horiz-adv-x="798" d="M371 836q55 86 159.5 133.5t237.5 34.5v-277q-118 20 -219.5 -21t-145.5 -128v-578h-284v983h252v-147zM829 1423l-266 -317h-252l-268 317h272l121 -145l123 145h270z" />
<glyph unicode="&#x15a;" horiz-adv-x="1241" d="M90 1055q0 100 42 179.5t114.5 128t166 74t201.5 25.5q128 0 250.5 -29t214.5 -81v-287q-89 64 -204.5 96.5t-237.5 30.5q-234 -3 -234 -133q0 -39 27 -71t72.5 -54.5t104 -43.5t124 -43t130.5 -47.5t123.5 -62.5t104 -82.5t72.5 -112.5t27 -149q0 -94 -29.5 -167.5 t-80 -120.5t-123 -78t-152.5 -43.5t-174 -12.5q-300 0 -531 129v293q227 -151 508 -151q131 0 199.5 32t68.5 105q0 43 -27 77t-72 58t-104 46t-124 44.5t-130 47.5t-124 61.5t-104 82t-72 112t-27 147.5zM696 1565h-274l184 303h312z" />
<glyph unicode="&#x15b;" horiz-adv-x="976" d="M78 709q0 82 34 142.5t93.5 94.5t129.5 50t152 16q192 0 363 -84v-234q-64 43 -160.5 72t-183.5 29q-55 0 -96 -19t-41 -59q0 -29 24 -51.5t63 -36.5t88.5 -29.5t102 -30.5t102 -40t88.5 -56.5t63 -82.5t24 -116q0 -84 -36 -144.5t-100 -94t-141 -49t-170 -15.5 q-235 0 -391 92v236q76 -50 178.5 -77t196.5 -27q172 0 172 73q0 28 -24 50t-63 36t-88.5 30t-102 31.5t-102 41t-88.5 57t-63 82t-24 113.5zM580 1114h-275l184 303h312z" />
<glyph unicode="&#x15e;" horiz-adv-x="1241" d="M403 1059q0 -39 27 -71t72.5 -54.5t104 -43.5t124 -43t130.5 -47.5t123.5 -62.5t104 -82.5t72.5 -112.5t27 -149q0 -103 -34.5 -181t-97.5 -126t-142 -74.5t-177 -34.5l-20 -75q192 -18 192 -178q1 -69 -44 -116.5t-110 -67t-141 -19.5q-119 0 -208 39v176 q68 -41 163 -41q59 0 93 15.5t34 45.5q0 38 -56.5 51t-139.5 3l39 165q-241 15 -441 125v293q227 -151 508 -151q131 0 199.5 32t68.5 105q0 43 -27 77t-72 58t-104 46t-124 44.5t-130 47.5t-124 61.5t-104 82t-72 112t-27 147.5q0 100 42 179.5t114.5 128t166 74 t201.5 25.5q128 0 250.5 -29t214.5 -81v-287q-89 64 -204.5 96.5t-237.5 30.5q-234 -3 -234 -133z" />
<glyph unicode="&#x15f;" horiz-adv-x="976" d="M369 717q0 -29 24 -51.5t63 -36.5t88.5 -29.5t102 -30.5t102 -40t88.5 -56.5t63 -82.5t24 -116q0 -244 -306 -292l-22 -80q189 -17 192 -178q0 -69 -45 -116.5t-109 -67t-140 -19.5q-120 0 -211 39v176q71 -41 166 -41q126 0 126 61q0 37 -57.5 50.5t-138.5 3.5l39 163 q-196 9 -332 90v236q76 -50 178.5 -77t196.5 -27q172 0 172 73q0 28 -24 50t-63 36t-88.5 30t-102 31.5t-102 41t-88.5 57t-63 82t-24 113.5q0 82 34 142.5t93.5 94.5t129.5 50t152 16q192 0 363 -84v-234q-64 43 -160.5 72t-183.5 29q-55 0 -96 -19t-41 -59z" />
<glyph unicode="&#x160;" horiz-adv-x="1241" d="M90 1055q0 100 42 179.5t114.5 128t166 74t201.5 25.5q128 0 250.5 -29t214.5 -81v-287q-89 64 -204.5 96.5t-237.5 30.5q-234 -3 -234 -133q0 -39 27 -71t72.5 -54.5t104 -43.5t124 -43t130.5 -47.5t123.5 -62.5t104 -82.5t72.5 -112.5t27 -149q0 -94 -29.5 -167.5 t-80 -120.5t-123 -78t-152.5 -43.5t-174 -12.5q-300 0 -531 129v293q227 -151 508 -151q131 0 199.5 32t68.5 105q0 43 -27 77t-72 58t-104 46t-124 44.5t-130 47.5t-124 61.5t-104 82t-72 112t-27 147.5zM997 1874l-266 -318h-252l-268 318h272l121 -145l123 145h270z" />
<glyph unicode="&#x161;" horiz-adv-x="976" d="M78 709q0 82 34 142.5t93.5 94.5t129.5 50t152 16q192 0 363 -84v-234q-64 43 -160.5 72t-183.5 29q-55 0 -96 -19t-41 -59q0 -29 24 -51.5t63 -36.5t88.5 -29.5t102 -30.5t102 -40t88.5 -56.5t63 -82.5t24 -116q0 -84 -36 -144.5t-100 -94t-141 -49t-170 -15.5 q-235 0 -391 92v236q76 -50 178.5 -77t196.5 -27q172 0 172 73q0 28 -24 50t-63 36t-88.5 30t-102 31.5t-102 41t-88.5 57t-63 82t-24 113.5zM881 1423l-267 -317h-252l-268 317h273l120 -145l123 145h271z" />
<glyph unicode="&#x162;" horiz-adv-x="1239" d="M27 1434h1185v-277h-440v-1157h-305v1157h-440v277zM666 -539h-230l66 430h262z" />
<glyph unicode="&#x163;" horiz-adv-x="856" d="M195 1270l282 67v-354h311v-240h-311v-385q0 -76 39 -111.5t119 -35.5q96 0 178 33v-230q-121 -43 -264 -43q-74 0 -136 18t-112 56t-78 104t-28 154v440h-166v240h166v287zM555 -539h-229l65 430h262z" />
<glyph unicode="&#x164;" horiz-adv-x="1239" d="M27 1434h1185v-277h-440v-1157h-305v1157h-440v277zM1016 1874l-266 -318h-252l-269 318h273l121 -145l122 145h271z" />
<glyph unicode="&#x165;" horiz-adv-x="856" d="M643 1522h244l-66 -406h-211zM195 1270l282 67v-354h311v-240h-311v-385q0 -76 39 -111.5t119 -35.5q96 0 178 33v-230q-121 -43 -264 -43q-74 0 -136 18t-112 56t-78 104t-28 154v440h-166v240h166v287z" />
<glyph unicode="&#x166;" horiz-adv-x="1263" d="M784 0h-305v578h-243v208h243v371h-440v277h1186v-277h-441v-371h242v-208h-242v-578z" />
<glyph unicode="&#x167;" horiz-adv-x="858" d="M479 356q0 -77 38.5 -112t119.5 -35q96 0 178 33v-228q-134 -43 -264 -43q-74 0 -136 18t-112 56t-78 104t-28 154v129h-109v170h109v156h-166v225h166v287l282 67v-354h312v-225h-312v-156h252v-170h-252v-76z" />
<glyph unicode="&#x16a;" horiz-adv-x="1536" d="M1092 1434h305v-895q0 -123 -35.5 -221.5t-94.5 -162t-141 -106t-170.5 -60.5t-187.5 -18t-187.5 18t-170.5 60.5t-141 106t-94.5 162t-35.5 221.5v895h307v-879q0 -307 322 -307q324 0 324 307v879zM432 1796h668v-225h-668v225z" />
<glyph unicode="&#x16b;" d="M803 983h284v-983h-251v125q-61 -70 -145 -112t-183 -42q-192 0 -295.5 113t-103.5 291v608h284v-571q0 -96 49.5 -145.5t139.5 -49.5q70 0 126.5 36.5t94.5 88.5v641zM268 1346h668v-226h-668v226z" />
<glyph unicode="&#x16e;" horiz-adv-x="1536" d="M1092 1434h305v-895q0 -123 -35.5 -221.5t-94.5 -162t-141 -106t-170.5 -60.5t-187.5 -18t-187.5 18t-170.5 60.5t-141 106t-94.5 162t-35.5 221.5v895h307v-879q0 -307 322 -307q324 0 324 307v879zM1020 1753q0 -114 -74 -181t-182 -67q-106 0 -181 67t-75 181 q0 110 75 176t181 66q107 0 181.5 -66t74.5 -176zM680 1751q0 -39 24.5 -63.5t61.5 -24.5t61.5 24.5t24.5 63.5q0 38 -24.5 62t-61.5 24t-61.5 -24t-24.5 -62z" />
<glyph unicode="&#x16f;" d="M803 983h284v-983h-251v125q-61 -70 -145 -112t-183 -42q-192 0 -295.5 113t-103.5 291v608h284v-571q0 -96 49.5 -145.5t139.5 -49.5q70 0 126.5 36.5t94.5 88.5v641zM856 1303q0 -114 -74 -181t-182 -67q-106 0 -181 67t-75 181q0 110 75 175.5t181 65.5 q107 0 181.5 -65.5t74.5 -175.5zM516 1300q0 -39 24.5 -63.5t61.5 -24.5t61.5 24.5t24.5 63.5q0 38 -24.5 62t-61.5 24t-61.5 -24t-24.5 -62z" />
<glyph unicode="&#x170;" horiz-adv-x="1536" d="M1092 1434h305v-895q0 -123 -35.5 -221.5t-94.5 -162t-141 -106t-170.5 -60.5t-187.5 -18t-187.5 18t-170.5 60.5t-141 106t-94.5 162t-35.5 221.5v895h307v-879q0 -307 322 -307q324 0 324 307v879zM1061 1585h-260l147 313h279zM690 1585h-260l148 313h278z" />
<glyph unicode="&#x171;" d="M803 983h284v-983h-251v125q-61 -70 -145 -112t-183 -42q-192 0 -295.5 113t-103.5 291v608h284v-571q0 -96 49.5 -145.5t139.5 -49.5q70 0 126.5 36.5t94.5 88.5v641zM897 1135h-260l147 313h279zM526 1135h-260l148 313h278z" />
<glyph unicode="&#x172;" horiz-adv-x="1536" d="M1151 -434q-74 -45 -178 -45q-111 -1 -172.5 57.5t-59.5 147.5q1 60 31.5 126t83.5 123q-29 -4 -88 -4q-99 0 -187.5 18t-170.5 60.5t-141 106t-94.5 162t-35.5 221.5v895h307v-879q0 -307 322 -307q324 0 324 307v879h305v-895q0 -294 -189 -439q-117 -89 -165 -168.5 t-48 -132.5q0 -65 72 -65q47 0 84 24v-192z" />
<glyph unicode="&#x173;" d="M1087 983v-983q-73 -49 -111 -103t-36 -96q-1 -33 18.5 -50t53.5 -17q35 0 75 16v-196q-73 -33 -169 -33q-111 0 -172.5 58t-59.5 147q0 70 41 142.5t109 131.5v125q-61 -70 -145 -112t-183 -42q-192 0 -295.5 113t-103.5 291v608h284v-571q0 -96 49.5 -145.5 t139.5 -49.5q70 0 126.5 36.5t94.5 88.5v641h284z" />
<glyph unicode="&#x174;" horiz-adv-x="2162" d="M1810 1434h332l-442 -1434h-334l-285 977l-284 -977h-334l-443 1434h332l285 -1084l309 1084h271l309 -1084zM956 1868h252l254 -318h-270l-109 133l-108 -133h-273z" />
<glyph unicode="&#x175;" horiz-adv-x="1673" d="M1348 983h301l-316 -983h-301l-194 641l-195 -641h-303l-315 983h303l178 -674l196 674h271l194 -674zM711 1417h252l254 -317h-271l-108 133l-109 -133h-272z" />
<glyph unicode="&#x176;" horiz-adv-x="1437" d="M872 0h-305v508l-561 926h346l367 -643l366 643h347l-560 -926v-508zM592 1868h252l254 -318h-271l-108 133l-109 -133h-272z" />
<glyph unicode="&#x177;" horiz-adv-x="1153" d="M594 319l244 664h295l-437 -1102q-145 -358 -424 -358q-60 0 -153 22v236q68 -14 117 -14q154 0 233 215l2 4l-465 997h301zM434 1417h252l254 -317h-270l-109 133l-108 -133h-273z" />
<glyph unicode="&#x178;" horiz-adv-x="1437" d="M872 0h-305v508l-561 926h346l367 -643l366 643h347l-560 -926v-508zM1087 1706q0 -63 -44 -107.5t-107 -44.5q-64 0 -109 44.5t-45 107.5t45 108.5t109 45.5q63 0 107 -45.5t44 -108.5zM649 1706q0 -63 -44 -107.5t-107 -44.5t-108.5 44.5t-45.5 107.5t45.5 108.5 t108.5 45.5t107 -45.5t44 -108.5z" />
<glyph unicode="&#x179;" horiz-adv-x="1257" d="M1188 0h-1122v221l692 936h-662v277h1067v-222l-694 -936h719v-276zM733 1565h-274l184 303h311z" />
<glyph unicode="&#x17a;" horiz-adv-x="987" d="M90 983h801v-184l-461 -561h494v-238h-861v184l461 564h-434v235zM598 1114h-274l184 303h311z" />
<glyph unicode="&#x17b;" horiz-adv-x="1257" d="M1188 0h-1122v221l692 936h-662v277h1067v-222l-694 -936h719v-276zM471 1708q0 78 47 120t119 42t120 -42t48 -120q0 -80 -47.5 -121t-120.5 -41q-72 0 -119 41t-47 121z" />
<glyph unicode="&#x17c;" horiz-adv-x="987" d="M90 983h801v-184l-461 -561h494v-238h-861v184l461 564h-434v235zM336 1257q0 78 47 120t119 42t120 -42t48 -120q0 -80 -47.5 -120.5t-120.5 -40.5t-119.5 40.5t-46.5 120.5z" />
<glyph unicode="&#x17d;" horiz-adv-x="1257" d="M1188 0h-1122v221l692 936h-662v277h1067v-222l-694 -936h719v-276zM1034 1874l-266 -318h-252l-268 318h272l121 -145l123 145h270z" />
<glyph unicode="&#x17e;" horiz-adv-x="987" d="M90 983h801v-184l-461 -561h494v-238h-861v184l461 564h-434v235zM899 1423l-266 -317h-252l-268 317h272l121 -145l123 145h270z" />
<glyph unicode="&#x2c6;" horiz-adv-x="753" d="M250 1868h252l254 -318h-271l-108 133l-109 -133h-272z" />
<glyph unicode="&#x2da;" horiz-adv-x="505" d="M508 1753q0 -114 -74 -181t-182 -67q-106 0 -181 67t-75 181q0 110 75 176t181 66q107 0 181.5 -66t74.5 -176zM168 1751q0 -39 24.5 -63.5t61.5 -24.5t61.5 24.5t24.5 63.5q0 38 -24.5 62t-61.5 24t-61.5 -24t-24.5 -62z" />
<glyph unicode="&#x2dc;" horiz-adv-x="819" d="M778 1812q29 -123 -28 -203.5t-164 -80.5q-57 0 -116.5 21.5t-105 43t-69.5 21.5q-33 0 -43.5 -23.5t-3.5 -50.5h-205q-29 123 28 204t162 81q57 0 116 -21.5t105 -43t72 -21.5q33 0 43.5 23t3.5 50h205z" />
<glyph unicode="&#x401;" horiz-adv-x="1263" d="M1049 1706q0 -63 -44.5 -107.5t-107.5 -44.5q-64 0 -109 44.5t-45 107.5t45 108.5t109 45.5q63 0 107.5 -45.5t44.5 -108.5zM610 1706q0 -63 -44 -107.5t-107 -44.5t-108.5 44.5t-45.5 107.5t45.5 108.5t108.5 45.5t107 -45.5t44 -108.5zM154 1434h1009v-271h-702v-305 h641v-268h-641v-320h715v-270h-1022v1434z" />
<glyph unicode="&#x410;" horiz-adv-x="1513" d="M324 0h-318l586 1434h332l583 -1434h-317l-105 268h-655zM725 1036l-199 -514h463l-201 514q-20 58 -30 113q-11 -59 -33 -113z" />
<glyph unicode="&#x411;" horiz-adv-x="1382" d="M461 901h315q90 0 166.5 -12.5t148.5 -44.5t122.5 -81.5t81 -129t30.5 -182.5t-30.5 -183t-81 -130t-122.5 -81.5t-148.5 -44t-166.5 -12.5h-622v1434h1054v-277h-747v-256zM461 270h317q51 0 88.5 7t73 25.5t54 56t18.5 92.5t-18.5 92.5t-54 55.5t-73 25t-88.5 7h-317 v-361z" />
<glyph unicode="&#x412;" horiz-adv-x="1406" d="M154 1434h626q235 0 365.5 -91.5t130.5 -271.5q0 -121 -58.5 -200t-158.5 -113q119 -35 196.5 -122.5t77.5 -234.5q0 -94 -35 -166.5t-90.5 -116t-132 -71t-150.5 -37.5t-155 -10h-616v1434zM1026 434q0 184 -244 184h-323v-368h307q57 0 99.5 7t81 26t59 57t20.5 94z M971 1018q0 83 -56.5 123.5t-160.5 40.5h-293v-328h309q91 0 146 41.5t55 122.5z" />
<glyph unicode="&#x413;" horiz-adv-x="1179" d="M461 0h-307v1434h1001v-277h-694v-1157z" />
<glyph unicode="&#x414;" horiz-adv-x="1656" d="M313 -311h-270v581h168q227 407 227 1164h975v-1164h182v-581h-270v311h-1012v-311zM725 1157q-38 -599 -188 -887h569v887h-381z" />
<glyph unicode="&#x415;" horiz-adv-x="1263" d="M154 1434h1009v-271h-702v-305h641v-268h-641v-320h715v-270h-1022v1434z" />
<glyph unicode="&#x416;" horiz-adv-x="2021" d="M350 0h-342l428 735l-399 699h342l307 -570h172v570h307v-570h172l308 570h342l-402 -699l430 -735h-342l-338 586h-170v-586h-307v586h-170z" />
<glyph unicode="&#x417;" horiz-adv-x="1277" d="M1202 389q0 -92 -34.5 -165.5t-91.5 -120t-135 -77t-159.5 -43t-171.5 -12.5q-273 0 -530 92v295q232 -114 508 -110q305 0 305 186q0 168 -258 168h-324l2 270h301q104 0 164 38.5t60 111.5q0 164 -285 164q-212 3 -449 -111v293q223 94 476 94q261 0 413 -99.5 t152 -291.5q0 -116 -61.5 -196.5t-168.5 -116.5q59 -16 108.5 -45.5t90.5 -73.5t64.5 -108t23.5 -142z" />
<glyph unicode="&#x418;" horiz-adv-x="1564" d="M1411 0h-307v739q0 109 6 197l-668 -936h-288v1434h307v-740q0 -108 -6 -196l667 936h289v-1434z" />
<glyph unicode="&#x419;" horiz-adv-x="1564" d="M1104 0h307v1434h-289l-667 -936q6 89 6 196v740h-307v-1434h288l668 936q-6 -89 -6 -197v-739zM1104 1626q-131 -92 -322 -92q-188 0 -319 92v223q141 -88 319 -88q181 0 322 88v-223z" />
<glyph unicode="&#x41a;" horiz-adv-x="1415" d="M461 0h-307v1434h307v-570h231l363 570h342l-465 -699l491 -735h-340l-391 586h-231v-586z" />
<glyph unicode="&#x41b;" horiz-adv-x="1544" d="M408 1434h983v-1434h-308v1157h-393q-12 -154 -23 -258.5t-30.5 -238.5t-43.5 -222.5t-62.5 -182t-86 -148t-115.5 -90t-151 -35.5q-86 0 -160 26v271q46 -14 99 -11q52 3 92.5 41t69 124t46.5 156t33 214t21 217t17 240q8 117 12 174z" />
<glyph unicode="&#x41c;" horiz-adv-x="1857" d="M1419 1434h285v-1434h-307v883l-379 -576h-178l-379 578v-885h-307v1434h284l492 -746z" />
<glyph unicode="&#x41d;" horiz-adv-x="1564" d="M1104 1434h307v-1434h-307v578h-643v-578h-307v1434h307v-578h643v578z" />
<glyph unicode="&#x41e;" horiz-adv-x="1671" d="M74 717q0 148 48.5 280.5t141 237t240.5 166t332 61.5t332 -61.5t240 -166t140.5 -237t48.5 -280.5q0 -118 -30 -227t-92 -203.5t-151 -165t-214.5 -110.5t-273.5 -40q-184 0 -332 61.5t-240.5 166t-141 237.5t-48.5 281zM1282 717q0 96 -28.5 178.5t-82.5 146 t-140.5 100t-194.5 36.5q-109 0 -196 -36.5t-141.5 -100t-83 -146t-28.5 -178.5t28.5 -178.5t83 -146t141.5 -100t196 -36.5q108 0 194.5 36.5t140.5 100t82.5 146t28.5 178.5z" />
<glyph unicode="&#x41f;" horiz-adv-x="1554" d="M461 0h-307v1434h1247v-1434h-305v1157h-635v-1157z" />
<glyph unicode="&#x420;" horiz-adv-x="1366" d="M154 1434h540q619 0 619 -482q0 -481 -619 -481h-233v-471h-307v1434zM999 952q0 62 -22.5 104.5t-64 65t-90.5 32t-113 9.5h-248v-422h248q63 0 112.5 9.5t91 32.5t64 65.5t22.5 103.5z" />
<glyph unicode="&#x421;" horiz-adv-x="1339" d="M74 700q1 152 44.5 279.5t117 215.5t172.5 149t209 89.5t227 28.5q223 0 409 -92v-293q-69 54 -163.5 83.5t-194.5 29.5q-78 0 -149.5 -17.5t-137 -56t-114 -94.5t-77 -138.5t-28.5 -183.5q-1 -92 27.5 -168t77.5 -128t114.5 -88.5t137.5 -53t149 -16.5q112 0 208.5 30.5 t160.5 88.5v-302q-192 -92 -416 -92q-117 0 -227.5 27.5t-210.5 86t-174 142.5t-118 206t-44 267z" />
<glyph unicode="&#x422;" horiz-adv-x="1239" d="M27 1434h1185v-277h-440v-1157h-305v1157h-440v277z" />
<glyph unicode="&#x423;" horiz-adv-x="1363" d="M850 328q-93 -198 -208 -277.5t-263 -79.5q-91 0 -217 35v260q80 -26 166 -26q78 0 131.5 27.5t89.5 101.5l24 51l-571 1014h340l377 -738l313 738h338z" />
<glyph unicode="&#x424;" horiz-adv-x="1800" d="M1051 -80h-295v180q-327 14 -519 176t-192 441t191.5 440.5t519.5 175.5v180h295v-180q324 -15 514 -177t190 -439t-190 -439.5t-514 -177.5v-180zM352 717q0 -71 22 -131t68 -110t126 -81.5t188 -38.5v721q-108 -7 -188 -38.5t-126 -81.5t-68 -109.5t-22 -130.5z M1051 1077v-721q106 8 184.5 40t124 82t67 109.5t21.5 129.5t-21.5 129.5t-67 109t-124 81.5t-184.5 40z" />
<glyph unicode="&#x425;" horiz-adv-x="1388" d="M346 0h-358l514 743l-484 691h359l317 -471l316 471h360l-483 -691l514 -743h-361l-346 522z" />
<glyph unicode="&#x426;" horiz-adv-x="1646" d="M1585 -311h-270v311h-1161v1434h307v-1158h635v1158h307v-1158h182v-587z" />
<glyph unicode="&#x427;" horiz-adv-x="1427" d="M1274 0h-307v514q-189 -61 -363 -61q-245 2 -384.5 126t-139.5 367v488h307v-478q0 -112 79.5 -167.5t215.5 -55.5q142 0 285 58v643h307v-1434z" />
<glyph unicode="&#x428;" horiz-adv-x="2152" d="M1999 0h-1845v1434h307v-1158h463v1158h307v-1158h463v1158h305v-1434z" />
<glyph unicode="&#x429;" horiz-adv-x="2242" d="M2181 -311h-270l2 311h-1759v1434h307v-1158h463v1158h307v-1158h463v1158h305v-1158h182v-587z" />
<glyph unicode="&#x42a;" horiz-adv-x="1583" d="M913 0h-540v1157h-340v277h647v-471h233q109 -1 198 -15t169 -48.5t134.5 -88.5t86 -137.5t31.5 -192.5q0 -481 -619 -481zM680 692v-422h248q63 0 112.5 9.5t91.5 32.5t64.5 65.5t22.5 103.5t-22.5 103.5t-64.5 65.5t-91.5 32.5t-112.5 9.5h-248z" />
<glyph unicode="&#x42b;" horiz-adv-x="1890" d="M694 0h-540v1434h307v-471h233q109 -1 198 -15t169 -48.5t134.5 -88.5t86 -137.5t31.5 -192.5q0 -481 -619 -481zM461 692v-422h248q63 0 112.5 9.5t91 32.5t64 65.5t22.5 103.5t-22.5 103.5t-64 65.5t-91 32.5t-112.5 9.5h-248zM1737 0h-307v1434h307v-1434z" />
<glyph unicode="&#x42c;" horiz-adv-x="1366" d="M694 0h-540v1434h307v-471h233q109 -1 198 -15t169 -48.5t134.5 -88.5t86 -137.5t31.5 -192.5q0 -481 -619 -481zM461 692v-422h248q63 0 112.5 9.5t91 32.5t64 65.5t22.5 103.5t-22.5 103.5t-64 65.5t-91 32.5t-112.5 9.5h-248z" />
<glyph unicode="&#x42d;" horiz-adv-x="1347" d="M92 1370q186 92 414 92q116 0 225 -28t208 -88.5t172.5 -148t117 -216t43.5 -283.5q0 -124 -30.5 -230.5t-85 -185t-127 -139t-160 -97.5t-180.5 -56t-191 -19q-214 0 -406 92v304q136 -119 361 -119q95 0 175 17t152 54t119.5 105t63.5 162h-648v264h641q-18 92 -65 159 t-115.5 104t-146.5 54.5t-170 18.5q-99 0 -198.5 -28t-168.5 -81v293z" />
<glyph unicode="&#x42e;" horiz-adv-x="2263" d="M2189 717q0 -148 -48.5 -281t-141 -237.5t-240.5 -166t-332 -61.5q-162 0 -296 49t-224 134.5t-145.5 193.5t-73.5 232h-227v-580h-307v1434h307v-578h227q15 99 52.5 187.5t101 165.5t147 133t196 88t242.5 32q184 0 332 -61.5t240.5 -166t141 -237t48.5 -280.5z M981 717q0 -96 28.5 -178.5t83 -146t141.5 -100t196 -36.5q108 0 194.5 36.5t140.5 100t82.5 146t28.5 178.5t-28.5 178.5t-82.5 146t-140.5 100t-194.5 36.5q-109 0 -196 -36.5t-141.5 -100t-83 -146t-28.5 -178.5z" />
<glyph unicode="&#x42f;" horiz-adv-x="1423" d="M385 0h-354l399 526q-147 49 -233 155.5t-86 272.5q0 125 46.5 219.5t128 150t182 83t218.5 27.5h584v-1434h-307v487h-215zM426 954q0 -104 70.5 -157.5t191.5 -53.5h275v420h-275q-121 0 -191.5 -52.5t-70.5 -156.5z" />
<glyph unicode="&#x430;" horiz-adv-x="1153" d="M999 254q0 -66 70 -66q26 0 53 9v-187q-79 -28 -157 -28q-156 0 -217 110q-153 -121 -355 -121q-145 0 -244.5 80.5t-99.5 220.5q0 72 26.5 129.5t69 94t100 60.5t116 34t120.5 10q116 0 234 -27v35q0 76 -60 121t-172 45q-164 0 -348 -74v246q196 66 381 66 q232 0 357.5 -105.5t125.5 -339.5v-313zM547 430q-56 0 -100.5 -12.5t-75.5 -44t-31 -78.5q0 -54 44 -87.5t110 -33.5q128 0 221 80v154q-95 22 -168 22z" />
<glyph unicode="&#x431;" horiz-adv-x="1193" d="M1126 449q0 -115 -39.5 -206.5t-110 -150.5t-165.5 -90t-207 -31t-204.5 34t-165.5 103.5t-113.5 186t-40.5 270.5q0 476 301 666q78 48 163 78t153 42t132 22.5t118.5 31t92.5 57.5v-260q-45 -37 -106.5 -56.5t-116 -24.5t-129 -23t-137.5 -51q-78 -42 -123 -119.5 t-57 -159.5q49 69 130.5 111.5t188.5 42.5q188 0 312 -127t124 -346zM371 446q0 -44 12.5 -86t39 -79t73 -59.5t108.5 -22.5t109 22.5t72.5 60t38 79t12.5 85.5t-12.5 86t-38 79.5t-72.5 60t-109 22.5q-61 0 -108.5 -23.5t-73 -62t-38.5 -79.5t-13 -83z" />
<glyph unicode="&#x432;" horiz-adv-x="1124" d="M723 0h-602v983h586q163 0 243 -75t80 -185q0 -167 -151 -225q82 -27 128 -86t46 -146q0 -116 -78.5 -191t-251.5 -75zM406 408v-213h233q131 0 131 104q0 109 -131 109h-233zM403 788v-208h218q122 0 122 102q0 106 -125 106h-215z" />
<glyph unicode="&#x433;" horiz-adv-x="901" d="M406 0h-285v983h749v-240h-464v-743z" />
<glyph unicode="&#x434;" horiz-adv-x="1335" d="M305 -260h-262v477h137q85 148 117 332.5t27 433.5h809v-766h147v-477h-262v260h-713v-260zM586 766q-6 -177 -31 -304t-80 -245h375v549h-264z" />
<glyph unicode="&#x435;" horiz-adv-x="1116" d="M66 492q0 107 31.5 196t82.5 148t118 99.5t135.5 58.5t137.5 18q99 0 181 -25t137.5 -69t96 -103.5t56 -127.5t18.5 -141.5t-16 -146.5h-692q23 -101 119 -151.5t227 -50.5q163 0 297 59v-223q-146 -62 -360 -62q-118 0 -220.5 34t-180.5 98t-123 164t-45 225zM788 584 q4 28 -3.5 62t-28.5 68.5t-66 57.5t-108 23q-95 0 -162 -56.5t-70 -154.5h438z" />
<glyph unicode="&#x436;" horiz-adv-x="1611" d="M1608 0h-305l-244 367h-111v-367h-284v367h-111l-244 -367h-305l340 494l-311 489h303l235 -391h93v391h284v-391h92l236 391h303l-311 -489z" />
<glyph unicode="&#x437;" horiz-adv-x="997" d="M928 272q0 -47 -17.5 -90t-56 -81.5t-94 -66.5t-137 -44.5t-179.5 -16.5q-221 0 -374 80v228q60 -33 156 -58.5t182 -25.5q229 0 229 110q0 31 -15 51t-44 29.5t-58 12.5t-71 3h-183v189h183q167 0 167 92q0 50 -49 77t-143 27q-82 0 -178 -24t-158 -57v225 q70 37 170 59.5t201 22.5q122 0 212.5 -25t140 -68.5t72.5 -93t23 -106.5q0 -84 -46.5 -139.5t-119.5 -75.5q88 -27 137.5 -87.5t49.5 -146.5z" />
<glyph unicode="&#x438;" horiz-adv-x="1210" d="M369 0h-248v983h285v-553l438 553h246v-983h-283v553z" />
<glyph unicode="&#x439;" horiz-adv-x="1210" d="M920 1184q-134 -82 -314 -82q-179 0 -313 82v213q144 -78 313 -78q170 0 314 78v-213zM369 0h-248v983h285v-553l438 553h246v-983h-283v553z" />
<glyph unicode="&#x43a;" horiz-adv-x="1122" d="M406 0h-285v983h285v-367h118l250 367h320l-338 -485l366 -498h-319l-283 389h-114v-389z" />
<glyph unicode="&#x43b;" horiz-adv-x="1214" d="M557 758q-7 -100 -16 -182.5t-24 -164.5t-35 -145t-48.5 -118.5t-64 -91t-83 -56t-104.5 -20.5q-75 0 -155 28v225q30 -12 59 -12q38 0 68 25t51.5 76t36.5 114t25.5 155t16.5 182t11 210h799v-983h-285v758h-252z" />
<glyph unicode="&#x43c;" horiz-adv-x="1396" d="M397 0h-276v983h272l305 -487l308 487h270v-983h-275v580l-231 -367h-141l-232 367v-580z" />
<glyph unicode="&#x43d;" d="M406 0h-285v983h285v-373h397v373h284v-983h-284v373h-397v-373z" />
<glyph unicode="&#x43e;" horiz-adv-x="1216" d="M66 492q0 125 44.5 225.5t120 164t172.5 97t205 33.5q109 0 206 -33.5t173 -97t120 -164t44 -225.5q0 -101 -29 -186t-79.5 -146t-119.5 -104t-148.5 -64t-166.5 -21q-108 0 -205 33.5t-172.5 97t-120 164.5t-44.5 226zM862 492q0 118 -67 192t-187 74q-118 0 -185 -74 t-67 -192t67 -192.5t185 -74.5q120 0 187 74.5t67 192.5z" />
<glyph unicode="&#x43f;" d="M406 0h-285v983h966v-983h-284v743h-397v-743z" />
<glyph unicode="&#x440;" horiz-adv-x="1273" d="M373 840q52 75 141 123.5t215 48.5q113 0 205.5 -43.5t151.5 -116.5t90.5 -165.5t31.5 -194.5t-31.5 -195t-90.5 -166t-151.5 -116.5t-205.5 -43.5q-203 0 -323 133v-555h-285v1434h252v-143zM918 492q0 119 -70.5 199.5t-188.5 80.5q-89 0 -156.5 -47t-99.5 -117v-233 q32 -70 99.5 -117t156.5 -47q118 0 188.5 81t70.5 200z" />
<glyph unicode="&#x441;" horiz-adv-x="1009" d="M66 477q0 109 31.5 200t85 152.5t125.5 104t150.5 61.5t162.5 19q168 0 303 -72v-250q-115 74 -262 74q-61 0 -114 -15.5t-97 -46.5t-69.5 -85.5t-25.5 -126.5q0 -133 88 -204t213 -71q156 0 277 72v-252q-155 -66 -332 -66q-104 0 -197.5 30.5t-170.5 90.5t-122.5 159.5 t-45.5 225.5z" />
<glyph unicode="&#x442;" horiz-adv-x="974" d="M629 0h-283v743h-313v240h909v-240h-313v-743z" />
<glyph unicode="&#x443;" horiz-adv-x="1153" d="M594 319l244 664h295l-437 -1102q-145 -358 -424 -358q-60 0 -153 22v236q68 -14 117 -14q154 0 233 215l2 4l-465 997h301z" />
<glyph unicode="&#x444;" horiz-adv-x="1531" d="M901 -451h-270v422q-250 9 -409 150t-159 371t159 370.5t409 149.5v422h270v-422q250 -9 408.5 -149.5t158.5 -370.5t-158.5 -371t-408.5 -150v-422zM348 492q0 -116 74 -196t211 -87v565q-137 -7 -211 -86.5t-74 -195.5zM903 774v-565q137 7 211 87t74 196t-74 195.5 t-211 86.5z" />
<glyph unicode="&#x445;" horiz-adv-x="1085" d="M741 983h322l-354 -487l374 -496h-321l-217 301l-219 -301h-322l375 496l-356 487h321l201 -295z" />
<glyph unicode="&#x446;" horiz-adv-x="1282" d="M1225 -260h-262v260h-842v983h285v-743h387v743h284v-750h148v-493z" />
<glyph unicode="&#x447;" horiz-adv-x="1105" d="M985 0h-283v307q-110 -41 -251 -41q-81 0 -149 22t-121 65.5t-83 115t-30 164.5v350h284v-324q0 -83 46 -118t130 -35q103 0 174 31v446h283v-983z" />
<glyph unicode="&#x448;" horiz-adv-x="1667" d="M1546 0h-1425v983h285v-743h286v743h283v-743h289v743h282v-983z" />
<glyph unicode="&#x449;" horiz-adv-x="1751" d="M1694 -260h-262v260h-1311v983h285v-743h286v743h283v-743h289v743h282v-750h148v-493z" />
<glyph unicode="&#x44a;" horiz-adv-x="1243" d="M571 676h230q186 0 291.5 -95.5t105.5 -242.5t-105.5 -242.5t-291.5 -95.5h-512v760h-254v223h536v-307zM571 205h160q84 0 129 35t45 98t-45 98t-129 35h-160v-266z" />
<glyph unicode="&#x44b;" horiz-adv-x="1595" d="M633 0h-512v983h285v-307h227q187 0 292 -95.5t105 -242.5t-105 -242.5t-292 -95.5zM403 471v-266h160q84 0 129 35t45 98t-45 98t-129 35h-160zM1475 0h-285v983h285v-983z" />
<glyph unicode="&#x44c;" horiz-adv-x="1075" d="M633 0h-512v983h285v-307h227q187 0 292 -95.5t105 -242.5t-105 -242.5t-292 -95.5zM403 471v-266h160q84 0 129 35t45 98t-45 98t-129 35h-160z" />
<glyph unicode="&#x44d;" horiz-adv-x="1036" d="M971 473q0 -103 -31.5 -188.5t-84 -142.5t-122.5 -96.5t-143.5 -57t-149.5 -17.5q-114 0 -194 20t-170 66v234q62 -41 143 -63.5t160 -22.5q270 0 307 180h-424v213h424q-22 90 -106 135t-205 45q-72 0 -150.5 -23t-138.5 -63v234q145 86 324 86q86 0 166 -19 t152.5 -61.5t126 -104t85 -152.5t31.5 -202z" />
<glyph unicode="&#x44e;" horiz-adv-x="1712" d="M1647 492q0 -125 -44.5 -226t-120.5 -164.5t-173 -97t-205 -33.5q-189 0 -336 107.5t-184 300.5h-178v-379h-285v983h285v-379h178q37 193 184 300.5t336 107.5q108 0 205 -33.5t173 -97t120.5 -164t44.5 -225.5zM852 492q0 -121 65 -200t187 -79t188 79t66 200 q0 120 -66 199t-188 79t-187 -78.5t-65 -199.5z" />
<glyph unicode="&#x44f;" horiz-adv-x="1138" d="M354 0h-319l258 330q-97 42 -149 124.5t-52 184.5q0 146 104 245t289 99h533v-983h-285v293h-160zM381 631q0 -60 42.5 -92.5t119.5 -32.5h190v252h-190q-77 0 -119.5 -33t-42.5 -94z" />
<glyph unicode="&#x451;" horiz-adv-x="1116" d="M944 1255q0 -63 -44 -107t-107 -44q-64 0 -109 44t-45 107t45 108.5t109 45.5q63 0 107 -45.5t44 -108.5zM506 1255q0 -63 -44.5 -107t-107.5 -44t-108 44t-45 107t45 108.5t108 45.5t107.5 -45.5t44.5 -108.5zM66 492q0 107 31.5 196t82.5 148t118 99.5t135.5 58.5 t137.5 18q99 0 181 -25t137.5 -69t96 -103.5t56 -127.5t18.5 -141.5t-16 -146.5h-692q23 -101 119 -151.5t227 -50.5q163 0 297 59v-223q-146 -62 -360 -62q-118 0 -220.5 34t-180.5 98t-123 164t-45 225zM788 584q4 28 -3.5 62t-28.5 68.5t-66 57.5t-108 23 q-95 0 -162 -56.5t-70 -154.5h438z" />
<glyph unicode="&#x2000;" horiz-adv-x="997" />
<glyph unicode="&#x2001;" horiz-adv-x="1995" />
<glyph unicode="&#x2002;" horiz-adv-x="997" />
<glyph unicode="&#x2003;" horiz-adv-x="1995" />
<glyph unicode="&#x2004;" horiz-adv-x="665" />
<glyph unicode="&#x2005;" horiz-adv-x="498" />
<glyph unicode="&#x2006;" horiz-adv-x="332" />
<glyph unicode="&#x2007;" horiz-adv-x="332" />
<glyph unicode="&#x2008;" horiz-adv-x="249" />
<glyph unicode="&#x2009;" horiz-adv-x="399" />
<glyph unicode="&#x200a;" horiz-adv-x="110" />
<glyph unicode="&#x2010;" horiz-adv-x="987" d="M113 618h761v-239h-761v239z" />
<glyph unicode="&#x2011;" horiz-adv-x="987" d="M113 618h761v-239h-761v239z" />
<glyph unicode="&#x2012;" horiz-adv-x="987" d="M113 618h761v-239h-761v239z" />
<glyph unicode="&#x2013;" horiz-adv-x="1183" d="M1071 379h-958v239h958v-239z" />
<glyph unicode="&#x2014;" horiz-adv-x="1585" d="M1473 379h-1360v239h1360v-239z" />
<glyph unicode="&#x2018;" horiz-adv-x="540" d="M358 883h-301l201 551h229z" />
<glyph unicode="&#x2019;" horiz-adv-x="530" d="M301 883h-229l129 551h301z" />
<glyph unicode="&#x201a;" horiz-adv-x="536" d="M242 -297h-230l129 551h301z" />
<glyph unicode="&#x201c;" horiz-adv-x="933" d="M752 883h-301l200 551h230zM358 883h-301l201 551h229z" />
<glyph unicode="&#x201d;" horiz-adv-x="923" d="M694 883h-229l129 551h301zM301 883h-229l129 551h301z" />
<glyph unicode="&#x201e;" horiz-adv-x="929" d="M635 -297h-229l129 551h301zM242 -297h-230l129 551h301z" />
<glyph unicode="&#x2026;" horiz-adv-x="1513" d="M1432 141q0 -82 -49 -125t-123 -43t-124.5 43t-50.5 125t50.5 125t124.5 43t123 -43t49 -125zM428 141q0 -82 -49 -125t-123 -43t-124 43t-50 125t50 125t124 43t123 -43t49 -125zM930 141q0 -82 -49 -125t-123 -43t-124 43t-50 125t50 125t124 43t123 -43t49 -125z" />
<glyph unicode="&#x202f;" horiz-adv-x="399" />
<glyph unicode="&#x2039;" horiz-adv-x="677" d="M610 94h-286l-265 371v53l265 371h286l-278 -397z" />
<glyph unicode="&#x203a;" horiz-adv-x="677" d="M354 94h-286l278 398l-278 397h286l264 -371v-53z" />
<glyph unicode="&#x205f;" horiz-adv-x="498" />
<glyph unicode="&#x20ac;" horiz-adv-x="1488" d="M1380 63q-192 -92 -407 -92q-162 0 -305 52t-256.5 166t-159.5 276h-182v182h151v49v49h-151v183h182q36 121 108.5 216.5t169 155t208 90.5t231.5 31q225 0 411 -92v-293q-70 54 -164.5 83.5t-193.5 29.5q-137 0 -251 -56.5t-173 -164.5h516v-183h-577q-2 -16 -2 -49 t2 -49h577v-182h-518q59 -108 173.5 -163.5t250.5 -55.5q105 0 200 31t160 88v-302z" />
<glyph unicode="&#x2122;" horiz-adv-x="1394" d="M780 905h-159v529h145l174 -242l176 242h146v-529h-160v289l-119 -166h-84l-119 166v-289zM393 905h-157v385h-158v144h473v-144h-158v-385z" />
<glyph unicode="&#x25fc;" horiz-adv-x="983" d="M0 983h983v-983h-983v983z" />
</font>
</defs>
</svg>
