<?xml version="1.0" standalone="no"?>
<!DOCTYPE svg PUBLIC "-//W3C//DTD SVG 1.1//EN" "http://www.w3.org/Graphics/SVG/1.1/DTD/svg11.dtd" >
<svg xmlns="http://www.w3.org/2000/svg" xmlns:xlink="http://www.w3.org/1999/xlink" version="1.1">
<metadata></metadata>
<defs>
<font id="mullerultralight_italic" horiz-adv-x="1259" >
<font-face units-per-em="2048" ascent="1597" descent="-451" />
<missing-glyph horiz-adv-x="542" />
<glyph horiz-adv-x="0" />
<glyph horiz-adv-x="682" />
<glyph unicode=" "  horiz-adv-x="542" />
<glyph unicode="&#x09;" horiz-adv-x="542" />
<glyph unicode="&#xa0;" horiz-adv-x="542" />
<glyph unicode="!" horiz-adv-x="417" d="M209 362h-70l164 1072h82zM186 39q-6 -24 -23.5 -38.5t-41.5 -14.5q-27 0 -43 17.5t-12 47.5q4 24 22 38.5t41 14.5q28 0 44 -17.5t13 -47.5z" />
<glyph unicode="&#x22;" horiz-adv-x="546" d="M481 1139h-55l47 295h78zM276 1139h-55l47 295h78z" />
<glyph unicode="#" horiz-adv-x="1329" d="M162 0h-80l149 379h-182l12 70h199l197 497h-215l10 70h231l150 379h78l-148 -379h490l149 379h80l-149 -379h178l-11 -70h-194l-197 -497h211l-12 -70h-227l-150 -379h-80l150 379h-490zM537 946l-197 -497h489l195 497h-487z" />
<glyph unicode="$" horiz-adv-x="1167" d="M494 -266h-70l39 246q-259 16 -428 118l12 80q95 -59 218 -91t247 -32q65 0 124.5 8.5t116 29.5t100 52t73.5 79t39 108t-8.5 109.5t-56 82.5t-91.5 62t-114 50t-125.5 45t-125.5 46.5t-113 56.5t-88.5 73.5t-52.5 97t-4 128.5q13 80 62.5 144t121 103t153.5 60t167 23 l37 246h70l-37 -246q205 -13 346 -100l-12 -76q-76 47 -182 73.5t-214 26.5q-72 0 -141 -15.5t-130.5 -45.5t-104.5 -82t-54 -119q-11 -66 11 -118.5t68 -88t108.5 -64t133.5 -53t141.5 -49.5t133 -58t108 -74.5t66.5 -103.5t9 -140q-11 -73 -46.5 -132t-85 -98t-113.5 -66 t-131 -39.5t-139 -13.5z" />
<glyph unicode="%" horiz-adv-x="1798" d="M408 -123h-82l1104 1679h81zM780 1147q-21 -139 -122 -216t-228 -77q-59 0 -112 20.5t-92 58.5t-57 98t-7 132q22 139 124 216t230 77q126 0 206.5 -83.5t57.5 -225.5zM236 1157q-17 -103 40.5 -168t155.5 -65q105 0 183 61t96 168q15 103 -43 168t-154 65 q-106 0 -183.5 -61t-94.5 -168zM1675 270q-15 -93 -70 -161.5t-127 -100t-153 -31.5q-60 0 -113.5 21t-92.5 59t-57 98t-7 132q22 139 123.5 216t230.5 77q124 0 206 -84.5t60 -225.5zM1128 281q-17 -103 41 -168.5t156 -65.5q105 0 183 61t96 168q15 103 -43 168.5 t-154 65.5q-106 0 -184 -61t-95 -168z" />
<glyph unicode="&#x26;" horiz-adv-x="1394" d="M1065 231l221 -231h-96l-174 182q-218 -205 -533 -205q-215 0 -327 104.5t-88 260.5q11 71 49.5 134.5t99 116t118 90t132.5 77.5q-172 194 -143 362q23 139 149.5 236.5t306.5 97.5q154 0 248.5 -83.5t73.5 -211.5q-5 -33 -18 -63.5t-36.5 -59t-46 -52t-60 -49.5 t-64 -44t-73.5 -43t-72.5 -38t-76 -38t-71.5 -35l430 -452q144 159 172 362h80q-38 -240 -201 -418zM780 1380q-161 0 -262 -79t-119 -193q-21 -137 133 -313q19 9 60.5 29t64.5 31t62.5 31.5t63.5 34t58 35t55.5 38.5t46 39t39.5 42.5t26.5 45t15.5 48.5q15 93 -56 152 t-188 59zM147 336q-19 -123 74.5 -203t272.5 -80q271 0 471 183l-447 469q-72 -37 -125.5 -71t-109.5 -80t-91 -101t-45 -117z" />
<glyph unicode="'" horiz-adv-x="342" d="M276 1139h-55l47 295h78z" />
<glyph unicode="(" horiz-adv-x="526" d="M567 1655h80q-168 -196 -286 -446.5t-158 -497.5q-38 -243 1 -491.5t146 -440.5h-78q-108 199 -150 448.5t-3 495.5q38 242 157.5 489t290.5 443z" />
<glyph unicode=")" horiz-adv-x="528" d="M215 1655h76q108 -200 151 -449.5t4 -494.5q-38 -241 -158 -488t-290 -444h-82q168 196 286 446.5t158 497.5q38 243 -0.5 491.5t-144.5 440.5z" />
<glyph unicode="*" horiz-adv-x="872" d="M512 1073l-209 -242l-53 43l213 232l-260 84l35 67l256 -98l36 275h72l-51 -275l287 98l14 -69l-289 -82l142 -232l-66 -43z" />
<glyph unicode="+" horiz-adv-x="1089" d="M608 754h404l-13 -74h-403l-64 -404h-75l65 404h-403l10 74h403l66 403h74z" />
<glyph unicode="," horiz-adv-x="417" d="M12 -295h-65l176 447h82z" />
<glyph unicode="-" horiz-adv-x="993" d="M131 537h711l-11 -74h-710z" />
<glyph unicode="." horiz-adv-x="399" d="M182 41q-4 -26 -22.5 -40.5t-42.5 -14.5q-29 0 -45.5 18t-10.5 47q3 25 22 40t44 15q28 0 43.5 -17.5t11.5 -47.5z" />
<glyph unicode="/" horiz-adv-x="845" d="M37 -117h-64l873 1667h63z" />
<glyph unicode="0" horiz-adv-x="1441" d="M135 709q25 157 82.5 285t145 222.5t211 146.5t272.5 52q120 0 213.5 -35.5t154 -100.5t97 -156t41.5 -201.5t-13 -237.5q-26 -157 -83.5 -285.5t-145 -223t-211 -146.5t-272.5 -52q-120 0 -213.5 36t-154 101t-97 156t-41 201.5t13.5 237.5zM1260 692q25 143 9.5 261.5 t-63.5 204t-140.5 132.5t-221.5 47q-261 0 -420.5 -168.5t-206.5 -468.5q-31 -194 1 -336.5t136.5 -225.5t276.5 -83q262 0 422 168.5t207 468.5z" />
<glyph unicode="1" horiz-adv-x="827" d="M578 1393h57l-207 -1315h283l-13 -78h-680l13 78h315l195 1227l-334 -119l12 78z" />
<glyph unicode="2" horiz-adv-x="1148" d="M258 1288q213 127 442 127q128 0 224 -41.5t144.5 -122.5t31.5 -188q-11 -69 -43 -129.5t-71.5 -105t-105 -91.5t-118.5 -78t-137 -75q-183 -98 -227 -125q-170 -107 -240 -232q-37 -68 -52 -149h855l-13 -78h-942l8 47q15 98 57 181.5t87.5 138.5t127.5 113t136.5 88 t155.5 81q79 39 126.5 65t110 68t99 81t66.5 93.5t40 116.5q20 122 -70 194t-258 72q-216 0 -446 -137z" />
<glyph unicode="3" horiz-adv-x="1200" d="M1100 1038q-18 -111 -99.5 -199t-212.5 -116q62 -12 113.5 -39.5t90.5 -70t55.5 -106.5t3.5 -142q-30 -184 -180.5 -286t-366.5 -102q-277 0 -461 93l10 75q186 -92 449 -92q191 0 318 84t153 240q13 79 -9.5 139t-73.5 95.5t-120 53t-154 17.5h-204l14 76h192 q176 -1 279.5 82t122.5 204q21 126 -68 210.5t-260 84.5q-214 0 -442 -96l12 82q210 90 443 90q197 0 308 -109t87 -268z" />
<glyph unicode="4" horiz-adv-x="1306" d="M989 1393h90l-155 -977h288l-10 -78h-289l-55 -338h-80l53 338h-813l11 72zM842 416l139 864l-848 -864h709z" />
<glyph unicode="5" horiz-adv-x="1183" d="M334 1393h801l-13 -78h-723l-123 -547q158 47 318 47q80 0 152 -15t134 -48t104 -81.5t60.5 -121t4.5 -160.5q-30 -187 -189 -299.5t-381 -112.5q-120 0 -234.5 26t-197.5 71l10 73q177 -94 418 -94q197 0 332 94t160 252q11 72 -4 130t-50 97t-89.5 64.5t-118 37 t-138.5 11.5q-197 0 -389 -67z" />
<glyph unicode="6" horiz-adv-x="1245" d="M1143 1264q-122 73 -285 73q-122 0 -224 -38t-188 -118t-147 -214.5t-90 -317.5q0 -6 -2 -8q250 205 520 205q88 0 165.5 -27t136.5 -78.5t86 -136t11 -190.5q-33 -204 -185 -320.5t-355 -116.5q-272 0 -389.5 184t-67.5 503q32 195 99.5 341t163.5 234.5t212.5 132 t253.5 43.5q166 0 297 -78zM1044 420q14 91 -7 160t-69.5 109.5t-113.5 60.5t-145 20q-132 0 -267.5 -58.5t-244.5 -162.5q-17 -239 82 -367.5t305 -128.5q176 0 304 96t156 271z" />
<glyph unicode="7" horiz-adv-x="1058" d="M188 1393h951l-13 -70l-841 -1323h-90l837 1315h-856z" />
<glyph unicode="8" horiz-adv-x="1316" d="M1163 326q-11 -68 -53.5 -130t-112.5 -111t-175.5 -78.5t-231.5 -29.5q-136 0 -241 34t-166 92t-86.5 133t-12.5 159q17 114 102.5 212.5t229.5 168.5q-96 51 -143 123t-29 180q10 65 48.5 123.5t103 107t163.5 77t219 28.5q115 0 207 -34t146 -89t78.5 -124t13.5 -140 q-28 -206 -285 -360q261 -113 225 -342zM164 393q-23 -147 90.5 -243.5t341.5 -96.5q204 0 334.5 82.5t150.5 202.5q9 62 -10.5 112t-46 80t-94 61t-105 43t-128.5 38q-9 3 -13 4q-132 38 -199 63q-136 -59 -219 -148.5t-102 -197.5zM684 750q104 -28 182 -52 q245 140 277 332q19 123 -78.5 216t-288.5 93q-193 0 -313.5 -77.5t-136.5 -188.5q-12 -72 10.5 -126t87 -92t105.5 -54t130 -43q17 -5 25 -8z" />
<glyph unicode="9" horiz-adv-x="1247" d="M152 979q33 204 185 320t355 116q271 0 389 -183.5t68 -502.5q-32 -195 -99.5 -341t-163.5 -235t-212.5 -132.5t-253.5 -43.5q-166 0 -297 78l12 76q119 -76 285 -76q122 0 224 38t188 119t147 217t90 321q-247 -203 -518 -203q-90 0 -167.5 27t-136 78.5t-85 136 t-10.5 190.5zM694 1339q-177 0 -305 -95t-156 -271q-14 -91 7 -160t70 -109.5t114 -60.5t145 -20q132 0 266.5 58.5t243.5 162.5q20 237 -78.5 366t-306.5 129z" />
<glyph unicode=":" horiz-adv-x="411" d="M301 817q-3 -25 -21 -39t-44 -14q-27 0 -43.5 17.5t-12.5 47.5q4 25 23 39.5t43 14.5q28 0 43.5 -18t11.5 -48zM180 41q-4 -26 -23 -40.5t-44 -14.5q-27 0 -43.5 18.5t-10.5 46.5q3 25 22 40t42 15q30 0 45.5 -17.5t11.5 -47.5z" />
<glyph unicode=";" horiz-adv-x="598" d="M94 -295h-65l176 447h82zM403 903q-3 -26 -21 -40.5t-44 -14.5q-27 0 -43 17.5t-12 47.5q3 25 22.5 40.5t42.5 15.5q29 0 44 -17.5t11 -48.5z" />
<glyph unicode="&#x3c;" horiz-adv-x="989" d="M805 428l-12 -78l-689 328l13 80l790 325l-10 -79l-707 -287z" />
<glyph unicode="=" horiz-adv-x="1118" d="M1004 864h-814l13 76h813zM946 494h-813l10 75h815z" />
<glyph unicode="&#x3e;" horiz-adv-x="985" d="M905 676l-790 -326l12 80l707 287l-615 289l10 77l691 -327z" />
<glyph unicode="?" horiz-adv-x="1003" d="M483 393h-77q11 80 64.5 159t122.5 145t138.5 131.5t123 142t65.5 151.5q20 123 -68.5 189.5t-259.5 66.5q-202 0 -408 -116l13 81q203 113 409 113q195 0 307.5 -90.5t85.5 -247.5q-9 -60 -40.5 -119t-75 -109.5t-94.5 -100t-101.5 -97.5t-93.5 -94.5t-73.5 -99.5 t-37.5 -105zM451 41q-4 -25 -23 -40t-43 -15q-28 0 -44.5 18t-10.5 47q3 25 22 40t43 15q29 0 44.5 -17.5t11.5 -47.5z" />
<glyph unicode="@" horiz-adv-x="2164" d="M88 512q23 148 87 287t167 258t234.5 208t301 140t355.5 51q90 0 173.5 -14.5t153 -41t132 -63.5t111.5 -82.5t91.5 -98t71 -110t50.5 -118.5t30.5 -123t10.5 -124t-9 -122q-21 -134 -65 -238.5t-104.5 -170t-132 -99t-151.5 -33.5q-126 0 -193.5 66.5t-60.5 189.5 q-64 -97 -163 -152.5t-213 -55.5q-169 0 -267.5 119.5t-68.5 306.5q29 185 159.5 301t301.5 116q114 0 195.5 -59t115.5 -154l31 195h75l-92 -578q-15 -108 30 -166.5t152 -58.5q136 0 236 126.5t135 356.5q13 68 7.5 138.5t-20.5 140t-49 136t-78 125t-106.5 107.5 t-135 84.5t-164 55.5t-193.5 20q-215 0 -403.5 -72t-322 -194t-220.5 -279.5t-115 -332.5q-23 -141 -6 -262.5t66 -221t126 -176t175.5 -129t213.5 -79.5t240 -27q250 0 471 76l-12 -82q-212 -72 -463 -72q-163 0 -310 41.5t-266 125t-199.5 200t-112.5 276t-3 342.5z M1384 596q-16 103 -93 171.5t-195 68.5q-145 0 -255 -95.5t-136 -255.5q-24 -155 53.5 -250.5t216.5 -95.5q121 0 224 70.5t151 173.5z" />
<glyph unicode="A" horiz-adv-x="1454" d="M1329 0h-84l-123 418h-839l-254 -418h-92l876 1434h94zM829 1313l-501 -819h776l-242 821q-7 22 -10 41q-11 -22 -23 -43z" />
<glyph unicode="B" horiz-adv-x="1392" d="M342 1434h532q102 0 185 -22.5t142.5 -66t85.5 -115t11 -163.5q-22 -136 -111.5 -213.5t-217.5 -99.5q46 -9 86.5 -24t82.5 -44.5t69 -69t40 -100.5t2 -135q-63 -381 -608 -381h-526zM1169 399q12 78 -8.5 137t-58 91.5t-93 52.5t-102.5 25.5t-98 5.5h-500l-100 -633h428 q51 0 93 2.5t94.5 10t94.5 21t85.5 38t75 57.5t55.5 82t34 110zM1217 1071q24 148 -73 216.5t-286 68.5h-448l-91 -568h515q69 0 130 16t114.5 48.5t90 88.5t48.5 130z" />
<glyph unicode="C" horiz-adv-x="1327" d="M127 735q18 117 64.5 220t111.5 181t145.5 139.5t169.5 100.5t180.5 59.5t180.5 20.5q219 0 377 -100l-13 -78q-142 100 -358 100q-100 0 -199.5 -25t-194.5 -78t-172.5 -129t-134 -185t-77.5 -238q-23 -136 -0.5 -243.5t75.5 -187.5t132 -132.5t169.5 -78.5t188.5 -26 q217 0 404 105l-13 -86q-186 -97 -409 -97q-107 0 -208 30.5t-188.5 91t-147 151.5t-84 212t0.5 273z" />
<glyph unicode="D" horiz-adv-x="1499" d="M342 1434h416q125 0 230 -24.5t181 -70.5t131.5 -110.5t83.5 -145t37 -174.5t-10 -198q-24 -156 -90 -284.5t-172.5 -224.5t-262 -149t-347.5 -53h-424zM1331 723q26 141 0 257.5t-93.5 200t-191 129.5t-292.5 46h-344l-201 -1278h340q169 0 307 46.5t234.5 132.5 t157.5 203.5t83 262.5z" />
<glyph unicode="E" horiz-adv-x="1277" d="M342 1434h940l-12 -78h-860l-93 -596h797l-12 -78h-797l-96 -604h872l-14 -78h-952z" />
<glyph unicode="F" horiz-adv-x="1230" d="M342 1434h944l-14 -78h-862l-97 -615h803l-12 -77h-803l-104 -664h-82z" />
<glyph unicode="G" horiz-adv-x="1456" d="M129 743q24 147 88 268.5t150.5 202.5t194 136.5t216.5 80.5t219 25q231 0 406 -96l-12 -78q-72 46 -175 71t-212 25q-103 0 -202.5 -21.5t-198 -71t-177 -122.5t-137 -184.5t-80.5 -247.5q-21 -137 1 -251.5t77.5 -191.5t137 -130.5t175 -78t195.5 -24.5q198 0 372 80 l97 617h84l-109 -678q-221 -97 -451 -97q-114 0 -219.5 28t-197 89t-154 149t-87.5 217t-1 283z" />
<glyph unicode="H" horiz-adv-x="1570" d="M1415 1434h80l-227 -1434h-80l106 682h-991l-106 -682h-82l227 1434h82l-107 -674h992z" />
<glyph unicode="I" horiz-adv-x="499" d="M342 1434h82l-227 -1434h-82z" />
<glyph unicode="J" horiz-adv-x="1069" d="M467 1434h541l-164 -1045q-33 -207 -166.5 -308t-339.5 -101q-223 0 -356 88l12 79q131 -90 334 -90q182 0 294.5 83t139.5 257l153 959h-462z" />
<glyph unicode="K" horiz-adv-x="1341" d="M1319 1434h94l-620 -703l446 -731h-88l-428 696h-418l-108 -696h-82l227 1434h82l-105 -660h414z" />
<glyph unicode="L" horiz-adv-x="1165" d="M342 1434h82l-215 -1356h856l-12 -78h-938z" />
<glyph unicode="M" horiz-adv-x="1845" d="M1692 1434h77l-227 -1434h-80l203 1282l-743 -895h-56l-465 897l-204 -1284h-82l227 1434h70l491 -951z" />
<glyph unicode="N" horiz-adv-x="1570" d="M197 0h-82l227 1434h68l800 -1301q2 24 7.5 60.5t7.5 50.5l190 1190h80l-227 -1434h-66l-801 1303q-2 -14 -8 -52.5t-8 -58.5z" />
<glyph unicode="O" horiz-adv-x="1687" d="M1604 711q-17 -109 -62.5 -214t-121.5 -199t-173 -165.5t-226 -113.5t-273 -42q-101 0 -189.5 22.5t-155.5 62t-122 95t-88.5 121t-56 139.5t-24 151t8.5 155q17 109 63.5 214t122.5 199t173.5 165t225.5 113t269 42q101 0 189.5 -22.5t155.5 -62t122 -94.5t89 -120.5 t56.5 -139.5t24 -151t-7.5 -155zM201 715q-8 -68 -8 -135.5t18.5 -132.5t47 -123t76.5 -107.5t107 -85.5t138.5 -56t171.5 -20q159 0 297.5 57.5t234 152.5t157 212t81.5 242q8 68 8 135t-18.5 132.5t-47 123.5t-76.5 107t-107 85t-138.5 56t-171.5 20q-160 0 -298.5 -57.5 t-234 -152.5t-156.5 -211.5t-81 -241.5z" />
<glyph unicode="P" horiz-adv-x="1343" d="M342 1434h457q97 0 178.5 -13t155 -46t121 -83.5t68 -130.5t3.5 -182q-71 -444 -668 -444h-376l-84 -535h-82zM1245 989q14 85 -3.5 150t-57 105.5t-102 66t-131.5 35.5t-152 10h-389l-117 -744h377q517 0 575 377z" />
<glyph unicode="Q" horiz-adv-x="1687" d="M1483 -68l-60 -51l-198 238q-216 -142 -477 -142q-101 0 -189.5 22.5t-155.5 62t-122 95t-88.5 121t-56 139.5t-24 151t8.5 155q17 109 63.5 214t122.5 199t173.5 165t225.5 113t269 42q101 0 189.5 -22.5t155.5 -62t122 -94.5t89 -120.5t56.5 -139.5t24 -151t-7.5 -155 q-26 -155 -107.5 -299.5t-210.5 -247.5zM201 715q-8 -68 -8 -135.5t18.5 -132.5t47 -123t76.5 -107.5t107 -85.5t138.5 -56t171.5 -20q230 0 422 125l-263 309l58 50l266 -316q116 93 190.5 224.5t96.5 271.5q8 68 8 135t-18.5 132.5t-47 123.5t-76.5 107t-107 85t-138.5 56 t-171.5 20q-160 0 -298.5 -57.5t-234 -152.5t-156.5 -211.5t-81 -241.5z" />
<glyph unicode="R" horiz-adv-x="1404" d="M197 0h-82l227 1434h537q76 0 145.5 -13.5t133 -46t106.5 -80t62 -121.5t5 -165q-16 -101 -65.5 -179t-121 -125t-150.5 -73t-167 -33l437 -598h-97l-432 592h-446zM410 1356l-107 -686h465q82 0 157 18t144 57t117 109t63 164q15 92 -11 160.5t-83.5 106t-126 54.5 t-149.5 17h-469z" />
<glyph unicode="S" horiz-adv-x="1165" d="M197 1116q14 88 65.5 155.5t125.5 106.5t157.5 58.5t171.5 19.5q232 0 397 -104l-10 -78q-153 104 -387 104q-79 0 -149.5 -14.5t-132 -45t-103 -84.5t-53.5 -126q-11 -68 10.5 -121.5t67 -89.5t107 -65.5t131 -55t139 -52t130.5 -62t105.5 -79t65 -109.5t7.5 -148 q-14 -93 -64 -162.5t-125 -109t-160.5 -58.5t-182.5 -19q-132 0 -258 32.5t-219 88.5l12 80q197 -123 463 -123q86 0 159.5 14.5t137 45t104.5 85.5t52 130q11 72 -10.5 129t-66.5 95t-106.5 69.5t-131 57t-139 51.5t-130.5 60t-106 76t-65.5 105.5t-8.5 142.5z" />
<glyph unicode="T" horiz-adv-x="1208" d="M156 1434h1161l-14 -78h-539l-215 -1356h-80l213 1356h-539z" />
<glyph unicode="U" horiz-adv-x="1540" d="M1399 1434h82l-148 -936q-18 -114 -61 -203.5t-102.5 -148.5t-138.5 -97.5t-164.5 -55t-184.5 -16.5t-181 17.5t-152 56t-112 100t-60.5 149.5t1.5 204l148 930h82l-148 -932q-71 -447 420 -447q501 0 573 451z" />
<glyph unicode="V" horiz-adv-x="1392" d="M643 0h-82l-391 1434h84l360 -1342l785 1342h92z" />
<glyph unicode="W" horiz-adv-x="2025" d="M2025 1434h86l-677 -1434h-93l-213 1278l-622 -1278h-94l-230 1434h82l211 -1328l641 1315h68l219 -1304z" />
<glyph unicode="X" d="M25 0h-103l684 741l-422 693h90l388 -633l585 633h103l-650 -703l445 -731h-88l-410 672z" />
<glyph unicode="Y" horiz-adv-x="1292" d="M592 0h-80l90 571l-426 863h86l389 -783l639 783h94l-700 -863z" />
<glyph unicode="Z" horiz-adv-x="1169" d="M1016 0h-1057l10 72l1139 1284h-899l12 78h1004l-13 -72l-1138 -1284h954z" />
<glyph unicode="[" horiz-adv-x="507" d="M334 -225h-307l297 1884h307l-10 -78h-228l-274 -1728h227z" />
<glyph unicode="\" horiz-adv-x="831" d="M639 -117h-61l-345 1667h60z" />
<glyph unicode="]" horiz-adv-x="505" d="M221 -225h-307l10 78h230l272 1728h-225l10 78h307z" />
<glyph unicode="^" horiz-adv-x="1009" d="M238 815h-91l461 619h70l264 -619h-84l-225 533z" />
<glyph unicode="_" horiz-adv-x="888" d="M752 -270h-889l12 73h889z" />
<glyph unicode="`" horiz-adv-x="348" d="M512 1589h-82l-149 281h94z" />
<glyph unicode="a" d="M965 231q-81 -114 -204 -184t-269 -70q-212 0 -330 147.5t-82 379.5q36 224 197 363t368 139q142 0 248 -74t151 -187l39 238h72l-156 -983h-71zM156 496q-21 -133 18.5 -235t125 -156t202.5 -54q149 0 277 84.5t196 210.5l45 291q-24 126 -125.5 210.5t-245.5 84.5 q-181 0 -320.5 -117t-172.5 -319z" />
<glyph unicode="b" horiz-adv-x="1257" d="M299 1434h78l-109 -678q77 110 202 180t265 70q99 0 183 -39t141 -107t81 -167t5 -214q-35 -227 -191 -364.5t-372 -137.5q-147 0 -250 73t-150 192l-39 -242h-71zM1069 487q31 198 -71.5 321.5t-274.5 123.5q-149 0 -277 -85t-196 -214l-47 -285q27 -129 126 -213 t246 -84q190 0 325.5 115.5t168.5 320.5z" />
<glyph unicode="c" horiz-adv-x="1009" d="M80 500q16 104 60.5 190t105 143.5t135.5 97t151 57.5t152 18q169 0 287 -84l-13 -74q-103 84 -268 84q-86 0 -170 -25.5t-160 -77t-131 -139.5t-73 -201q-17 -108 6 -193.5t77 -137.5t129 -79.5t164 -27.5q173 0 322 82l-10 -80q-149 -76 -324 -76q-101 0 -188 32.5 t-151.5 95.5t-92.5 165t-8 230z" />
<glyph unicode="d" d="M1149 1434h78l-228 -1434h-71l39 238q-79 -118 -203 -189.5t-272 -71.5q-209 0 -328.5 148t-83.5 379q24 150 105 265t199.5 176t256.5 61q148 0 252.5 -73.5t144.5 -187.5zM1022 635q-26 128 -126 212.5t-247 84.5q-184 0 -322 -116.5t-171 -319.5q-16 -99 3.5 -183 t67 -141t118.5 -89t157 -32q149 0 277 85t196 214z" />
<glyph unicode="e" horiz-adv-x="1116" d="M78 496q19 120 74 218.5t131.5 161t166.5 96.5t183 34q103 0 182 -34.5t124 -91.5t67.5 -129.5t19 -150t-28.5 -151.5h-845q-10 -83 7.5 -150.5t55.5 -113t93 -76.5t116.5 -44.5t128.5 -13.5q185 0 338 80l-12 -80q-145 -74 -336 -74q-79 0 -153 19t-138.5 60.5t-109 101 t-63 147t-1.5 191.5zM938 518q12 45 13.5 91.5t-7.5 93t-33 87.5t-60 73t-92 50.5t-126 18.5q-168 0 -302 -110.5t-171 -303.5h778z" />
<glyph unicode="f" horiz-adv-x="735" d="M309 1151q13 82 49 143t87.5 95.5t109.5 50.5t125 16q131 0 227 -49l-12 -72q-83 47 -207 47q-263 0 -301 -239l-27 -160h420l-10 -74h-420l-145 -909h-78l145 909h-172l11 74h172z" />
<glyph unicode="g" d="M999 -2q-20 -125 -76.5 -218.5t-137.5 -147.5t-173.5 -79.5t-195.5 -25.5q-222 0 -371 98l12 74q146 -98 353 -98q93 0 174.5 22t152.5 67.5t119.5 125t65.5 186.5l36 223q-76 -109 -199 -178.5t-267 -69.5q-213 0 -330.5 147.5t-81.5 379.5q36 225 195.5 363.5 t369.5 138.5q148 0 250 -73.5t149 -195.5l37 246h74zM156 496q-32 -199 67 -322t279 -123q149 0 277 83.5t196 209.5l47 293q-26 127 -126 211t-247 84q-183 0 -321.5 -116.5t-171.5 -319.5z" />
<glyph unicode="h" horiz-adv-x="1183" d="M299 1434h78l-105 -650q80 91 193 156.5t242 65.5q168 0 260 -110.5t63 -293.5l-96 -602h-78l96 600q25 157 -49.5 244.5t-212.5 87.5q-129 0 -244.5 -74t-189.5 -176l-106 -682h-78z" />
<glyph unicode="i" horiz-adv-x="425" d="M158 0h-78l156 983h77zM379 1264q-4 -25 -22.5 -38.5t-41.5 -13.5q-26 0 -40.5 17t-10.5 45q3 25 20.5 38t41.5 13q26 0 41 -15.5t12 -45.5z" />
<glyph unicode="j" horiz-adv-x="425" d="M121 -227q-10 -68 -37.5 -117.5t-67 -76.5t-83.5 -39.5t-95 -12.5q-76 0 -145 27l10 69q58 -22 123 -22q189 0 221 188l189 1194h77zM377 1264q-4 -25 -22.5 -38.5t-41.5 -13.5q-26 0 -40.5 17t-10.5 45q3 25 20.5 38t41.5 13q26 0 41 -15.5t12 -45.5z" />
<glyph unicode="k" horiz-adv-x="1015" d="M926 983h92l-475 -477l370 -506h-88l-352 477h-248l-75 -477h-78l227 1434h78l-141 -883h256z" />
<glyph unicode="l" horiz-adv-x="425" d="M317 1495h78l-237 -1495h-78z" />
<glyph unicode="m" horiz-adv-x="1828" d="M965 795q83 88 189.5 149.5t223.5 61.5q161 0 243.5 -106t57.5 -271l-100 -629h-78l101 633q22 132 -41.5 215.5t-192.5 83.5q-114 0 -215 -63.5t-174 -151.5q3 -37 -4 -88l-101 -629h-77l100 633q22 132 -41 215.5t-192 83.5q-83 0 -166.5 -40t-137.5 -88.5t-100 -105.5 l-110 -698h-78l155 983h70l-31 -195q73 86 180.5 152t227.5 66q115 0 192 -57t99 -154z" />
<glyph unicode="n" horiz-adv-x="1183" d="M264 778q83 94 197 161t246 67q168 0 260 -110.5t63 -293.5l-96 -602h-78l96 600q25 157 -49.5 244.5t-212.5 87.5q-128 0 -244 -73.5t-190 -174.5l-106 -684h-78l155 983h70z" />
<glyph unicode="o" horiz-adv-x="1212" d="M1100 479q-19 -118 -76 -215t-138 -159t-177.5 -95t-196.5 -33q-96 0 -182 36t-148.5 101.5t-91 167t-10.5 222.5q19 118 77.5 215t139.5 159t177.5 95t195.5 33q97 0 182.5 -36t148 -101.5t90.5 -167t9 -222.5zM158 492q-16 -100 6.5 -184t73.5 -139t123.5 -85.5 t156.5 -30.5q120 0 226 49.5t183 151t99 238.5q16 100 -6.5 183.5t-73.5 138.5t-123.5 85.5t-156.5 30.5q-120 0 -226 -49.5t-183 -150.5t-99 -238z" />
<glyph unicode="p" horiz-adv-x="1257" d="M260 745q81 118 206 189.5t269 71.5q101 0 185 -39t140.5 -107t80 -167t4.5 -214q-35 -225 -194 -363.5t-369 -138.5q-147 0 -250 73t-146 192l-108 -693h-78l227 1434h72zM1069 487q16 99 -3 183t-66.5 141t-118.5 89t-156 32q-148 0 -277 -85.5t-198 -215.5l-45 -285 q28 -127 126.5 -211t243.5 -84q186 0 324.5 116.5t169.5 319.5z" />
<glyph unicode="q" d="M80 504q36 224 197 363t368 139q141 0 247.5 -75t151.5 -190l39 242h72l-227 -1434h-78l106 676q-75 -109 -197 -178.5t-267 -69.5q-212 0 -330 147.5t-82 379.5zM1022 639q-26 125 -128 209t-245 84q-181 0 -320.5 -117t-172.5 -319q-21 -133 18.5 -235t125 -156 t202.5 -54q149 0 277 84.5t196 210.5z" />
<glyph unicode="r" horiz-adv-x="706" d="M256 715q72 131 198 213t289 76l-12 -80q-109 7 -210 -40.5t-170 -123.5t-107 -168l-94 -592h-78l155 983h72z" />
<glyph unicode="s" horiz-adv-x="937" d="M123 754q10 66 48.5 116t95 79t120.5 43t133 14q92 0 178.5 -24t147.5 -62l-10 -74q-58 40 -143 64t-175 24q-121 0 -212.5 -47.5t-104.5 -141.5q-9 -59 22.5 -100.5t88 -65.5t126 -44t139 -42t124.5 -52t84.5 -83.5t17.5 -126.5q-14 -87 -77.5 -146t-148 -83.5 t-186.5 -24.5q-103 0 -202.5 28.5t-159.5 74.5l12 76q64 -49 159.5 -77t192.5 -28q131 0 224.5 46t109.5 141q7 46 -10.5 81.5t-53.5 58.5t-84.5 41t-103 33t-108.5 31.5t-102 39t-83 52t-51.5 75.5t-7.5 104z" />
<glyph unicode="t" horiz-adv-x="757" d="M319 1300l80 25l-53 -342h428l-10 -74h-428l-100 -624q-39 -234 198 -234q123 0 223 51l-12 -75q-98 -50 -231 -50q-136 0 -208 79t-48 223l100 630h-184l10 74h184z" />
<glyph unicode="u" horiz-adv-x="1181" d="M999 983h78l-155 -983h-72l33 207q-72 -91 -188.5 -160.5t-245.5 -69.5q-171 0 -265 111t-65 295l96 600h78l-96 -600q-24 -158 49 -245t213 -87q132 0 246 73.5t186 176.5z" />
<glyph unicode="v" horiz-adv-x="1073" d="M1010 983h86l-613 -983h-82l-299 983h82l269 -895z" />
<glyph unicode="w" horiz-adv-x="1630" d="M1556 983h84l-522 -983h-80l-178 864l-457 -864h-81l-211 983h77l189 -881l461 869h71l181 -869z" />
<glyph unicode="x" horiz-adv-x="989" d="M31 0h-94l499 506l-319 477h88l282 -424l418 424h94l-475 -479l338 -504h-88l-299 449z" />
<glyph unicode="y" horiz-adv-x="1085" d="M481 80l539 903h86l-692 -1157q-99 -162 -187.5 -230.5t-189.5 -68.5q-44 0 -105 14l11 68q47 -12 88 -12q89 0 163.5 62.5t155.5 199.5l84 141l-342 983h80z" />
<glyph unicode="z" horiz-adv-x="915" d="M152 983h737l-10 -65l-799 -848h688l-10 -70h-789l11 66l800 847h-639z" />
<glyph unicode="{" horiz-adv-x="552" d="M354 -156l-10 -69q-123 -23 -172.5 31t-30.5 169l82 517q14 98 -29.5 144t-121.5 46l10 72q78 0 137.5 48.5t75.5 147.5l82 514q40 241 264 195l-10 -70q-83 14 -122.5 -25t-55.5 -137l-80 -497q-13 -89 -60 -143t-114 -72q57 -15 88.5 -69t17.5 -148l-80 -498 q-14 -94 13 -131.5t116 -24.5z" />
<glyph unicode="|" horiz-adv-x="391" d="M111 -205h-82l295 1864h82z" />
<glyph unicode="}" horiz-adv-x="550" d="M213 -31q-37 -242 -264 -194l10 73q82 -18 123 19t55 129l82 516q13 90 62.5 143t119.5 66q-62 15 -95 70.5t-19 146.5l80 500q14 95 -13 132t-118 21l10 68q122 23 172 -32t31 -169l-80 -514q-16 -98 30 -146t119 -48l-10 -70q-76 0 -136.5 -49.5t-76.5 -147.5z" />
<glyph unicode="~" horiz-adv-x="1181" d="M1059 760q-6 -86 -62.5 -138.5t-142.5 -52.5q-64 0 -157 34.5t-184.5 69t-150.5 34.5q-58 0 -94.5 -32t-42.5 -85h-73q9 89 65 139.5t141 50.5q53 0 123 -21t127 -46.5t125 -46.5t117 -21q57 0 94 31.5t41 83.5h74z" />
<glyph unicode="&#xa1;" horiz-adv-x="389" d="M70 -442h-82l176 1071h69zM305 940q-4 -24 -21.5 -38.5t-41.5 -14.5q-27 0 -43.5 17.5t-10.5 45.5q3 25 22 40.5t42 15.5q27 0 43 -18t10 -48z" />
<glyph unicode="&#xa2;" horiz-adv-x="1044" d="M979 922l-12 -74q-99 80 -262 84l-140 -881q161 6 297 82l-10 -80q-136 -70 -299 -76l-35 -223h-69l34 226q-94 7 -172 42.5t-135.5 98t-81.5 160.5t-6 219q15 98 55 180t95 138.5t124 97.5t140 62t145 26l35 225h70l-35 -223q154 -6 262 -84zM635 928q-80 -9 -154 -39 t-140 -81.5t-113 -133.5t-64 -185q-16 -101 3 -183t66.5 -134.5t114 -82.5t148.5 -36z" />
<glyph unicode="&#xa3;" horiz-adv-x="1234" d="M1057 0h-1069l12 78h66q77 0 128 51t64 143l61 381h-167l12 78h168l35 219q15 101 53 181.5t88 132.5t114 86t129.5 48.5t135.5 14.5q163 0 282 -80l-12 -76q-113 80 -272 80q-75 0 -143 -20.5t-129.5 -64t-105.5 -122.5t-61 -186l-34 -213h508l-13 -78h-508l-61 -385 q-20 -151 -121 -192l852 2z" />
<glyph unicode="&#xa4;" horiz-adv-x="1173" d="M315 412l-155 -133l-47 55l151 131q-81 104 -55 258q21 147 135 250l-108 127l61 55l111 -133q112 78 254 78q140 0 237 -78l154 133l47 -55l-154 -131q81 -104 58 -258q-24 -150 -136 -250l109 -127l-62 -55l-110 133q-115 -78 -256 -78q-140 0 -234 78zM287 711 q-21 -136 57 -220.5t209 -84.5q137 0 244.5 87t130.5 230q21 135 -56.5 220t-209.5 85q-138 0 -244.5 -87t-130.5 -230z" />
<glyph unicode="&#xa5;" horiz-adv-x="1310" d="M1266 1393h90l-621 -760h340l-12 -70h-377l-29 -178h379l-12 -70h-379l-49 -315h-82l51 315h-377l13 70h374l31 178h-379l13 70h340l-381 760h88l368 -750z" />
<glyph unicode="&#xa6;" horiz-adv-x="430" d="M313 948h-82l111 711h82zM129 -205h-82l113 711h82z" />
<glyph unicode="&#xa7;" horiz-adv-x="999" d="M801 176q-13 -80 -73.5 -137t-144.5 -83t-184 -26q-95 0 -185 25.5t-153 67.5l11 73q65 -45 151.5 -70.5t173.5 -25.5q85 0 154.5 20t116.5 62t57 102q6 41 -7 74t-34 54.5t-64 42t-76 31.5t-91 28q-150 42 -208 76q-127 73 -104 215q25 162 244 268q-168 73 -145 233 q14 81 73 139t139 84.5t171 26.5q171 0 309 -82l-10 -74q-125 86 -297 86q-118 0 -206 -50.5t-102 -139.5q-6 -40 7.5 -73t33.5 -53t67.5 -40.5t77 -29.5t93.5 -26q12 -3 18 -5q57 -16 96.5 -30t84 -38t69.5 -52.5t38 -71t5 -95.5q-16 -90 -84.5 -153t-173.5 -111 q177 -78 152 -242zM477 479q12 -3 32.5 -9t36 -10.5t29.5 -8.5q42 15 80.5 34.5t77 47.5t64.5 66.5t32 82.5q7 40 -4 72t-30 53t-56.5 40t-68.5 30t-82 26q-107 30 -127 37q-86 -27 -159 -89.5t-85 -145.5q-7 -41 6 -74t30.5 -53t63 -41t70 -29.5t84.5 -26.5q4 -1 6 -2z" />
<glyph unicode="&#xa8;" horiz-adv-x="577" d="M786 1706q-3 -23 -22.5 -40t-44.5 -17q-28 0 -44.5 19.5t-12.5 47.5q5 24 24.5 42t42.5 18q29 0 45.5 -21t11.5 -49zM375 1706q-3 -23 -23 -40t-45 -17q-28 0 -44.5 19.5t-12.5 47.5q5 24 24.5 42t42.5 18q29 0 46 -21t12 -49z" />
<glyph unicode="&#xa9;" horiz-adv-x="1748" d="M1657 705q-23 -141 -86.5 -262t-151.5 -205.5t-195.5 -144t-219.5 -88t-222 -28.5q-108 0 -211.5 30t-193.5 92.5t-153 150t-89.5 211.5t-3.5 268q22 141 85.5 262t151.5 205t196 143.5t219.5 88t220.5 28.5t213 -30t194 -92.5t153 -149.5t89.5 -211t3.5 -268zM1139 375 q-134 -70 -279 -70q-60 0 -115.5 15.5t-103.5 49t-80.5 80.5t-45.5 115t-1 148q17 106 68.5 189t122 130.5t146.5 71.5t153 24q145 0 241 -71l-6 -62q-95 70 -225 70q-70 0 -136.5 -20t-128.5 -60.5t-107 -112.5t-60 -167q-13 -85 5.5 -151.5t61.5 -105.5t100.5 -59 t124.5 -20q145 0 273 69zM170 725q-21 -134 2.5 -251t81.5 -200t141.5 -142.5t181.5 -88.5t201 -29q106 0 214 26.5t211.5 83.5t188 137t146 196t82.5 252q21 134 -2.5 251t-81.5 199.5t-142 142t-182 88.5t-202 29q-106 0 -213 -26.5t-210.5 -83t-188 -137t-146 -196 t-82.5 -251.5z" />
<glyph unicode="&#xab;" horiz-adv-x="888" d="M684 135h-82l-190 346l4 23l297 344h86l-310 -359zM358 135h-82l-190 346l4 23l297 344h86l-309 -359z" />
<glyph unicode="&#xac;" horiz-adv-x="1185" d="M1024 602h-78l49 307h-802l10 74h882z" />
<glyph unicode="&#xad;" horiz-adv-x="993" d="M131 537h711l-11 -74h-710z" />
<glyph unicode="&#xae;" horiz-adv-x="1748" d="M1657 705q-23 -141 -86.5 -262t-151.5 -205.5t-195.5 -144t-219.5 -88t-222 -28.5q-108 0 -211.5 30t-193.5 92.5t-153 150t-89.5 211.5t-3.5 268q22 141 85.5 262t151.5 205t196 143.5t219.5 88t220.5 28.5t213 -30t194 -92.5t153 -149.5t89.5 -211t3.5 -268zM170 725 q-21 -134 2.5 -251t81.5 -200t141.5 -142.5t181.5 -88.5t201 -29q106 0 214 26.5t211.5 83.5t188 137t146 196t82.5 252q21 134 -2.5 251t-81.5 199.5t-142 142t-182 88.5t-202 29q-106 0 -213 -26.5t-210.5 -83t-188 -137t-146 -196t-82.5 -251.5zM621 307h-62l127 809h315 q37 0 73.5 -6t76 -23.5t67 -45t41 -74.5t3.5 -107q-29 -179 -220 -219l181 -334h-68l-176 324q-20 -2 -59 -2h-250zM739 1055l-59 -367h250q243 0 272 182q8 47 -3.5 82.5t-33 54.5t-54.5 30.5t-60.5 14.5t-59.5 3h-252z" />
<glyph unicode="&#xaf;" horiz-adv-x="638" d="M279 1720h540l-10 -73h-541z" />
<glyph unicode="&#xb0;" horiz-adv-x="796" d="M786 1167q-22 -132 -121 -210t-221 -78t-201 84t-57 219q21 130 121 208t219 78q123 0 202 -83.5t58 -217.5zM246 1176q-17 -104 42 -170t156 -66q103 0 183.5 63t97.5 171q17 103 -41.5 168t-155.5 65q-103 0 -183.5 -62.5t-98.5 -168.5z" />
<glyph unicode="&#xb1;" horiz-adv-x="1183" d="M731 1186l-63 -404h403l-12 -75h-404l-63 -404h-74l64 404h-404l10 75h404l65 404h74zM946 0h-880l12 74h880z" />
<glyph unicode="&#xb4;" horiz-adv-x="348" d="M354 1589h-88l226 281h98z" />
<glyph unicode="&#xb6;" horiz-adv-x="1232" d="M430 -451h-80l166 1049q-207 0 -308 112.5t-69 311.5q31 194 165.5 303t340.5 109h545l-299 -1885h-82l287 1807h-381z" />
<glyph unicode="&#xb7;" horiz-adv-x="405" d="M246 483q-3 -25 -21 -39t-43 -14q-29 0 -45 18t-12 48q4 25 22.5 39t42.5 14q28 0 44 -18t12 -48z" />
<glyph unicode="&#xb8;" horiz-adv-x="432" d="M129 0h68l-72 -176q95 18 164 -19t59 -118q-11 -75 -77 -117.5t-177 -42.5q-114 0 -209 45l13 66q81 -46 190 -46q89 0 138 28.5t55 74.5q6 40 -29.5 64t-91.5 25t-121 -15z" />
<glyph unicode="&#xbb;" horiz-adv-x="890" d="M471 135h-88l309 359l-194 354h82l192 -346l-4 -23zM145 135h-88l310 359l-195 354h82l192 -346l-4 -23z" />
<glyph unicode="&#xbc;" horiz-adv-x="1921" d="M1640 836h76l-92 -576h170l-10 -63h-168l-33 -197h-67l30 197h-479l10 61zM1559 260l73 477l-467 -477h394zM375 -23h-47l1169 1479h47zM459 1393h51l-123 -770h158l-13 -66h-426l11 66h202l111 696l-199 -72l13 68z" />
<glyph unicode="&#xbd;" horiz-adv-x="1818" d="M365 -23h-48l1170 1479h47zM1221 774q126 76 266 76q116 0 189 -60.5t55 -160.5q-16 -91 -87 -155.5t-196 -129.5q-131 -69 -176 -103q-96 -74 -113 -175h494l-13 -66h-573l6 39q6 42 21 80t31.5 66t45.5 56t50.5 45.5t60 40.5t60.5 34.5t65 33.5q121 63 182.5 115 t73.5 129q12 68 -39 106.5t-139 38.5q-138 0 -277 -84zM449 1393h51l-123 -770h158l-13 -66h-426l10 66h203l111 696l-199 -72l12 68z" />
<glyph unicode="&#xbe;" horiz-adv-x="2019" d="M518 -23h-47l1169 1479h48zM1739 836h76l-93 -576h170l-10 -63h-168l-33 -197h-67l31 197h-480l11 61zM1657 260l74 477l-467 -477h393zM760 1186q-9 -66 -56 -117.5t-124 -69.5q74 -15 119.5 -69.5t31.5 -145.5q-18 -113 -110 -173t-230 -60q-159 0 -272 55l12 70 q110 -58 258 -58q117 0 190.5 45t86.5 136q13 85 -42.5 124.5t-156.5 39.5h-127l8 67h117q99 0 158.5 46t70.5 116q11 68 -41.5 112t-146.5 44q-135 0 -264 -60l12 72q119 55 262 55q118 0 188.5 -66.5t55.5 -162.5z" />
<glyph unicode="&#xbf;" horiz-adv-x="983" d="M766 -354q-206 -113 -410 -113q-129 0 -223.5 39t-141.5 116.5t-30 182.5q13 81 67.5 163t124.5 149.5t139.5 133.5t122.5 138.5t64 140.5h76q-9 -57 -39.5 -114t-73.5 -106t-93 -98.5t-100.5 -98.5t-93.5 -97.5t-74 -104t-40 -110.5q-20 -123 69 -189.5t261 -66.5 q201 0 407 119zM633 940q-3 -25 -22 -40t-44 -15q-28 0 -43.5 18t-9.5 47q3 25 21.5 40.5t42.5 15.5q29 0 45 -18t10 -48z" />
<glyph unicode="&#xc0;" horiz-adv-x="1454" d="M1329 0h-84l-123 418h-839l-254 -418h-92l876 1434h94zM829 1313l-501 -819h776l-242 821q-7 22 -10 41q-11 -22 -23 -43zM958 1589h-81l-150 281h94z" />
<glyph unicode="&#xc1;" horiz-adv-x="1454" d="M1329 0h-84l-123 418h-839l-254 -418h-92l876 1434h94zM829 1313l-501 -819h776l-242 821q-7 22 -10 41q-11 -22 -23 -43zM899 1589h-88l225 281h99z" />
<glyph unicode="&#xc2;" horiz-adv-x="1454" d="M1329 0h-84l-123 418h-839l-254 -418h-92l876 1434h94zM829 1313l-501 -819h776l-242 821q-7 22 -10 41q-11 -22 -23 -43zM891 1858h67l222 -269h-86l-174 207l-238 -207h-94z" />
<glyph unicode="&#xc3;" horiz-adv-x="1454" d="M1329 0h-84l-123 418h-839l-254 -418h-92l876 1434h94zM829 1313l-501 -819h776l-242 821q-7 22 -10 41q-11 -22 -23 -43zM1208 1767q-1 -77 -43 -121t-108 -44q-49 0 -110 27t-116 54t-92 27q-42 0 -67 -26.5t-25 -69.5h-69q0 74 43.5 120t105.5 46q49 0 110 -27 t117.5 -54.5t94.5 -27.5q45 0 67.5 25.5t22.5 70.5h69z" />
<glyph unicode="&#xc4;" horiz-adv-x="1454" d="M1329 0h-84l-123 418h-839l-254 -418h-92l876 1434h94zM829 1313l-501 -819h776l-242 821q-7 22 -10 41q-11 -22 -23 -43zM1167 1706q-3 -23 -22.5 -40t-44.5 -17q-28 0 -45 19.5t-13 47.5q5 24 25 42t43 18q29 0 45.5 -21t11.5 -49zM756 1706q-3 -23 -23 -40t-45 -17 q-28 0 -44.5 19.5t-12.5 47.5q5 24 24.5 42t42.5 18q29 0 46 -21t12 -49z" />
<glyph unicode="&#xc5;" horiz-adv-x="1454" d="M1329 0h-84l-123 418h-839l-254 -418h-92l876 1434h94zM829 1313l-501 -819h776l-242 821q-7 22 -10 41q-11 -22 -23 -43zM1096 1722q-13 -79 -75 -128.5t-136 -49.5q-78 0 -128.5 53t-37.5 136q13 79 75.5 127.5t137.5 48.5q78 0 127.5 -52.5t36.5 -134.5zM780 1726 q-9 -55 23 -89.5t82 -34.5q54 0 98 34t53 93q9 53 -22.5 87.5t-79.5 34.5q-56 0 -100.5 -34t-53.5 -91z" />
<glyph unicode="&#xc6;" horiz-adv-x="2041" d="M2050 1434l-12 -78h-797l-94 -596h735l-12 -78h-735l-97 -604h811l-14 -78h-889l66 420h-660l-364 -420h-99l1246 1434h915zM416 494h608l135 858z" />
<glyph unicode="&#xc7;" horiz-adv-x="1325" d="M1343 1278q-142 100 -358 100q-100 0 -199.5 -25t-195 -78t-173 -129t-134 -185t-76.5 -238q-23 -136 -0.5 -243.5t75.5 -187.5t131.5 -132.5t169 -78.5t187.5 -26q219 0 406 105l-15 -86q-177 -94 -389 -97l-63 -153q95 18 164 -19t59 -118q-11 -75 -77 -117.5 t-177 -42.5q-114 0 -209 45l12 66q84 -46 191 -46q90 0 138 28.5t54 74.5q9 61 -69 81.5t-172 -7.5l82 211q-103 7 -197 41t-174.5 96t-134 151t-75.5 206t1 261q19 117 65.5 220t111.5 181t145.5 139.5t169.5 100.5t180.5 59.5t181.5 20.5q219 0 377 -100z" />
<glyph unicode="&#xc8;" horiz-adv-x="1277" d="M342 1434h940l-12 -78h-860l-93 -596h797l-12 -78h-797l-96 -604h872l-14 -78h-952zM911 1589h-82l-149 281h94z" />
<glyph unicode="&#xc9;" horiz-adv-x="1277" d="M342 1434h940l-12 -78h-860l-93 -596h797l-12 -78h-797l-96 -604h872l-14 -78h-952zM852 1589h-88l225 281h98z" />
<glyph unicode="&#xca;" horiz-adv-x="1277" d="M342 1434h940l-12 -78h-860l-93 -596h797l-12 -78h-797l-96 -604h872l-14 -78h-952zM844 1858h67l222 -269h-86l-175 207l-237 -207h-94z" />
<glyph unicode="&#xcb;" horiz-adv-x="1277" d="M342 1434h940l-12 -78h-860l-93 -596h797l-12 -78h-797l-96 -604h872l-14 -78h-952zM1120 1706q-3 -23 -22.5 -40t-44.5 -17q-28 0 -45 19.5t-13 47.5q5 24 25 42t43 18q29 0 45.5 -21t11.5 -49zM709 1706q-3 -23 -23 -40t-45 -17q-28 0 -44.5 19.5t-12.5 47.5 q5 24 24.5 42t42.5 18q29 0 46 -21t12 -49z" />
<glyph unicode="&#xcc;" horiz-adv-x="499" d="M342 1434h82l-227 -1434h-82zM479 1589h-82l-149 281h94z" />
<glyph unicode="&#xcd;" horiz-adv-x="499" d="M342 1434h82l-227 -1434h-82zM420 1589h-88l225 281h98z" />
<glyph unicode="&#xce;" horiz-adv-x="499" d="M342 1434h82l-227 -1434h-82zM412 1858h67l221 -269h-86l-174 207l-237 -207h-94z" />
<glyph unicode="&#xcf;" horiz-adv-x="499" d="M342 1434h82l-227 -1434h-82zM688 1706q-3 -23 -22.5 -40t-44.5 -17q-28 0 -45 19.5t-13 47.5q5 24 25 42t43 18q29 0 45.5 -21t11.5 -49zM276 1706q-3 -23 -22.5 -40t-44.5 -17q-28 0 -44.5 19.5t-12.5 47.5q5 24 24.5 42t42.5 18q29 0 45.5 -21t11.5 -49z" />
<glyph unicode="&#xd0;" horiz-adv-x="1501" d="M342 1434h418q186 0 325 -54.5t217.5 -151.5t107 -228.5t3.5 -288.5q-25 -156 -91.5 -284.5t-172.5 -224.5t-261.5 -149t-346.5 -53h-426l108 678h-139l10 76h139zM549 78q169 0 307 46.5t234.5 132.5t157.5 203.5t83 262.5q26 141 0 257.5t-93.5 200t-191 129.5 t-292.5 46h-344l-95 -602h506l-10 -76h-508l-94 -600h340z" />
<glyph unicode="&#xd1;" horiz-adv-x="1570" d="M197 0h-82l227 1434h68l800 -1301q2 24 7.5 60.5t7.5 50.5l190 1190h80l-227 -1434h-66l-801 1303q-2 -14 -8 -52.5t-8 -58.5zM1268 1767q-1 -76 -43.5 -120.5t-108.5 -44.5q-50 0 -110 27t-115 54t-92 27q-42 0 -67 -26.5t-25 -69.5h-70q0 74 43.5 120t105.5 46 q49 0 110 -27t117.5 -54.5t94.5 -27.5q45 0 67.5 25.5t22.5 70.5h70z" />
<glyph unicode="&#xd2;" horiz-adv-x="1687" d="M1604 711q-17 -109 -62.5 -214t-121.5 -199t-173 -165.5t-226 -113.5t-273 -42q-101 0 -189.5 22.5t-155.5 62t-122 95t-88.5 121t-56 139.5t-24 151t8.5 155q17 109 63.5 214t122.5 199t173.5 165t225.5 113t269 42q101 0 189.5 -22.5t155.5 -62t122 -94.5t89 -120.5 t56.5 -139.5t24 -151t-7.5 -155zM201 715q-8 -68 -8 -135.5t18.5 -132.5t47 -123t76.5 -107.5t107 -85.5t138.5 -56t171.5 -20q159 0 297.5 57.5t234 152.5t157 212t81.5 242q8 68 8 135t-18.5 132.5t-47 123.5t-76.5 107t-107 85t-138.5 56t-171.5 20q-160 0 -298.5 -57.5 t-234 -152.5t-156.5 -211.5t-81 -241.5zM1073 1589h-82l-149 281h94z" />
<glyph unicode="&#xd3;" horiz-adv-x="1687" d="M1604 711q-17 -109 -62.5 -214t-121.5 -199t-173 -165.5t-226 -113.5t-273 -42q-101 0 -189.5 22.5t-155.5 62t-122 95t-88.5 121t-56 139.5t-24 151t8.5 155q17 109 63.5 214t122.5 199t173.5 165t225.5 113t269 42q101 0 189.5 -22.5t155.5 -62t122 -94.5t89 -120.5 t56.5 -139.5t24 -151t-7.5 -155zM201 715q-8 -68 -8 -135.5t18.5 -132.5t47 -123t76.5 -107.5t107 -85.5t138.5 -56t171.5 -20q159 0 297.5 57.5t234 152.5t157 212t81.5 242q8 68 8 135t-18.5 132.5t-47 123.5t-76.5 107t-107 85t-138.5 56t-171.5 20q-160 0 -298.5 -57.5 t-234 -152.5t-156.5 -211.5t-81 -241.5zM1014 1589h-88l225 281h98z" />
<glyph unicode="&#xd4;" horiz-adv-x="1687" d="M1604 711q-17 -109 -62.5 -214t-121.5 -199t-173 -165.5t-226 -113.5t-273 -42q-101 0 -189.5 22.5t-155.5 62t-122 95t-88.5 121t-56 139.5t-24 151t8.5 155q17 109 63.5 214t122.5 199t173.5 165t225.5 113t269 42q101 0 189.5 -22.5t155.5 -62t122 -94.5t89 -120.5 t56.5 -139.5t24 -151t-7.5 -155zM201 715q-8 -68 -8 -135.5t18.5 -132.5t47 -123t76.5 -107.5t107 -85.5t138.5 -56t171.5 -20q159 0 297.5 57.5t234 152.5t157 212t81.5 242q8 68 8 135t-18.5 132.5t-47 123.5t-76.5 107t-107 85t-138.5 56t-171.5 20q-160 0 -298.5 -57.5 t-234 -152.5t-156.5 -211.5t-81 -241.5zM1006 1858h67l221 -269h-86l-174 207l-237 -207h-95z" />
<glyph unicode="&#xd5;" horiz-adv-x="1687" d="M1604 711q-17 -109 -62.5 -214t-121.5 -199t-173 -165.5t-226 -113.5t-273 -42q-101 0 -189.5 22.5t-155.5 62t-122 95t-88.5 121t-56 139.5t-24 151t8.5 155q17 109 63.5 214t122.5 199t173.5 165t225.5 113t269 42q101 0 189.5 -22.5t155.5 -62t122 -94.5t89 -120.5 t56.5 -139.5t24 -151t-7.5 -155zM201 715q-8 -68 -8 -135.5t18.5 -132.5t47 -123t76.5 -107.5t107 -85.5t138.5 -56t171.5 -20q159 0 297.5 57.5t234 152.5t157 212t81.5 242q8 68 8 135t-18.5 132.5t-47 123.5t-76.5 107t-107 85t-138.5 56t-171.5 20q-160 0 -298.5 -57.5 t-234 -152.5t-156.5 -211.5t-81 -241.5zM1323 1767q-1 -76 -43.5 -120.5t-108.5 -44.5q-49 0 -109.5 27t-115.5 54t-92 27q-42 0 -67 -26.5t-25 -69.5h-70q0 74 44 120t106 46q49 0 109.5 -27t117 -54.5t94.5 -27.5q45 0 67.5 25.5t22.5 70.5h70z" />
<glyph unicode="&#xd6;" horiz-adv-x="1687" d="M1604 711q-17 -109 -62.5 -214t-121.5 -199t-173 -165.5t-226 -113.5t-273 -42q-101 0 -189.5 22.5t-155.5 62t-122 95t-88.5 121t-56 139.5t-24 151t8.5 155q17 109 63.5 214t122.5 199t173.5 165t225.5 113t269 42q101 0 189.5 -22.5t155.5 -62t122 -94.5t89 -120.5 t56.5 -139.5t24 -151t-7.5 -155zM201 715q-8 -68 -8 -135.5t18.5 -132.5t47 -123t76.5 -107.5t107 -85.5t138.5 -56t171.5 -20q159 0 297.5 57.5t234 152.5t157 212t81.5 242q8 68 8 135t-18.5 132.5t-47 123.5t-76.5 107t-107 85t-138.5 56t-171.5 20q-160 0 -298.5 -57.5 t-234 -152.5t-156.5 -211.5t-81 -241.5zM1282 1706q-3 -23 -23 -40t-45 -17q-28 0 -44.5 19.5t-12.5 47.5q5 24 25 42t43 18q29 0 45.5 -21t11.5 -49zM870 1706q-3 -23 -22.5 -40t-44.5 -17q-28 0 -45 19.5t-13 47.5q5 24 25 42t43 18q29 0 45.5 -21t11.5 -49z" />
<glyph unicode="&#xd7;" horiz-adv-x="921" d="M471 668l-315 -273l-43 51l315 273l-229 270l55 51l229 -272l318 272l43 -51l-318 -272l230 -273l-56 -49z" />
<glyph unicode="&#xd8;" horiz-adv-x="1687" d="M182 -98h-82l207 233q-117 106 -164 262.5t-20 325.5q21 137 89.5 266t175 234t260.5 169t329 64q233 0 395 -117l172 193h82l-207 -234q117 -106 164.5 -262.5t20.5 -324.5q-17 -109 -62 -214t-120.5 -199t-172.5 -165.5t-226 -113.5t-273 -42q-234 0 -396 117zM203 715 q-23 -148 16.5 -287t140.5 -233l959 1083q-141 100 -346 100q-128 0 -243.5 -37.5t-203.5 -102t-156.5 -149.5t-110 -180t-56.5 -194zM408 156q142 -101 346 -101q160 0 298.5 57.5t234 152.5t156.5 212t81 242q23 149 -16.5 288t-141.5 232z" />
<glyph unicode="&#xd9;" horiz-adv-x="1540" d="M1399 1434h82l-148 -936q-18 -114 -61 -203.5t-102.5 -148.5t-138.5 -97.5t-164.5 -55t-184.5 -16.5t-181 17.5t-152 56t-112 100t-60.5 149.5t1.5 204l148 930h82l-148 -932q-71 -447 420 -447q501 0 573 451zM993 1589h-82l-149 281h94z" />
<glyph unicode="&#xda;" horiz-adv-x="1540" d="M1399 1434h82l-148 -936q-18 -114 -61 -203.5t-102.5 -148.5t-138.5 -97.5t-164.5 -55t-184.5 -16.5t-181 17.5t-152 56t-112 100t-60.5 149.5t1.5 204l148 930h82l-148 -932q-71 -447 420 -447q501 0 573 451zM934 1589h-88l225 281h98z" />
<glyph unicode="&#xdb;" horiz-adv-x="1540" d="M1399 1434h82l-148 -936q-18 -114 -61 -203.5t-102.5 -148.5t-138.5 -97.5t-164.5 -55t-184.5 -16.5t-181 17.5t-152 56t-112 100t-60.5 149.5t1.5 204l148 930h82l-148 -932q-71 -447 420 -447q501 0 573 451zM926 1858h67l221 -269h-86l-174 207l-237 -207h-94z" />
<glyph unicode="&#xdc;" horiz-adv-x="1540" d="M1399 1434h82l-148 -936q-18 -114 -61 -203.5t-102.5 -148.5t-138.5 -97.5t-164.5 -55t-184.5 -16.5t-181 17.5t-152 56t-112 100t-60.5 149.5t1.5 204l148 930h82l-148 -932q-71 -447 420 -447q501 0 573 451zM1202 1706q-3 -23 -22.5 -40t-44.5 -17q-28 0 -45 19.5 t-13 47.5q5 24 25 42t43 18q29 0 45.5 -21t11.5 -49zM791 1706q-3 -23 -23 -40t-45 -17q-28 0 -44.5 19.5t-12.5 47.5q5 24 24.5 42t42.5 18q29 0 46 -21t12 -49z" />
<glyph unicode="&#xdd;" horiz-adv-x="1292" d="M592 0h-80l90 571l-426 863h86l389 -783l639 783h94l-700 -863zM809 1589h-88l225 281h98z" />
<glyph unicode="&#xde;" horiz-adv-x="1335" d="M381 1165h371q99 0 182 -13t157 -45.5t121 -82.5t67.5 -130t4.5 -183q-70 -443 -668 -443h-376l-43 -268h-82l227 1434h82zM250 346h377q89 0 164 10.5t146.5 37t124 68.5t89.5 108t51 153q14 85 -3.5 149.5t-57 104.5t-102.5 65.5t-132.5 35t-154.5 9.5h-383z" />
<glyph unicode="&#xdf;" horiz-adv-x="1208" d="M1083 301q-13 -81 -58 -145t-109.5 -102t-139 -57.5t-153.5 -19.5q-148 0 -261 64l13 68q107 -62 237 -62q96 0 177 26.5t142 88.5t75 153q10 62 -13.5 121.5t-63 105.5t-80 88.5t-66.5 87t-19 85.5q5 37 27 71.5t50 63.5t56 59.5t51.5 72.5t30.5 89q14 89 -57.5 158 t-200.5 69q-160 0 -271 -93.5t-137 -254.5l-163 -1038h-78l164 1032q32 200 162.5 311t322.5 113q86 0 155.5 -27t111 -70t60 -96t9.5 -106q-8 -50 -31.5 -93.5t-52 -74.5t-56.5 -59t-50 -60t-27 -65q-5 -32 13.5 -67t49.5 -66.5t66.5 -72.5t64.5 -82t44 -98t5 -118z" />
<glyph unicode="&#xe0;" d="M965 231q-81 -114 -204 -184t-269 -70q-212 0 -330 147.5t-82 379.5q36 224 197 363t368 139q142 0 248 -74t151 -187l39 238h72l-156 -983h-71zM156 496q-21 -133 18.5 -235t125 -156t202.5 -54q149 0 277 84.5t196 210.5l45 291q-24 126 -125.5 210.5t-245.5 84.5 q-181 0 -320.5 -117t-172.5 -319zM776 1139h-82l-149 280h94z" />
<glyph unicode="&#xe1;" d="M965 231q-81 -114 -204 -184t-269 -70q-212 0 -330 147.5t-82 379.5q36 224 197 363t368 139q142 0 248 -74t151 -187l39 238h72l-156 -983h-71zM156 496q-21 -133 18.5 -235t125 -156t202.5 -54q149 0 277 84.5t196 210.5l45 291q-24 126 -125.5 210.5t-245.5 84.5 q-181 0 -320.5 -117t-172.5 -319zM717 1139h-88l225 280h98z" />
<glyph unicode="&#xe2;" d="M965 231q-81 -114 -204 -184t-269 -70q-212 0 -330 147.5t-82 379.5q36 224 197 363t368 139q142 0 248 -74t151 -187l39 238h72l-156 -983h-71zM156 496q-21 -133 18.5 -235t125 -156t202.5 -54q149 0 277 84.5t196 210.5l45 291q-24 126 -125.5 210.5t-245.5 84.5 q-181 0 -320.5 -117t-172.5 -319zM709 1407h67l221 -268h-86l-174 207l-237 -207h-94z" />
<glyph unicode="&#xe3;" d="M965 231q-81 -114 -204 -184t-269 -70q-212 0 -330 147.5t-82 379.5q36 224 197 363t368 139q142 0 248 -74t151 -187l39 238h72l-156 -983h-71zM156 496q-21 -133 18.5 -235t125 -156t202.5 -54q149 0 277 84.5t196 210.5l45 291q-24 126 -125.5 210.5t-245.5 84.5 q-181 0 -320.5 -117t-172.5 -319zM1026 1317q-1 -77 -43.5 -121.5t-108.5 -44.5q-49 0 -109.5 27.5t-115.5 54.5t-92 27q-42 0 -67 -27t-25 -70h-70q0 74 44 120t106 46q49 0 109.5 -27t117 -54t94.5 -27q45 0 67.5 25.5t22.5 70.5h70z" />
<glyph unicode="&#xe4;" d="M965 231q-81 -114 -204 -184t-269 -70q-212 0 -330 147.5t-82 379.5q36 224 197 363t368 139q142 0 248 -74t151 -187l39 238h72l-156 -983h-71zM156 496q-21 -133 18.5 -235t125 -156t202.5 -54q149 0 277 84.5t196 210.5l45 291q-24 126 -125.5 210.5t-245.5 84.5 q-181 0 -320.5 -117t-172.5 -319zM985 1255q-3 -23 -22.5 -40t-44.5 -17q-28 0 -45 20t-13 48q5 23 25 41t43 18q29 0 45.5 -21t11.5 -49zM573 1255q-3 -23 -22.5 -40t-44.5 -17q-28 0 -44.5 20t-12.5 48q5 24 24.5 41.5t42.5 17.5q29 0 45.5 -21t11.5 -49z" />
<glyph unicode="&#xe5;" d="M965 231q-81 -114 -204 -184t-269 -70q-212 0 -330 147.5t-82 379.5q36 224 197 363t368 139q142 0 248 -74t151 -187l39 238h72l-156 -983h-71zM156 496q-21 -133 18.5 -235t125 -156t202.5 -54q149 0 277 84.5t196 210.5l45 291q-24 126 -125.5 210.5t-245.5 84.5 q-181 0 -320.5 -117t-172.5 -319zM913 1272q-13 -79 -75 -128.5t-136 -49.5q-78 0 -128 52.5t-37 135.5q13 79 75.5 127.5t137.5 48.5q78 0 127 -52t36 -134zM598 1276q-9 -55 23 -90t81 -35q54 0 98.5 34t53.5 93q9 53 -22.5 88t-79.5 35q-56 0 -100.5 -34t-53.5 -91z" />
<glyph unicode="&#xe6;" horiz-adv-x="2043" d="M965 229q-82 -113 -204.5 -182.5t-268.5 -69.5q-210 0 -329 148t-83 379q36 224 197 363t368 139q142 0 248 -74t151 -187l39 238h72l-41 -262q71 135 195.5 210t265.5 75q105 0 183 -34.5t120.5 -91t62.5 -130t14.5 -150t-30.5 -151.5h-846q-10 -83 8.5 -150.5 t56.5 -113t93 -76.5t116 -44.5t128 -13.5q183 0 336 80l-15 -80q-145 -74 -334 -74q-96 0 -182 30t-154.5 98.5t-89.5 166.5l-43 -272h-71zM156 496q-21 -133 18.5 -235t125 -156t202.5 -54q149 0 277 84.5t196 210.5l45 291q-24 125 -127 210t-244 85q-183 0 -321.5 -116.5 t-171.5 -319.5zM1567 932q-174 0 -310.5 -116.5t-166.5 -297.5h776q15 55 16 110.5t-16 110.5t-51.5 97.5t-98 69t-149.5 26.5z" />
<glyph unicode="&#xe7;" horiz-adv-x="1009" d="M958 848q-103 84 -268 84q-86 0 -170 -25.5t-160 -77t-131 -139.5t-73 -201q-17 -108 6 -193.5t77 -137.5t129 -79.5t164 -27.5q172 0 324 82l-12 -80q-137 -73 -305 -76l-64 -153q95 18 164 -19t59 -118q-11 -75 -77 -117.5t-177 -42.5q-113 0 -208 45l12 66 q81 -46 190 -46q89 0 138 28.5t55 74.5q6 40 -29.5 64t-91.5 25t-121 -15l82 213q-92 7 -169.5 42.5t-134.5 97.5t-81 159.5t-6 218.5q16 104 60.5 190t105.5 143.5t136.5 97t151.5 57.5t152 18q167 0 285 -84z" />
<glyph unicode="&#xe8;" horiz-adv-x="1116" d="M78 496q19 120 74 218.5t131.5 161t166.5 96.5t183 34q103 0 182 -34.5t124 -91.5t67.5 -129.5t19 -150t-28.5 -151.5h-845q-10 -83 7.5 -150.5t55.5 -113t93 -76.5t116.5 -44.5t128.5 -13.5q185 0 338 80l-12 -80q-145 -74 -336 -74q-79 0 -153 19t-138.5 60.5t-109 101 t-63 147t-1.5 191.5zM938 518q12 45 13.5 91.5t-7.5 93t-33 87.5t-60 73t-92 50.5t-126 18.5q-168 0 -302 -110.5t-171 -303.5h778zM735 1139h-82l-149 280h94z" />
<glyph unicode="&#xe9;" horiz-adv-x="1116" d="M78 496q19 120 74 218.5t131.5 161t166.5 96.5t183 34q103 0 182 -34.5t124 -91.5t67.5 -129.5t19 -150t-28.5 -151.5h-845q-10 -83 7.5 -150.5t55.5 -113t93 -76.5t116.5 -44.5t128.5 -13.5q185 0 338 80l-12 -80q-145 -74 -336 -74q-79 0 -153 19t-138.5 60.5t-109 101 t-63 147t-1.5 191.5zM938 518q12 45 13.5 91.5t-7.5 93t-33 87.5t-60 73t-92 50.5t-126 18.5q-168 0 -302 -110.5t-171 -303.5h778zM676 1139h-88l225 280h98z" />
<glyph unicode="&#xea;" horiz-adv-x="1116" d="M78 496q19 120 74 218.5t131.5 161t166.5 96.5t183 34q103 0 182 -34.5t124 -91.5t67.5 -129.5t19 -150t-28.5 -151.5h-845q-10 -83 7.5 -150.5t55.5 -113t93 -76.5t116.5 -44.5t128.5 -13.5q185 0 338 80l-12 -80q-145 -74 -336 -74q-79 0 -153 19t-138.5 60.5t-109 101 t-63 147t-1.5 191.5zM938 518q12 45 13.5 91.5t-7.5 93t-33 87.5t-60 73t-92 50.5t-126 18.5q-168 0 -302 -110.5t-171 -303.5h778zM668 1407h67l221 -268h-86l-174 207l-237 -207h-94z" />
<glyph unicode="&#xeb;" horiz-adv-x="1116" d="M78 496q19 120 74 218.5t131.5 161t166.5 96.5t183 34q103 0 182 -34.5t124 -91.5t67.5 -129.5t19 -150t-28.5 -151.5h-845q-10 -83 7.5 -150.5t55.5 -113t93 -76.5t116.5 -44.5t128.5 -13.5q185 0 338 80l-12 -80q-145 -74 -336 -74q-79 0 -153 19t-138.5 60.5t-109 101 t-63 147t-1.5 191.5zM938 518q12 45 13.5 91.5t-7.5 93t-33 87.5t-60 73t-92 50.5t-126 18.5q-168 0 -302 -110.5t-171 -303.5h778zM944 1255q-3 -23 -22.5 -40t-44.5 -17q-28 0 -45 20t-13 48q5 23 25 41t43 18q29 0 45.5 -21t11.5 -49zM532 1255q-3 -23 -22.5 -40 t-44.5 -17q-28 0 -44.5 20t-12.5 48q5 24 24.5 41.5t42.5 17.5q29 0 45.5 -21t11.5 -49z" />
<glyph unicode="&#xec;" horiz-adv-x="425" d="M354 1139h-78l-104 280h92zM158 0h-78l156 983h77z" />
<glyph unicode="&#xed;" horiz-adv-x="425" d="M158 0h-78l156 983h77zM315 1139h-88l226 280h98z" />
<glyph unicode="&#xee;" horiz-adv-x="425" d="M158 0h-78l156 983h77zM127 1139h-94l274 268h68l192 -268h-86l-145 207z" />
<glyph unicode="&#xef;" horiz-adv-x="425" d="M158 0h-78l156 983h77zM221 1255q-3 -22 -21.5 -37.5t-41.5 -15.5q-26 0 -42 19t-12 45q5 22 23.5 38.5t40.5 16.5q27 0 42.5 -19.5t10.5 -46.5zM524 1255q-3 -22 -21.5 -37.5t-41.5 -15.5q-26 0 -42 19t-11 45q5 22 23.5 38.5t39.5 16.5q27 0 42.5 -19.5t10.5 -46.5z " />
<glyph unicode="&#xf0;" horiz-adv-x="1216" d="M1092 543q-41 -261 -203 -413.5t-389 -152.5q-106 0 -192.5 35t-144.5 97t-82 154t-7 200q32 197 189.5 326t350.5 129q106 0 195.5 -38t149 -118t65.5 -189q4 17 8 54q9 98 4 178.5t-28.5 148.5t-55 120.5t-76 95t-91.5 72.5t-101 52l-268 -231l-39 47l241 207 q-130 43 -290 43l8 74q180 0 344 -62l203 176l41 -47l-185 -158q60 -28 111 -64t99 -87.5t80 -114t55 -144t23.5 -177.5t-15.5 -213zM152 453q-29 -182 70 -291t280 -109q173 0 297.5 97.5t181.5 265.5q11 83 -2 153t-45.5 120t-80.5 85.5t-106.5 52.5t-123.5 17 q-173 0 -308.5 -109.5t-162.5 -281.5z" />
<glyph unicode="&#xf1;" horiz-adv-x="1183" d="M264 778q83 94 197 161t246 67q168 0 260 -110.5t63 -293.5l-96 -602h-78l96 600q25 157 -49.5 244.5t-212.5 87.5q-128 0 -244 -73.5t-190 -174.5l-106 -684h-78l155 983h70zM997 1317q-1 -77 -43 -121.5t-108 -44.5q-49 0 -110 27.5t-116 54.5t-92 27q-42 0 -67 -27 t-25 -70h-69q0 74 43.5 120t105.5 46q49 0 110 -27t117.5 -54t94.5 -27q45 0 67.5 25.5t22.5 70.5h69z" />
<glyph unicode="&#xf2;" horiz-adv-x="1212" d="M1100 479q-19 -118 -76 -215t-138 -159t-177.5 -95t-196.5 -33q-96 0 -182 36t-148.5 101.5t-91 167t-10.5 222.5q19 118 77.5 215t139.5 159t177.5 95t195.5 33q97 0 182.5 -36t148 -101.5t90.5 -167t9 -222.5zM158 492q-16 -100 6.5 -184t73.5 -139t123.5 -85.5 t156.5 -30.5q120 0 226 49.5t183 151t99 238.5q16 100 -6.5 183.5t-73.5 138.5t-123.5 85.5t-156.5 30.5q-120 0 -226 -49.5t-183 -150.5t-99 -238zM764 1126h-82l-150 281h95z" />
<glyph unicode="&#xf3;" horiz-adv-x="1212" d="M1100 479q-19 -118 -76 -215t-138 -159t-177.5 -95t-196.5 -33q-96 0 -182 36t-148.5 101.5t-91 167t-10.5 222.5q19 118 77.5 215t139.5 159t177.5 95t195.5 33q97 0 182.5 -36t148 -101.5t90.5 -167t9 -222.5zM158 492q-16 -100 6.5 -184t73.5 -139t123.5 -85.5 t156.5 -30.5q120 0 226 49.5t183 151t99 238.5q16 100 -6.5 183.5t-73.5 138.5t-123.5 85.5t-156.5 30.5q-120 0 -226 -49.5t-183 -150.5t-99 -238zM705 1126h-89l226 281h98z" />
<glyph unicode="&#xf4;" horiz-adv-x="1212" d="M1100 479q-19 -118 -76 -215t-138 -159t-177.5 -95t-196.5 -33q-96 0 -182 36t-148.5 101.5t-91 167t-10.5 222.5q19 118 77.5 215t139.5 159t177.5 95t195.5 33q97 0 182.5 -36t148 -101.5t90.5 -167t9 -222.5zM158 492q-16 -100 6.5 -184t73.5 -139t123.5 -85.5 t156.5 -30.5q120 0 226 49.5t183 151t99 238.5q16 100 -6.5 183.5t-73.5 138.5t-123.5 85.5t-156.5 30.5q-120 0 -226 -49.5t-183 -150.5t-99 -238zM696 1395h68l221 -269h-86l-174 207l-238 -207h-94z" />
<glyph unicode="&#xf5;" horiz-adv-x="1212" d="M1100 479q-19 -118 -76 -215t-138 -159t-177.5 -95t-196.5 -33q-96 0 -182 36t-148.5 101.5t-91 167t-10.5 222.5q19 118 77.5 215t139.5 159t177.5 95t195.5 33q97 0 182.5 -36t148 -101.5t90.5 -167t9 -222.5zM158 492q-16 -100 6.5 -184t73.5 -139t123.5 -85.5 t156.5 -30.5q120 0 226 49.5t183 151t99 238.5q16 100 -6.5 183.5t-73.5 138.5t-123.5 85.5t-156.5 30.5q-120 0 -226 -49.5t-183 -150.5t-99 -238zM1014 1305q-1 -77 -43.5 -121.5t-108.5 -44.5q-50 0 -110 27t-115 54t-92 27q-42 0 -67 -26.5t-25 -69.5h-70q0 74 43.5 120 t105.5 46q49 0 110 -27.5t117.5 -54.5t94.5 -27q45 0 67.5 25.5t22.5 71.5h70z" />
<glyph unicode="&#xf6;" horiz-adv-x="1212" d="M1100 479q-19 -118 -76 -215t-138 -159t-177.5 -95t-196.5 -33q-96 0 -182 36t-148.5 101.5t-91 167t-10.5 222.5q19 118 77.5 215t139.5 159t177.5 95t195.5 33q97 0 182.5 -36t148 -101.5t90.5 -167t9 -222.5zM158 492q-16 -100 6.5 -184t73.5 -139t123.5 -85.5 t156.5 -30.5q120 0 226 49.5t183 151t99 238.5q16 100 -6.5 183.5t-73.5 138.5t-123.5 85.5t-156.5 30.5q-120 0 -226 -49.5t-183 -150.5t-99 -238zM973 1243q-3 -23 -23 -40t-45 -17q-28 0 -44.5 19.5t-12.5 47.5q5 24 24.5 42t42.5 18q29 0 46 -21t12 -49zM561 1243 q-3 -23 -22.5 -40t-44.5 -17q-28 0 -45 19.5t-13 47.5q5 24 25 42t43 18q29 0 45.5 -21t11.5 -49z" />
<glyph unicode="&#xf7;" horiz-adv-x="1310" d="M1161 680h-983l10 74h983zM664 252q-4 -26 -22.5 -40.5t-43.5 -14.5q-27 0 -43 17.5t-12 47.5q4 25 22.5 39t42.5 14q29 0 44.5 -16.5t11.5 -46.5zM807 1167q-4 -26 -22.5 -40.5t-43.5 -14.5q-27 0 -43 18t-10 48q3 25 22 39t42 14q30 0 44.5 -17t10.5 -47z" />
<glyph unicode="&#xf8;" horiz-adv-x="1214" d="M1122 1112l-164 -205q86 -69 125.5 -178t18.5 -250q-19 -118 -76.5 -215t-138.5 -158.5t-177 -95t-196 -33.5q-136 0 -248 70l-133 -166h-74l162 199q-85 69 -123 177.5t-16 246.5q19 118 76.5 215t138.5 158.5t177 95t196 33.5q134 0 241 -66l138 172h73zM666 930 q-120 0 -226 -49.5t-183 -150.5t-99 -238q-18 -114 12 -203.5t98 -149.5l594 740q-83 51 -196 51zM518 53q120 0 226 49.5t183 151t99 238.5q18 116 -14 207t-103 149l-594 -742q86 -53 203 -53z" />
<glyph unicode="&#xf9;" horiz-adv-x="1181" d="M999 983h78l-155 -983h-72l33 207q-72 -91 -188.5 -160.5t-245.5 -69.5q-171 0 -265 111t-65 295l96 600h78l-96 -600q-24 -158 49 -245t213 -87q132 0 246 73.5t186 176.5zM735 1139h-82l-149 280h94z" />
<glyph unicode="&#xfa;" horiz-adv-x="1181" d="M999 983h78l-155 -983h-72l33 207q-72 -91 -188.5 -160.5t-245.5 -69.5q-171 0 -265 111t-65 295l96 600h78l-96 -600q-24 -158 49 -245t213 -87q132 0 246 73.5t186 176.5zM676 1139h-88l225 280h98z" />
<glyph unicode="&#xfb;" horiz-adv-x="1181" d="M999 983h78l-155 -983h-72l33 207q-72 -91 -188.5 -160.5t-245.5 -69.5q-171 0 -265 111t-65 295l96 600h78l-96 -600q-24 -158 49 -245t213 -87q132 0 246 73.5t186 176.5zM668 1407h67l221 -268h-86l-174 207l-237 -207h-94z" />
<glyph unicode="&#xfc;" horiz-adv-x="1181" d="M999 983h78l-155 -983h-72l33 207q-72 -91 -188.5 -160.5t-245.5 -69.5q-171 0 -265 111t-65 295l96 600h78l-96 -600q-24 -158 49 -245t213 -87q132 0 246 73.5t186 176.5zM944 1255q-3 -23 -22.5 -40t-44.5 -17q-28 0 -45 20t-13 48q5 23 25 41t43 18q29 0 45.5 -21 t11.5 -49zM532 1255q-3 -23 -22.5 -40t-44.5 -17q-28 0 -44.5 20t-12.5 48q5 24 24.5 41.5t42.5 17.5q29 0 45.5 -21t11.5 -49z" />
<glyph unicode="&#xfd;" horiz-adv-x="1085" d="M481 80l539 903h86l-692 -1157q-99 -162 -187.5 -230.5t-189.5 -68.5q-44 0 -105 14l11 68q47 -12 88 -12q89 0 163.5 62.5t155.5 199.5l84 141l-342 983h80zM618 1139h-88l226 280h98z" />
<glyph unicode="&#xfe;" horiz-adv-x="1257" d="M78 -451h-78l299 1885h78l-109 -682q79 113 201.5 183.5t265.5 70.5q101 0 185 -39t140.5 -107t80 -167t4.5 -214q-35 -225 -194 -363.5t-369 -138.5q-147 0 -250 73t-146 192zM205 346q28 -127 126.5 -211t243.5 -84q186 0 324.5 116.5t169.5 319.5q16 99 -3 183 t-66.5 141t-118.5 89t-156 32q-148 0 -277 -85.5t-198 -215.5z" />
<glyph unicode="&#xff;" horiz-adv-x="1085" d="M481 80l539 903h86l-692 -1157q-99 -162 -187.5 -230.5t-189.5 -68.5q-44 0 -105 14l11 68q47 -12 88 -12q89 0 163.5 62.5t155.5 199.5l84 141l-342 983h80zM887 1255q-3 -23 -23 -40t-45 -17q-28 0 -44.5 20t-12.5 48q5 24 24.5 41.5t42.5 17.5q29 0 46 -21t12 -49z M475 1255q-3 -23 -22.5 -40t-44.5 -17q-28 0 -45 20t-13 48q5 23 25 41t43 18q29 0 45.5 -21t11.5 -49z" />
<glyph unicode="&#x100;" horiz-adv-x="1454" d="M1329 0h-84l-123 418h-839l-254 -418h-92l876 1434h94zM829 1313l-501 -819h776l-242 821q-7 22 -10 41q-11 -22 -23 -43zM639 1720h541l-11 -73h-540z" />
<glyph unicode="&#x101;" d="M965 231q-81 -114 -204 -184t-269 -70q-212 0 -330 147.5t-82 379.5q36 224 197 363t368 139q142 0 248 -74t151 -187l39 238h72l-156 -983h-71zM156 496q-21 -133 18.5 -235t125 -156t202.5 -54q149 0 277 84.5t196 210.5l45 291q-24 126 -125.5 210.5t-245.5 84.5 q-181 0 -320.5 -117t-172.5 -319zM457 1270h540l-10 -74h-541z" />
<glyph unicode="&#x102;" horiz-adv-x="1454" d="M1329 0h-84l-123 418h-839l-254 -418h-92l876 1434h94zM829 1313l-501 -819h776l-242 821q-7 22 -10 41q-11 -22 -23 -43zM1157 1683q-117 -84 -270 -84q-163 0 -254 84l12 80q101 -90 246 -90q151 0 278 90z" />
<glyph unicode="&#x103;" d="M965 231q-81 -114 -204 -184t-269 -70q-212 0 -330 147.5t-82 379.5q36 224 197 363t368 139q142 0 248 -74t151 -187l39 238h72l-156 -983h-71zM156 496q-21 -133 18.5 -235t125 -156t202.5 -54q149 0 277 84.5t196 210.5l45 291q-24 126 -125.5 210.5t-245.5 84.5 q-181 0 -320.5 -117t-172.5 -319zM975 1233q-117 -84 -270 -84q-163 0 -254 84l12 80q101 -90 246 -90q151 0 278 90z" />
<glyph unicode="&#x104;" horiz-adv-x="1454" d="M1331 0q-115 -71 -192.5 -149t-87.5 -150q-8 -50 18.5 -78.5t85.5 -28.5q58 0 113 25l-11 -68q-54 -22 -120 -22q-89 0 -131 46.5t-31 123.5q21 142 264 328l-117 391h-839l-254 -418h-92l876 1434h94l422 -1434h2zM852 1356q-11 -22 -23 -43l-501 -819h776l-242 821 q-7 22 -10 41z" />
<glyph unicode="&#x105;" d="M1155 983l-156 -983q-110 -71 -185 -150t-85 -149q-8 -50 16.5 -79.5t75.5 -29.5q45 0 113 21l-10 -68q-67 -18 -119 -18q-81 0 -122.5 47t-29.5 123q23 148 279 326l33 208q-81 -114 -204 -184t-269 -70q-212 0 -330 147.5t-82 379.5q36 224 197 363t368 139 q142 0 248 -74t151 -187l39 238h72zM156 496q-21 -133 18.5 -235t125 -156t202.5 -54q149 0 277 84.5t196 210.5l45 291q-24 126 -125.5 210.5t-245.5 84.5q-181 0 -320.5 -117t-172.5 -319z" />
<glyph unicode="&#x106;" horiz-adv-x="1327" d="M127 735q18 117 64.5 220t111.5 181t145.5 139.5t169.5 100.5t180.5 59.5t180.5 20.5q219 0 377 -100l-13 -78q-142 100 -358 100q-100 0 -199.5 -25t-194.5 -78t-172.5 -129t-134 -185t-77.5 -238q-23 -136 -0.5 -243.5t75.5 -187.5t132 -132.5t169.5 -78.5t188.5 -26 q217 0 404 105l-13 -86q-186 -97 -409 -97q-107 0 -208 30.5t-188.5 91t-147 151.5t-84 212t0.5 273zM1018 1589h-88l225 281h98z" />
<glyph unicode="&#x107;" horiz-adv-x="1009" d="M80 500q16 104 60.5 190t105 143.5t135.5 97t151 57.5t152 18q169 0 287 -84l-13 -74q-103 84 -268 84q-86 0 -170 -25.5t-160 -77t-131 -139.5t-73 -201q-17 -108 6 -193.5t77 -137.5t129 -79.5t164 -27.5q173 0 322 82l-10 -80q-149 -76 -324 -76q-101 0 -188 32.5 t-151.5 95.5t-92.5 165t-8 230zM702 1139h-88l226 280h98z" />
<glyph unicode="&#x10a;" horiz-adv-x="1327" d="M127 735q18 117 64.5 220t111.5 181t145.5 139.5t169.5 100.5t180.5 59.5t180.5 20.5q219 0 377 -100l-13 -78q-142 100 -358 100q-100 0 -199.5 -25t-194.5 -78t-172.5 -129t-134 -185t-77.5 -238q-23 -136 -0.5 -243.5t75.5 -187.5t132 -132.5t169.5 -78.5t188.5 -26 q217 0 404 105l-13 -86q-186 -97 -409 -97q-107 0 -208 30.5t-188.5 91t-147 151.5t-84 212t0.5 273zM1083 1673q-4 -31 -26.5 -49t-52.5 -18q-32 0 -52 21.5t-14 55.5q6 31 28.5 49.5t51.5 18.5q33 0 52 -21.5t13 -56.5z" />
<glyph unicode="&#x10b;" horiz-adv-x="1009" d="M80 500q16 104 60.5 190t105 143.5t135.5 97t151 57.5t152 18q169 0 287 -84l-13 -74q-103 84 -268 84q-86 0 -170 -25.5t-160 -77t-131 -139.5t-73 -201q-17 -108 6 -193.5t77 -137.5t129 -79.5t164 -27.5q173 0 322 82l-10 -80q-149 -76 -324 -76q-101 0 -188 32.5 t-151.5 95.5t-92.5 165t-8 230zM768 1223q-4 -31 -27 -49.5t-53 -18.5q-32 0 -51.5 22t-13.5 56q6 31 28 49t51 18q33 0 52.5 -21.5t13.5 -55.5z" />
<glyph unicode="&#x10c;" horiz-adv-x="1327" d="M127 735q18 117 64.5 220t111.5 181t145.5 139.5t169.5 100.5t180.5 59.5t180.5 20.5q219 0 377 -100l-13 -78q-142 100 -358 100q-100 0 -199.5 -25t-194.5 -78t-172.5 -129t-134 -185t-77.5 -238q-23 -136 -0.5 -243.5t75.5 -187.5t132 -132.5t169.5 -78.5t188.5 -26 q217 0 404 105l-13 -86q-186 -97 -409 -97q-107 0 -208 30.5t-188.5 91t-147 151.5t-84 212t0.5 273zM1337 1837l-303 -268h-69l-220 268h86l175 -207l235 207h96z" />
<glyph unicode="&#x10d;" horiz-adv-x="1009" d="M80 500q16 104 60.5 190t105 143.5t135.5 97t151 57.5t152 18q169 0 287 -84l-13 -74q-103 84 -268 84q-86 0 -170 -25.5t-160 -77t-131 -139.5t-73 -201q-17 -108 6 -193.5t77 -137.5t129 -79.5t164 -27.5q173 0 322 82l-10 -80q-149 -76 -324 -76q-101 0 -188 32.5 t-151.5 95.5t-92.5 165t-8 230zM1022 1386l-303 -268h-70l-219 268h86l174 -206l236 206h96z" />
<glyph unicode="&#x10e;" horiz-adv-x="1499" d="M342 1434h416q125 0 230 -24.5t181 -70.5t131.5 -110.5t83.5 -145t37 -174.5t-10 -198q-24 -156 -90 -284.5t-172.5 -224.5t-262 -149t-347.5 -53h-424zM1331 723q26 141 0 257.5t-93.5 200t-191 129.5t-292.5 46h-344l-201 -1278h340q169 0 307 46.5t234.5 132.5 t157.5 203.5t83 262.5zM1159 1837l-303 -268h-70l-219 268h86l174 -207l236 207h96z" />
<glyph unicode="&#x10f;" d="M1395 1434h75l-98 -334h-67zM1149 1434h78l-228 -1434h-71l39 238q-79 -118 -203 -189.5t-272 -71.5q-209 0 -328.5 148t-83.5 379q24 150 105 265t199.5 176t256.5 61q148 0 252.5 -73.5t144.5 -187.5zM1022 635q-26 128 -126 212.5t-247 84.5q-184 0 -322 -116.5 t-171 -319.5q-16 -99 3.5 -183t67 -141t118.5 -89t157 -32q149 0 277 85t196 214z" />
<glyph unicode="&#x110;" horiz-adv-x="1501" d="M342 1434h418q186 0 325 -54.5t217.5 -151.5t107 -228.5t3.5 -288.5q-25 -156 -91.5 -284.5t-172.5 -224.5t-261.5 -149t-346.5 -53h-426l108 678h-139l10 76h139zM549 78q169 0 307 46.5t234.5 132.5t157.5 203.5t83 262.5q26 141 0 257.5t-93.5 200t-191 129.5 t-292.5 46h-344l-95 -602h506l-10 -76h-508l-94 -600h340z" />
<glyph unicode="&#x111;" d="M1196 1255h174l-8 -61h-174l-189 -1194h-71l39 238q-79 -118 -203 -189.5t-272 -71.5q-209 0 -328.5 148t-83.5 379q24 150 105 265t199.5 176t256.5 61q148 0 252.5 -73.5t144.5 -187.5l72 449h-377l8 61h379l29 179h78zM502 51q149 0 277 85t196 214l47 285 q-26 128 -126 212.5t-247 84.5q-184 0 -322 -116.5t-171 -319.5q-16 -99 3.5 -183t67 -141t118.5 -89t157 -32z" />
<glyph unicode="&#x112;" horiz-adv-x="1277" d="M342 1434h940l-12 -78h-860l-93 -596h797l-12 -78h-797l-96 -604h872l-14 -78h-952zM592 1720h541l-11 -73h-540z" />
<glyph unicode="&#x113;" horiz-adv-x="1116" d="M78 496q19 120 74 218.5t131.5 161t166.5 96.5t183 34q103 0 182 -34.5t124 -91.5t67.5 -129.5t19 -150t-28.5 -151.5h-845q-10 -83 7.5 -150.5t55.5 -113t93 -76.5t116.5 -44.5t128.5 -13.5q185 0 338 80l-12 -80q-145 -74 -336 -74q-79 0 -153 19t-138.5 60.5t-109 101 t-63 147t-1.5 191.5zM938 518q12 45 13.5 91.5t-7.5 93t-33 87.5t-60 73t-92 50.5t-126 18.5q-168 0 -302 -110.5t-171 -303.5h778zM416 1270h540l-10 -74h-540z" />
<glyph unicode="&#x116;" horiz-adv-x="1277" d="M342 1434h940l-12 -78h-860l-93 -596h797l-12 -78h-797l-96 -604h872l-14 -78h-952zM918 1673q-4 -31 -27 -49t-53 -18q-32 0 -52 21.5t-14 55.5q6 31 28.5 49.5t51.5 18.5q33 0 52.5 -22t13.5 -56z" />
<glyph unicode="&#x117;" horiz-adv-x="1116" d="M78 496q19 120 74 218.5t131.5 161t166.5 96.5t183 34q103 0 182 -34.5t124 -91.5t67.5 -129.5t19 -150t-28.5 -151.5h-845q-10 -83 7.5 -150.5t55.5 -113t93 -76.5t116.5 -44.5t128.5 -13.5q185 0 338 80l-12 -80q-145 -74 -336 -74q-79 0 -153 19t-138.5 60.5t-109 101 t-63 147t-1.5 191.5zM938 518q12 45 13.5 91.5t-7.5 93t-33 87.5t-60 73t-92 50.5t-126 18.5q-168 0 -302 -110.5t-171 -303.5h778zM741 1223q-4 -31 -26.5 -49.5t-52.5 -18.5q-32 0 -52 22t-14 56q6 31 28.5 49t51.5 18q33 0 52 -21.5t13 -55.5z" />
<glyph unicode="&#x118;" horiz-adv-x="1277" d="M1001 -387l-10 -68q-55 -18 -119 -18q-88 0 -130.5 47t-30.5 123q12 75 73 152.5t170 150.5h-839l227 1434h940l-12 -78h-860l-93 -596h797l-12 -78h-797l-96 -604h872l-14 -78q-263 -167 -281 -297q-8 -51 19 -81t86 -30q45 0 110 21z" />
<glyph unicode="&#x119;" horiz-adv-x="1116" d="M778 -432q-74 -41 -162 -41q-89 0 -131 46.5t-30 123.5q10 71 81.5 149.5t186.5 155.5q-102 -25 -180 -25q-79 0 -153 19t-138.5 60.5t-109 101t-63 147t-1.5 191.5q19 120 74 218.5t131.5 161t166.5 96.5t183 34q103 0 182 -34.5t124 -91.5t67.5 -129.5t19 -150 t-28.5 -151.5h-845q-10 -83 7.5 -150.5t55.5 -113t93 -76.5t116.5 -44.5t128.5 -13.5q185 0 338 80l-12 -80q-165 -110 -251 -194t-98 -156q-8 -51 19 -80t86 -29q75 3 153 46zM635 932q-168 0 -302 -110.5t-171 -303.5h778q12 45 13.5 91.5t-7.5 93t-33 87.5t-60 73 t-92 50.5t-126 18.5z" />
<glyph unicode="&#x11a;" horiz-adv-x="1277" d="M342 1434h940l-12 -78h-860l-93 -596h797l-12 -78h-797l-96 -604h872l-14 -78h-952zM1171 1837l-303 -268h-69l-219 268h86l174 -207l235 207h96z" />
<glyph unicode="&#x11b;" horiz-adv-x="1116" d="M78 496q19 120 74 218.5t131.5 161t166.5 96.5t183 34q103 0 182 -34.5t124 -91.5t67.5 -129.5t19 -150t-28.5 -151.5h-845q-10 -83 7.5 -150.5t55.5 -113t93 -76.5t116.5 -44.5t128.5 -13.5q185 0 338 80l-12 -80q-145 -74 -336 -74q-79 0 -153 19t-138.5 60.5t-109 101 t-63 147t-1.5 191.5zM938 518q12 45 13.5 91.5t-7.5 93t-33 87.5t-60 73t-92 50.5t-126 18.5q-168 0 -302 -110.5t-171 -303.5h778zM995 1386l-303 -268h-69l-220 268h86l175 -206l235 206h96z" />
<glyph unicode="&#x11e;" horiz-adv-x="1456" d="M129 743q24 147 88 268.5t150.5 202.5t194 136.5t216.5 80.5t219 25q231 0 406 -96l-12 -78q-72 46 -175 71t-212 25q-103 0 -202.5 -21.5t-198 -71t-177 -122.5t-137 -184.5t-80.5 -247.5q-21 -137 1 -251.5t77.5 -191.5t137 -130.5t175 -78t195.5 -24.5q198 0 372 80 l97 617h84l-109 -678q-221 -97 -451 -97q-114 0 -219.5 28t-197 89t-154 149t-87.5 217t-1 283zM1272 1683q-117 -84 -271 -84q-162 0 -253 84l12 80q101 -90 246 -90q151 0 278 90z" />
<glyph unicode="&#x11f;" d="M999 -2q-20 -125 -76.5 -218.5t-137.5 -147.5t-173.5 -79.5t-195.5 -25.5q-222 0 -371 98l12 74q146 -98 353 -98q93 0 174.5 22t152.5 67.5t119.5 125t65.5 186.5l36 223q-76 -109 -199 -178.5t-267 -69.5q-213 0 -330.5 147.5t-81.5 379.5q36 225 195.5 363.5 t369.5 138.5q148 0 250 -73.5t149 -195.5l37 246h74zM156 496q-32 -199 67 -322t279 -123q149 0 277 83.5t196 209.5l47 293q-26 127 -126 211t-247 84q-183 0 -321.5 -116.5t-171.5 -319.5zM956 1233q-117 -84 -270 -84q-163 0 -254 84l12 80q101 -90 246 -90q152 0 279 90 z" />
<glyph unicode="&#x120;" horiz-adv-x="1456" d="M129 743q24 147 88 268.5t150.5 202.5t194 136.5t216.5 80.5t219 25q231 0 406 -96l-12 -78q-72 46 -175 71t-212 25q-103 0 -202.5 -21.5t-198 -71t-177 -122.5t-137 -184.5t-80.5 -247.5q-21 -137 1 -251.5t77.5 -191.5t137 -130.5t175 -78t195.5 -24.5q198 0 372 80 l97 617h84l-109 -678q-221 -97 -451 -97q-114 0 -219.5 28t-197 89t-154 149t-87.5 217t-1 283zM1079 1673q-4 -31 -27 -49t-53 -18q-32 0 -51.5 21.5t-13.5 55.5q6 31 28.5 49.5t51.5 18.5q33 0 52 -21.5t13 -56.5z" />
<glyph unicode="&#x121;" d="M999 -2q-20 -125 -76.5 -218.5t-137.5 -147.5t-173.5 -79.5t-195.5 -25.5q-222 0 -371 98l12 74q146 -98 353 -98q93 0 174.5 22t152.5 67.5t119.5 125t65.5 186.5l36 223q-76 -109 -199 -178.5t-267 -69.5q-213 0 -330.5 147.5t-81.5 379.5q36 225 195.5 363.5 t369.5 138.5q148 0 250 -73.5t149 -195.5l37 246h74zM156 496q-32 -199 67 -322t279 -123q149 0 277 83.5t196 209.5l47 293q-26 127 -126 211t-247 84q-183 0 -321.5 -116.5t-171.5 -319.5zM764 1223q-4 -31 -27 -49.5t-53 -18.5q-32 0 -52 22t-14 56q6 31 28.5 49t51.5 18 q33 0 52.5 -21.5t13.5 -55.5z" />
<glyph unicode="&#x122;" horiz-adv-x="1456" d="M129 743q24 147 88 268.5t150.5 202.5t194 136.5t216.5 80.5t219 25q231 0 406 -96l-12 -78q-72 46 -175 71t-212 25q-103 0 -202.5 -21.5t-198 -71t-177 -122.5t-137 -184.5t-80.5 -247.5q-21 -137 1 -251.5t77.5 -191.5t137 -130.5t175 -78t195.5 -24.5q198 0 372 80 l97 617h84l-109 -678q-221 -97 -451 -97q-114 0 -219.5 28t-197 89t-154 149t-87.5 217t-1 283zM705 -467h-70l98 352h78z" />
<glyph unicode="&#x123;" d="M690 1124h-80l105 318h67zM999 -2q-20 -125 -76.5 -218.5t-137.5 -147.5t-173.5 -79.5t-195.5 -25.5q-222 0 -371 98l12 74q146 -98 353 -98q93 0 174.5 22t152.5 67.5t119.5 125t65.5 186.5l36 223q-76 -109 -199 -178.5t-267 -69.5q-213 0 -330.5 147.5t-81.5 379.5 q36 225 195.5 363.5t369.5 138.5q148 0 250 -73.5t149 -195.5l37 246h74zM156 496q-32 -199 67 -322t279 -123q149 0 277 83.5t196 209.5l47 293q-26 127 -126 211t-247 84q-183 0 -321.5 -116.5t-171.5 -319.5z" />
<glyph unicode="&#x126;" horiz-adv-x="1574" d="M199 0h-82l168 1057h-160l12 69h158l49 308h82l-49 -308h991l49 308h80l-47 -308h158l-11 -69h-159l-168 -1057h-80l106 682h-991zM365 1057l-48 -297h992l47 297h-991z" />
<glyph unicode="&#x127;" horiz-adv-x="1183" d="M272 784q80 91 193 156.5t242 65.5q168 0 260 -110.5t63 -293.5l-96 -602h-78l96 600q25 157 -49.5 244.5t-212.5 87.5q-129 0 -244.5 -74t-189.5 -176l-106 -682h-78l190 1194h-121l9 61h120l29 179h78l-29 -179h430l-10 -61h-428z" />
<glyph unicode="&#x12a;" horiz-adv-x="499" d="M342 1434h82l-227 -1434h-82zM160 1720h540l-10 -73h-540z" />
<glyph unicode="&#x12b;" horiz-adv-x="425" d="M537 1204h-451l10 74h451zM158 0h-78l156 983h77z" />
<glyph unicode="&#x12e;" horiz-adv-x="499" d="M197 0q-168 -168 -189 -297q-8 -51 20 -81.5t87 -29.5q77 0 153 43l-10 -67q-69 -41 -162 -41q-87 0 -130.5 47t-31.5 123q20 124 183 317l225 1420h82z" />
<glyph unicode="&#x12f;" horiz-adv-x="425" d="M264 1274q3 25 20.5 38t41.5 13q26 0 41 -15.5t12 -45.5q-4 -25 -22.5 -38.5t-41.5 -13.5q-26 0 -40.5 17t-10.5 45zM313 983l-155 -983q-165 -170 -187 -295q-8 -52 20.5 -82.5t86.5 -30.5q73 0 147 39l-10 -67q-70 -37 -154 -37q-88 0 -130.5 49.5t-30.5 124.5 q19 126 180 299l156 983h77z" />
<glyph unicode="&#x130;" horiz-adv-x="499" d="M342 1434h82l-227 -1434h-82zM485 1673q-4 -31 -26.5 -49t-52.5 -18q-32 0 -52 21.5t-14 55.5q6 31 28.5 49.5t51.5 18.5q33 0 52 -21.5t13 -56.5z" />
<glyph unicode="&#x131;" horiz-adv-x="425" d="M158 0h-78l156 983h77z" />
<glyph unicode="&#x132;" horiz-adv-x="1568" d="M342 1434h82l-227 -1434h-82zM967 1434h540l-164 -1045q-33 -207 -166 -308t-339 -101q-224 0 -357 88l13 79q131 -90 333 -90q182 0 295 83t140 257l153 959h-463z" />
<glyph unicode="&#x133;" horiz-adv-x="851" d="M158 0h-78l156 983h77zM379 1264q-4 -25 -22.5 -38.5t-41.5 -13.5q-26 0 -40.5 17t-10.5 45q3 25 20.5 38t41.5 13q26 0 41 -15.5t12 -45.5zM547 -227q-10 -68 -37.5 -117.5t-67 -76.5t-83.5 -39.5t-95 -12.5q-76 0 -145 27l10 69q58 -22 123 -22q189 0 221 188l189 1194 h77zM803 1264q-4 -25 -22.5 -38.5t-41.5 -13.5q-26 0 -40.5 17t-10.5 45q3 25 20.5 38t41.5 13q26 0 41 -15.5t12 -45.5z" />
<glyph unicode="&#x136;" horiz-adv-x="1341" d="M1319 1434h94l-620 -703l446 -731h-88l-428 696h-418l-108 -696h-82l227 1434h82l-105 -660h414zM563 -446h-69l98 352h78z" />
<glyph unicode="&#x137;" horiz-adv-x="1015" d="M926 983h92l-475 -477l370 -506h-88l-352 477h-248l-75 -477h-78l227 1434h78l-141 -883h256zM395 -446h-69l98 352h78z" />
<glyph unicode="&#x139;" horiz-adv-x="1165" d="M342 1434h82l-215 -1356h856l-12 -78h-938zM453 1589h-88l225 281h98z" />
<glyph unicode="&#x13a;" horiz-adv-x="425" d="M317 1495h78l-237 -1495h-78zM410 1602h-88l225 280h98z" />
<glyph unicode="&#x13b;" horiz-adv-x="1165" d="M342 1434h82l-215 -1356h856l-12 -78h-938zM524 -446h-69l98 352h78z" />
<glyph unicode="&#x13c;" horiz-adv-x="425" d="M317 1495h78l-237 -1495h-78zM27 -446h-70l98 352h78z" />
<glyph unicode="&#x13d;" horiz-adv-x="1167" d="M911 1434h76l-98 -334h-68zM342 1434h82l-215 -1356h856l-12 -78h-938z" />
<glyph unicode="&#x13e;" horiz-adv-x="423" d="M561 1495h76l-98 -334h-68zM315 1495h78l-237 -1495h-78z" />
<glyph unicode="&#x13f;" horiz-adv-x="1177" d="M803 686q-3 -25 -21 -39t-43 -14q-29 0 -45 17.5t-12 47.5q4 25 23 39.5t43 14.5q28 0 43.5 -18t11.5 -48zM342 1434h82l-215 -1356h856l-12 -78h-938z" />
<glyph unicode="&#x140;" horiz-adv-x="536" d="M317 1495h78l-237 -1495h-78zM561 711q-3 -25 -21 -39.5t-42 -14.5q-29 0 -45.5 18t-12.5 48q4 25 23 39t43 14q28 0 43.5 -17.5t11.5 -47.5z" />
<glyph unicode="&#x141;" horiz-adv-x="1175" d="M1061 0h-936l92 586l-201 -82l13 69l200 82l123 779h80l-119 -748l514 209l-12 -70l-512 -209l-84 -538h856z" />
<glyph unicode="&#x142;" horiz-adv-x="483" d="M346 1495h78l-109 -680l193 78l-12 -70l-191 -78l-119 -745h-77l112 713l-190 -78l10 70l192 79z" />
<glyph unicode="&#x143;" horiz-adv-x="1570" d="M197 0h-82l227 1434h68l800 -1301q2 24 7.5 60.5t7.5 50.5l190 1190h80l-227 -1434h-66l-801 1303q-2 -14 -8 -52.5t-8 -58.5zM958 1589h-88l226 281h98z" />
<glyph unicode="&#x144;" horiz-adv-x="1183" d="M264 778q83 94 197 161t246 67q168 0 260 -110.5t63 -293.5l-96 -602h-78l96 600q25 157 -49.5 244.5t-212.5 87.5q-128 0 -244 -73.5t-190 -174.5l-106 -684h-78l155 983h70zM688 1139h-88l225 280h99z" />
<glyph unicode="&#x145;" horiz-adv-x="1570" d="M197 0h-82l227 1434h68l800 -1301q2 24 7.5 60.5t7.5 50.5l190 1190h80l-227 -1434h-66l-801 1303q-2 -14 -8 -52.5t-8 -58.5zM639 -446h-70l99 352h77z" />
<glyph unicode="&#x146;" horiz-adv-x="1183" d="M264 778q83 94 197 161t246 67q168 0 260 -110.5t63 -293.5l-96 -602h-78l96 600q25 157 -49.5 244.5t-212.5 87.5q-128 0 -244 -73.5t-190 -174.5l-106 -684h-78l155 983h70zM436 -446h-69l98 352h78z" />
<glyph unicode="&#x147;" horiz-adv-x="1570" d="M197 0h-82l227 1434h68l800 -1301q2 24 7.5 60.5t7.5 50.5l190 1190h80l-227 -1434h-66l-801 1303q-2 -14 -8 -52.5t-8 -58.5zM1278 1837l-303 -268h-70l-219 268h86l174 -207l236 207h96z" />
<glyph unicode="&#x148;" horiz-adv-x="1183" d="M264 778q83 94 197 161t246 67q168 0 260 -110.5t63 -293.5l-96 -602h-78l96 600q25 157 -49.5 244.5t-212.5 87.5q-128 0 -244 -73.5t-190 -174.5l-106 -684h-78l155 983h70zM1008 1386l-303 -268h-70l-219 268h86l174 -206l235 206h97z" />
<glyph unicode="&#x14a;" horiz-adv-x="1572" d="M1235 -219q-22 -132 -98.5 -193t-190.5 -61q-78 0 -145 24l12 74q58 -20 119 -20q93 0 150 43.5t73 144.5l35 223l-789 1287q-2 -14 -8 -52.5t-8 -58.5l-188 -1192h-82l227 1434h68l800 -1301q2 24 7.5 60.5t7.5 50.5l190 1190h80z" />
<glyph unicode="&#x14b;" horiz-adv-x="1183" d="M899 -227q-39 -246 -285 -246q-79 0 -145 27l12 69q55 -22 125 -22q187 0 217 188l129 811q25 157 -49.5 244.5t-212.5 87.5q-128 0 -244 -73.5t-190 -174.5l-106 -684h-78l155 983h70l-33 -205q83 94 197 161t246 67q168 0 260 -110.5t63 -293.5z" />
<glyph unicode="&#x14c;" horiz-adv-x="1687" d="M1604 711q-17 -109 -62.5 -214t-121.5 -199t-173 -165.5t-226 -113.5t-273 -42q-101 0 -189.5 22.5t-155.5 62t-122 95t-88.5 121t-56 139.5t-24 151t8.5 155q17 109 63.5 214t122.5 199t173.5 165t225.5 113t269 42q101 0 189.5 -22.5t155.5 -62t122 -94.5t89 -120.5 t56.5 -139.5t24 -151t-7.5 -155zM201 715q-8 -68 -8 -135.5t18.5 -132.5t47 -123t76.5 -107.5t107 -85.5t138.5 -56t171.5 -20q159 0 297.5 57.5t234 152.5t157 212t81.5 242q8 68 8 135t-18.5 132.5t-47 123.5t-76.5 107t-107 85t-138.5 56t-171.5 20q-160 0 -298.5 -57.5 t-234 -152.5t-156.5 -211.5t-81 -241.5zM754 1720h540l-10 -73h-541z" />
<glyph unicode="&#x14d;" horiz-adv-x="1212" d="M1100 479q-19 -118 -76 -215t-138 -159t-177.5 -95t-196.5 -33q-96 0 -182 36t-148.5 101.5t-91 167t-10.5 222.5q19 118 77.5 215t139.5 159t177.5 95t195.5 33q97 0 182.5 -36t148 -101.5t90.5 -167t9 -222.5zM158 492q-16 -100 6.5 -184t73.5 -139t123.5 -85.5 t156.5 -30.5q120 0 226 49.5t183 151t99 238.5q16 100 -6.5 183.5t-73.5 138.5t-123.5 85.5t-156.5 30.5q-120 0 -226 -49.5t-183 -150.5t-99 -238zM444 1257h541l-10 -73h-541z" />
<glyph unicode="&#x150;" horiz-adv-x="1687" d="M1604 711q-17 -109 -62.5 -214t-121.5 -199t-173 -165.5t-226 -113.5t-273 -42q-101 0 -189.5 22.5t-155.5 62t-122 95t-88.5 121t-56 139.5t-24 151t8.5 155q17 109 63.5 214t122.5 199t173.5 165t225.5 113t269 42q101 0 189.5 -22.5t155.5 -62t122 -94.5t89 -120.5 t56.5 -139.5t24 -151t-7.5 -155zM201 715q-8 -68 -8 -135.5t18.5 -132.5t47 -123t76.5 -107.5t107 -85.5t138.5 -56t171.5 -20q159 0 297.5 57.5t234 152.5t157 212t81.5 242q8 68 8 135t-18.5 132.5t-47 123.5t-76.5 107t-107 85t-138.5 56t-171.5 20q-160 0 -298.5 -57.5 t-234 -152.5t-156.5 -211.5t-81 -241.5zM1198 1595h-86l199 293h90zM885 1595h-86l198 293h90z" />
<glyph unicode="&#x151;" horiz-adv-x="1212" d="M1100 479q-19 -118 -76 -215t-138 -159t-177.5 -95t-196.5 -33q-96 0 -182 36t-148.5 101.5t-91 167t-10.5 222.5q19 118 77.5 215t139.5 159t177.5 95t195.5 33q97 0 182.5 -36t148 -101.5t90.5 -167t9 -222.5zM158 492q-16 -100 6.5 -184t73.5 -139t123.5 -85.5 t156.5 -30.5q120 0 226 49.5t183 151t99 238.5q16 100 -6.5 183.5t-73.5 138.5t-123.5 85.5t-156.5 30.5q-120 0 -226 -49.5t-183 -150.5t-99 -238zM889 1133h-86l198 292h91zM575 1133h-86l199 292h90z" />
<glyph unicode="&#x152;" horiz-adv-x="2095" d="M999 0q-106 -23 -235 -23q-90 0 -170.5 17.5t-144.5 49t-118.5 76t-92 98.5t-66.5 116t-41 129.5t-15 138t11 141.5q22 133 90.5 259t174 228t255.5 164t320 62q147 0 243 -22h893l-14 -78h-797l-94 -596h737l-12 -78h-737l-96 -604h811l-13 -78h-889zM207 731 q-10 -73 -9.5 -144t19.5 -138t49 -126t79.5 -108.5t110 -85t141 -55t173.5 -19.5q130 0 238 27l202 1270q-91 26 -247 26q-123 0 -235.5 -37t-199 -99.5t-154.5 -145.5t-109.5 -176t-57.5 -189z" />
<glyph unicode="&#x153;" horiz-adv-x="2027" d="M1020 313q-71 -162 -207.5 -249t-308.5 -87q-93 0 -177 36.5t-146 102t-90.5 167t-10.5 221.5q19 119 77 216t139 158.5t175 94.5t191 33q157 0 271 -91.5t138 -250.5q66 163 196.5 252.5t282.5 89.5q103 0 181.5 -34.5t123 -92t66 -131t17.5 -152t-29 -154.5h-828 q-13 -99 16.5 -176.5t88.5 -123t131.5 -68.5t152.5 -23q179 0 332 80l-12 -80q-145 -74 -334 -74q-77 0 -148 20t-132 60t-102.5 106t-53.5 150zM158 494q-16 -100 6.5 -184.5t73 -140t121 -86t151.5 -30.5q191 0 329 116.5t171 322.5q31 199 -73.5 318.5t-279.5 119.5 q-116 0 -220 -49t-180.5 -150t-98.5 -237zM1552 932q-164 0 -293.5 -111t-166.5 -309h759q15 56 15.5 113t-17.5 112.5t-53 98.5t-98 69.5t-146 26.5z" />
<glyph unicode="&#x154;" horiz-adv-x="1404" d="M197 0h-82l227 1434h537q76 0 145.5 -13.5t133 -46t106.5 -80t62 -121.5t5 -165q-16 -101 -65.5 -179t-121 -125t-150.5 -73t-167 -33l437 -598h-97l-432 592h-446zM410 1356l-107 -686h465q82 0 157 18t144 57t117 109t63 164q15 92 -11 160.5t-83.5 106t-126 54.5 t-149.5 17h-469zM856 1589h-88l225 281h99z" />
<glyph unicode="&#x155;" horiz-adv-x="706" d="M256 715q72 131 198 213t289 76l-12 -80q-109 7 -210 -40.5t-170 -123.5t-107 -168l-94 -592h-78l155 983h72zM524 1139h-88l226 280h98z" />
<glyph unicode="&#x156;" horiz-adv-x="1404" d="M197 0h-82l227 1434h537q76 0 145.5 -13.5t133 -46t106.5 -80t62 -121.5t5 -165q-16 -101 -65.5 -179t-121 -125t-150.5 -73t-167 -33l437 -598h-97l-432 592h-446zM410 1356l-107 -686h465q82 0 157 18t144 57t117 109t63 164q15 92 -11 160.5t-83.5 106t-126 54.5 t-149.5 17h-469zM598 -446h-70l99 352h78z" />
<glyph unicode="&#x157;" horiz-adv-x="706" d="M256 715q72 131 198 213t289 76l-12 -80q-109 7 -210 -40.5t-170 -123.5t-107 -168l-94 -592h-78l155 983h72zM31 -446h-70l98 352h78z" />
<glyph unicode="&#x158;" horiz-adv-x="1404" d="M197 0h-82l227 1434h537q76 0 145.5 -13.5t133 -46t106.5 -80t62 -121.5t5 -165q-16 -101 -65.5 -179t-121 -125t-150.5 -73t-167 -33l437 -598h-97l-432 592h-446zM410 1356l-107 -686h465q82 0 157 18t144 57t117 109t63 164q15 92 -11 160.5t-83.5 106t-126 54.5 t-149.5 17h-469zM1176 1837l-304 -268h-69l-219 268h86l174 -207l235 207h97z" />
<glyph unicode="&#x159;" horiz-adv-x="706" d="M256 715q72 131 198 213t289 76l-12 -80q-109 7 -210 -40.5t-170 -123.5t-107 -168l-94 -592h-78l155 983h72zM844 1386l-303 -268h-70l-219 268h86l174 -206l236 206h96z" />
<glyph unicode="&#x15a;" horiz-adv-x="1165" d="M197 1116q14 88 65.5 155.5t125.5 106.5t157.5 58.5t171.5 19.5q232 0 397 -104l-10 -78q-153 104 -387 104q-79 0 -149.5 -14.5t-132 -45t-103 -84.5t-53.5 -126q-11 -68 10.5 -121.5t67 -89.5t107 -65.5t131 -55t139 -52t130.5 -62t105.5 -79t65 -109.5t7.5 -148 q-14 -93 -64 -162.5t-125 -109t-160.5 -58.5t-182.5 -19q-132 0 -258 32.5t-219 88.5l12 80q197 -123 463 -123q86 0 159.5 14.5t137 45t104.5 85.5t52 130q11 72 -10.5 129t-66.5 95t-106.5 69.5t-131 57t-139 51.5t-130.5 60t-106 76t-65.5 105.5t-8.5 142.5zM721 1589 h-88l225 281h98z" />
<glyph unicode="&#x15b;" horiz-adv-x="937" d="M123 754q10 66 48.5 116t95 79t120.5 43t133 14q92 0 178.5 -24t147.5 -62l-10 -74q-58 40 -143 64t-175 24q-121 0 -212.5 -47.5t-104.5 -141.5q-9 -59 22.5 -100.5t88 -65.5t126 -44t139 -42t124.5 -52t84.5 -83.5t17.5 -126.5q-14 -87 -77.5 -146t-148 -83.5 t-186.5 -24.5q-103 0 -202.5 28.5t-159.5 74.5l12 76q64 -49 159.5 -77t192.5 -28q131 0 224.5 46t109.5 141q7 46 -10.5 81.5t-53.5 58.5t-84.5 41t-103 33t-108.5 31.5t-102 39t-83 52t-51.5 75.5t-7.5 104zM551 1139h-88l225 280h98z" />
<glyph unicode="&#x15e;" horiz-adv-x="1165" d="M709 -313q-11 -75 -77 -117.5t-177 -42.5q-114 0 -209 45l12 66q84 -46 191 -46q90 0 138 28.5t54 74.5q6 40 -29.5 64t-91.5 25t-121 -15l82 211q-127 3 -244 33.5t-204 84.5l12 80q197 -123 463 -123q86 0 159.5 14.5t137 45t104.5 85.5t52 130q11 72 -10.5 129 t-66.5 95t-106.5 69.5t-131 57t-139 51.5t-130.5 60t-106 76t-65.5 105.5t-8.5 142.5q14 88 65.5 155.5t125.5 106.5t157.5 58.5t171.5 19.5q232 0 397 -104l-10 -78q-153 104 -387 104q-79 0 -149.5 -14.5t-132 -45t-103 -84.5t-53.5 -126q-11 -68 10.5 -121.5t67 -89.5 t107 -65.5t131 -55t139 -52t130.5 -62t105.5 -79t65 -109.5t7.5 -148q-13 -88 -59.5 -155.5t-115 -107.5t-148.5 -60.5t-170 -22.5l-64 -156q95 18 164.5 -19t59.5 -118z" />
<glyph unicode="&#x15f;" horiz-adv-x="937" d="M584 -313q-9 -74 -75 -117t-177 -43q-117 0 -209 45l10 66q84 -46 193 -46q89 0 137 28.5t53 74.5q7 40 -28 64t-91.5 25t-122.5 -15l82 211q-93 3 -182 30.5t-145 69.5l12 76q64 -49 159.5 -77t192.5 -28q131 0 224.5 46t109.5 141q7 46 -10.5 81.5t-53.5 58.5t-84.5 41 t-103 33t-108.5 31.5t-102 39t-83 52t-51.5 75.5t-7.5 104q10 66 48.5 116t95 79t120.5 43t133 14q92 0 178.5 -24t147.5 -62l-10 -74q-58 40 -143 64t-175 24q-121 0 -212.5 -47.5t-104.5 -141.5q-9 -59 22.5 -100.5t88 -65.5t126 -44t139 -42t124.5 -52t84.5 -83.5 t17.5 -126.5q-19 -121 -124.5 -183.5t-252.5 -67.5l-64 -156q95 18 164 -19t58 -118z" />
<glyph unicode="&#x160;" horiz-adv-x="1165" d="M197 1116q14 88 65.5 155.5t125.5 106.5t157.5 58.5t171.5 19.5q232 0 397 -104l-10 -78q-153 104 -387 104q-79 0 -149.5 -14.5t-132 -45t-103 -84.5t-53.5 -126q-11 -68 10.5 -121.5t67 -89.5t107 -65.5t131 -55t139 -52t130.5 -62t105.5 -79t65 -109.5t7.5 -148 q-14 -93 -64 -162.5t-125 -109t-160.5 -58.5t-182.5 -19q-132 0 -258 32.5t-219 88.5l12 80q197 -123 463 -123q86 0 159.5 14.5t137 45t104.5 85.5t52 130q11 72 -10.5 129t-66.5 95t-106.5 69.5t-131 57t-139 51.5t-130.5 60t-106 76t-65.5 105.5t-8.5 142.5zM1040 1837 l-303 -268h-69l-219 268h86l174 -207l235 207h96z" />
<glyph unicode="&#x161;" horiz-adv-x="937" d="M123 754q10 66 48.5 116t95 79t120.5 43t133 14q92 0 178.5 -24t147.5 -62l-10 -74q-58 40 -143 64t-175 24q-121 0 -212.5 -47.5t-104.5 -141.5q-9 -59 22.5 -100.5t88 -65.5t126 -44t139 -42t124.5 -52t84.5 -83.5t17.5 -126.5q-14 -87 -77.5 -146t-148 -83.5 t-186.5 -24.5q-103 0 -202.5 28.5t-159.5 74.5l12 76q64 -49 159.5 -77t192.5 -28q131 0 224.5 46t109.5 141q7 46 -10.5 81.5t-53.5 58.5t-84.5 41t-103 33t-108.5 31.5t-102 39t-83 52t-51.5 75.5t-7.5 104zM870 1386l-303 -268h-69l-219 268h86l174 -206l235 206h96z" />
<glyph unicode="&#x162;" horiz-adv-x="1208" d="M156 1434h1161l-14 -78h-539l-215 -1356h-80l213 1356h-539zM430 -446h-70l99 352h78z" />
<glyph unicode="&#x163;" horiz-adv-x="757" d="M319 1300l80 25l-53 -342h428l-10 -74h-428l-100 -624q-39 -234 198 -234q123 0 223 51l-12 -75q-98 -50 -231 -50q-136 0 -208 79t-48 223l100 630h-184l10 74h184zM342 -446h-70l99 352h78z" />
<glyph unicode="&#x164;" horiz-adv-x="1208" d="M156 1434h1161l-14 -78h-539l-215 -1356h-80l213 1356h-539zM1100 1837l-303 -268h-70l-219 268h86l174 -207l236 207h96z" />
<glyph unicode="&#x165;" horiz-adv-x="757" d="M649 1466h76l-98 -325h-68zM319 1300l80 25l-53 -342h428l-10 -74h-428l-100 -624q-39 -234 198 -234q123 0 223 51l-12 -75q-98 -50 -231 -50q-136 0 -208 79t-48 223l100 630h-184l10 74h184z" />
<glyph unicode="&#x166;" horiz-adv-x="1232" d="M561 0h-80l109 692h-275l11 70h276l92 594h-538l12 78h1161l-14 -78h-539l-92 -594h274l-10 -70h-276z" />
<glyph unicode="&#x167;" horiz-adv-x="761" d="M778 983l-10 -74h-428l-45 -278h338l-12 -70h-338l-43 -276q-39 -234 198 -234q124 0 224 51l-13 -75q-98 -50 -231 -50q-136 0 -208 79t-48 223l43 282h-111l12 70h111l45 278h-184l10 74h184l52 317l79 25l-53 -342h428z" />
<glyph unicode="&#x16a;" horiz-adv-x="1540" d="M1399 1434h82l-148 -936q-18 -114 -61 -203.5t-102.5 -148.5t-138.5 -97.5t-164.5 -55t-184.5 -16.5t-181 17.5t-152 56t-112 100t-60.5 149.5t1.5 204l148 930h82l-148 -932q-71 -447 420 -447q501 0 573 451zM674 1720h540l-10 -73h-540z" />
<glyph unicode="&#x16b;" horiz-adv-x="1181" d="M999 983h78l-155 -983h-72l33 207q-72 -91 -188.5 -160.5t-245.5 -69.5q-171 0 -265 111t-65 295l96 600h78l-96 -600q-24 -158 49 -245t213 -87q132 0 246 73.5t186 176.5zM416 1270h540l-10 -74h-540z" />
<glyph unicode="&#x16e;" horiz-adv-x="1540" d="M1399 1434h82l-148 -936q-18 -114 -61 -203.5t-102.5 -148.5t-138.5 -97.5t-164.5 -55t-184.5 -16.5t-181 17.5t-152 56t-112 100t-60.5 149.5t1.5 204l148 930h82l-148 -932q-71 -447 420 -447q501 0 573 451zM1130 1722q-13 -79 -75 -128.5t-135 -49.5q-78 0 -128.5 53 t-37.5 136q13 79 75.5 127.5t137.5 48.5q78 0 127 -52.5t36 -134.5zM815 1726q-9 -55 23 -89.5t82 -34.5q54 0 98 34t53 93q9 53 -22.5 87.5t-79.5 34.5q-56 0 -100.5 -34t-53.5 -91z" />
<glyph unicode="&#x16f;" horiz-adv-x="1181" d="M999 983h78l-155 -983h-72l33 207q-72 -91 -188.5 -160.5t-245.5 -69.5q-171 0 -265 111t-65 295l96 600h78l-96 -600q-24 -158 49 -245t213 -87q132 0 246 73.5t186 176.5zM872 1272q-13 -79 -75 -128.5t-135 -49.5q-79 0 -129 52.5t-37 135.5q13 79 75.5 127.5 t137.5 48.5q78 0 127 -52t36 -134zM557 1276q-9 -55 23 -90t82 -35q54 0 98 34t53 93q9 53 -22.5 88t-79.5 35q-56 0 -100.5 -34t-53.5 -91z" />
<glyph unicode="&#x170;" horiz-adv-x="1540" d="M1399 1434h82l-148 -936q-18 -114 -61 -203.5t-102.5 -148.5t-138.5 -97.5t-164.5 -55t-184.5 -16.5t-181 17.5t-152 56t-112 100t-60.5 149.5t1.5 204l148 930h82l-148 -932q-71 -447 420 -447q501 0 573 451zM1118 1595h-86l199 293h90zM805 1595h-86l199 293h90z" />
<glyph unicode="&#x171;" horiz-adv-x="1181" d="M999 983h78l-155 -983h-72l33 207q-72 -91 -188.5 -160.5t-245.5 -69.5q-171 0 -265 111t-65 295l96 600h78l-96 -600q-24 -158 49 -245t213 -87q132 0 246 73.5t186 176.5zM860 1145h-86l199 293h90zM547 1145h-86l198 293h91z" />
<glyph unicode="&#x172;" horiz-adv-x="1540" d="M1253 506l146 928h82l-148 -936q-41 -269 -225 -402q-151 -111 -231 -212.5t-93 -182.5q-8 -50 21 -80t84 -29q81 0 155 41l-10 -65q-77 -41 -164 -41t-131 47t-32 123q19 141 229 321q-107 -41 -254 -41q-99 0 -181 17.5t-152 56t-112 100t-60.5 149.5t1.5 204l148 930 h82l-148 -932q-71 -447 420 -447q501 0 573 451z" />
<glyph unicode="&#x173;" horiz-adv-x="1181" d="M1077 983l-155 -983q-109 -71 -184 -150t-85 -149q-8 -50 16.5 -79.5t75.5 -29.5q48 0 109 21l-10 -68q-63 -18 -115 -18q-81 0 -122 47t-29 123q24 150 276 326l29 184q-72 -91 -188.5 -160.5t-245.5 -69.5q-171 0 -265 111t-65 295l96 600h78l-96 -600 q-24 -158 49 -245t213 -87q132 0 246 73.5t186 176.5l108 682h78z" />
<glyph unicode="&#x174;" horiz-adv-x="2033" d="M2025 1434h86l-677 -1434h-93l-213 1278l-622 -1278h-94l-230 1434h82l211 -1328l641 1315h68l219 -1304zM1180 1858h67l221 -269h-86l-174 207l-237 -207h-94z" />
<glyph unicode="&#x175;" horiz-adv-x="1630" d="M1556 983h84l-522 -983h-80l-178 864l-457 -864h-81l-211 983h77l189 -881l461 869h71l181 -869zM905 1407h68l221 -268h-86l-174 207l-238 -207h-94z" />
<glyph unicode="&#x176;" horiz-adv-x="1292" d="M592 0h-80l90 571l-426 863h86l389 -783l639 783h94l-700 -863zM801 1858h67l222 -269h-86l-175 207l-237 -207h-94z" />
<glyph unicode="&#x177;" horiz-adv-x="1085" d="M481 80l539 903h86l-692 -1157q-99 -162 -187.5 -230.5t-189.5 -68.5q-44 0 -105 14l11 68q47 -12 88 -12q89 0 163.5 62.5t155.5 199.5l84 141l-342 983h80zM610 1407h68l221 -268h-86l-174 207l-238 -207h-94z" />
<glyph unicode="&#x178;" horiz-adv-x="1292" d="M592 0h-80l90 571l-426 863h86l389 -783l639 783h94l-700 -863zM1077 1706q-3 -23 -22.5 -40t-44.5 -17q-28 0 -45 19.5t-13 47.5q5 24 25 42t43 18q29 0 45.5 -21t11.5 -49zM666 1706q-3 -23 -23 -40t-45 -17q-28 0 -44.5 19.5t-12.5 47.5q5 24 24.5 42t42.5 18 q29 0 46 -21t12 -49z" />
<glyph unicode="&#x179;" horiz-adv-x="1169" d="M1016 0h-1057l10 72l1139 1284h-899l12 78h1004l-13 -72l-1138 -1284h954zM778 1589h-88l225 281h99z" />
<glyph unicode="&#x17a;" horiz-adv-x="915" d="M152 983h737l-10 -65l-799 -848h688l-10 -70h-789l11 66l800 847h-639zM563 1139h-88l225 280h99z" />
<glyph unicode="&#x17b;" horiz-adv-x="1169" d="M1016 0h-1057l10 72l1139 1284h-899l12 78h1004l-13 -72l-1138 -1284h954zM844 1673q-4 -31 -27 -49t-53 -18q-32 0 -52 21.5t-14 55.5q6 31 28.5 49.5t51.5 18.5q33 0 52.5 -22t13.5 -56z" />
<glyph unicode="&#x17c;" horiz-adv-x="915" d="M152 983h737l-10 -65l-799 -848h688l-10 -70h-789l11 66l800 847h-639zM629 1223q-4 -31 -27 -49.5t-53 -18.5q-32 0 -52 22t-14 56q6 31 28.5 49t51.5 18q33 0 52.5 -21.5t13.5 -55.5z" />
<glyph unicode="&#x17d;" horiz-adv-x="1169" d="M1016 0h-1057l10 72l1139 1284h-899l12 78h1004l-13 -72l-1138 -1284h954zM1098 1837l-303 -268h-70l-219 268h86l174 -207l235 207h97z" />
<glyph unicode="&#x17e;" horiz-adv-x="915" d="M152 983h737l-10 -65l-799 -848h688l-10 -70h-789l11 66l800 847h-639zM883 1386l-303 -268h-70l-219 268h86l174 -206l235 206h97z" />
<glyph unicode="&#x2c6;" horiz-adv-x="563" d="M498 1858h67l221 -269h-86l-174 207l-237 -207h-94z" />
<glyph unicode="&#x2da;" horiz-adv-x="421" d="M629 1722q-13 -79 -75 -128.5t-136 -49.5q-78 0 -128.5 53t-37.5 136q13 79 75.5 127.5t137.5 48.5q78 0 127.5 -52.5t36.5 -134.5zM313 1726q-9 -55 23 -89.5t82 -34.5q54 0 98 34t53 93q9 53 -22.5 87.5t-79.5 34.5q-56 0 -100.5 -34t-53.5 -91z" />
<glyph unicode="&#x2dc;" horiz-adv-x="653" d="M866 1767q-1 -77 -43 -121t-108 -44q-49 0 -110 27t-116 54t-92 27q-42 0 -67 -26.5t-25 -69.5h-69q0 74 43.5 120t105.5 46q49 0 110 -27t117.5 -54.5t94.5 -27.5q45 0 67.5 25.5t22.5 70.5h69z" />
<glyph unicode="&#x401;" horiz-adv-x="1273" d="M1120 1706q-3 -23 -22.5 -40t-44.5 -17q-28 0 -45 19.5t-13 47.5q5 24 25 42t43 18q29 0 45.5 -21t11.5 -49zM709 1706q-3 -23 -23 -40t-45 -17q-28 0 -44.5 19.5t-12.5 47.5q5 24 24.5 42t42.5 18q29 0 46 -21t12 -49zM342 1434h940l-12 -78h-860l-93 -596h797l-12 -78 h-797l-96 -604h872l-14 -78h-952z" />
<glyph unicode="&#x410;" horiz-adv-x="1452" d="M1329 0h-84l-123 418h-839l-254 -418h-92l876 1434h94zM829 1313l-501 -819h776l-242 821q-7 22 -10 41q-11 -22 -23 -43z" />
<glyph unicode="&#x411;" horiz-adv-x="1351" d="M326 821h397q95 0 171 -9.5t150.5 -37t120.5 -72t67.5 -120t4.5 -176.5q-15 -100 -59 -174t-103 -117.5t-141 -70t-160.5 -35.5t-175.5 -9h-483l227 1434h952l-14 -78h-870zM209 78h401q85 0 151.5 7t137 28t120 57t87 98.5t51.5 147.5q13 83 -5 144t-56 95.5t-101.5 55 t-126 26.5t-145.5 6h-410z" />
<glyph unicode="&#x412;" horiz-adv-x="1392" d="M342 1434h532q102 0 185 -22.5t142.5 -66t85.5 -115t11 -163.5q-22 -136 -111.5 -213.5t-217.5 -99.5q46 -9 86.5 -24t82.5 -44.5t69 -69t40 -100.5t2 -135q-63 -381 -608 -381h-526zM1169 399q12 78 -8.5 137t-58 91.5t-93 52.5t-102.5 25.5t-98 5.5h-500l-100 -633h428 q51 0 93 2.5t94.5 10t94.5 21t85.5 38t75 57.5t55.5 82t34 110zM1217 1071q24 148 -73 216.5t-286 68.5h-448l-91 -568h515q69 0 130 16t114.5 48.5t90 88.5t48.5 130z" />
<glyph unicode="&#x413;" horiz-adv-x="1179" d="M197 0h-82l227 1434h928l-15 -78h-845z" />
<glyph unicode="&#x414;" horiz-adv-x="1540" d="M-35 -356h-78l70 434h156q174 247 295 610t180 746h842l-216 -1356h179l-70 -434h-78l55 356h-1280zM657 1356q-66 -366 -181.5 -707.5t-272.5 -570.5h932l202 1278h-680z" />
<glyph unicode="&#x415;" horiz-adv-x="1273" d="M342 1434h940l-12 -78h-860l-93 -596h797l-12 -78h-797l-96 -604h872l-14 -78h-952z" />
<glyph unicode="&#x416;" horiz-adv-x="1898" d="M1866 1434h92l-547 -699l375 -735h-86l-354 696h-338l-109 -696h-82l111 696h-328l-577 -696h-97l611 735l-326 699h86l307 -660h336l104 660h82l-104 -660h330z" />
<glyph unicode="&#x417;" horiz-adv-x="1234" d="M1096 379q-14 -86 -57 -155.5t-103 -114.5t-136.5 -75.5t-154 -43.5t-158.5 -13q-279 0 -485 91l12 79q192 -92 471 -92q70 0 137 10.5t134 36t119.5 63.5t90.5 97.5t50 134.5q11 71 -8.5 126.5t-60 90t-100 56.5t-122 30.5t-133.5 8.5h-273l13 77h264q191 0 319.5 79.5 t151.5 217.5q11 73 -14.5 130.5t-79.5 93t-127 53.5t-160 18q-134 0 -243 -23t-226 -75l12 80q215 96 467 96q102 0 189 -24t151.5 -70t94.5 -119t16 -164q-20 -133 -122.5 -219t-256.5 -110q57 -8 107 -24t97 -46t77.5 -70t44 -99.5t2.5 -131.5z" />
<glyph unicode="&#x418;" horiz-adv-x="1570" d="M1495 1434l-227 -1434h-80l188 1194q3 15 9.5 49.5t9.5 54.5l-1205 -1298h-75l227 1434h82l-193 -1198q-4 -35 -16 -101l1204 1299h76z" />
<glyph unicode="&#x419;" horiz-adv-x="1570" d="M1495 1434l-227 -1434h-80l188 1194q3 15 9.5 49.5t9.5 54.5l-1205 -1298h-75l227 1434h82l-193 -1198q-4 -35 -16 -101l1204 1299h76zM1229 1683q-117 -84 -271 -84q-162 0 -253 84l12 80q101 -90 246 -90q151 0 278 90z" />
<glyph unicode="&#x41a;" horiz-adv-x="1341" d="M1319 1434h94l-620 -703l446 -731h-88l-428 696h-418l-108 -696h-82l227 1434h82l-105 -660h414z" />
<glyph unicode="&#x41b;" horiz-adv-x="1509" d="M616 1434h818l-228 -1434h-80l213 1356h-657q-29 -128 -50.5 -217.5t-51 -206t-53.5 -198t-55 -178.5t-60.5 -164t-64.5 -138t-71 -116.5t-77.5 -84t-87 -56t-95.5 -17.5q-64 0 -114 20l12 78q47 -17 92 -17q47 0 91 24t82 64t75.5 107t68.5 136t65 170.5t60 190.5 t58 215t55 226t55 240z" />
<glyph unicode="&#x41c;" horiz-adv-x="1845" d="M1692 1434h77l-227 -1434h-80l203 1282l-743 -895h-56l-465 897l-204 -1284h-82l227 1434h70l491 -951z" />
<glyph unicode="&#x41d;" horiz-adv-x="1570" d="M1415 1434h80l-227 -1434h-80l106 682h-991l-106 -682h-82l227 1434h82l-107 -674h992z" />
<glyph unicode="&#x41e;" horiz-adv-x="1687" d="M1604 711q-17 -109 -62.5 -214t-121.5 -199t-173 -165.5t-226 -113.5t-273 -42q-101 0 -189.5 22.5t-155.5 62t-122 95t-88.5 121t-56 139.5t-24 151t8.5 155q17 109 63.5 214t122.5 199t173.5 165t225.5 113t269 42q101 0 189.5 -22.5t155.5 -62t122 -94.5t89 -120.5 t56.5 -139.5t24 -151t-7.5 -155zM201 715q-8 -68 -8 -135.5t18.5 -132.5t47 -123t76.5 -107.5t107 -85.5t138.5 -56t171.5 -20q159 0 297.5 57.5t234 152.5t157 212t81.5 242q8 68 8 135t-18.5 132.5t-47 123.5t-76.5 107t-107 85t-138.5 56t-171.5 20q-160 0 -298.5 -57.5 t-234 -152.5t-156.5 -211.5t-81 -241.5z" />
<glyph unicode="&#x41f;" horiz-adv-x="1536" d="M197 0h-82l227 1434h1118l-227 -1434h-80l213 1356h-956z" />
<glyph unicode="&#x420;" horiz-adv-x="1339" d="M342 1434h457q97 0 178.5 -13t155 -46t121 -83.5t68 -130.5t3.5 -182q-71 -444 -668 -444h-376l-84 -535h-82zM1245 989q14 85 -3.5 150t-57 105.5t-102 66t-131.5 35.5t-152 10h-389l-117 -744h377q517 0 575 377z" />
<glyph unicode="&#x421;" horiz-adv-x="1335" d="M127 735q18 117 64.5 220t111.5 181t145.5 139.5t169.5 100.5t180.5 59.5t180.5 20.5q219 0 377 -100l-13 -78q-142 100 -358 100q-100 0 -199.5 -25t-194.5 -78t-172.5 -129t-134 -185t-77.5 -238q-23 -136 -0.5 -243.5t75.5 -187.5t132 -132.5t169.5 -78.5t188.5 -26 q217 0 404 105l-13 -86q-186 -97 -409 -97q-107 0 -208 30.5t-188.5 91t-147 151.5t-84 212t0.5 273z" />
<glyph unicode="&#x422;" horiz-adv-x="1208" d="M156 1434h1161l-14 -78h-539l-215 -1356h-80l213 1356h-539z" />
<glyph unicode="&#x423;" horiz-adv-x="1269" d="M678 324q-67 -103 -130.5 -172.5t-123.5 -107t-113.5 -52.5t-113.5 -15q-89 0 -162 27l12 76q73 -25 139 -25q104 0 194 54t191 196l33 45l-457 1084h86l420 -1008l654 1008h92z" />
<glyph unicode="&#x424;" horiz-adv-x="1736" d="M803 -74h-80l29 193q-218 3 -378 75t-239 211t-49 326q28 186 144.5 317.5t297.5 197.5t414 69l31 192h82l-31 -192q126 -2 236.5 -29t197.5 -79.5t145.5 -125t82 -169.5t6.5 -210q-43 -277 -272.5 -427.5t-585.5 -155.5zM166 725q-37 -244 123 -385t475 -147l166 1048 q-324 -6 -524.5 -138.5t-239.5 -377.5zM1012 1241l-166 -1048q325 6 525.5 139t238.5 379q39 242 -123 383t-475 147z" />
<glyph unicode="&#x425;" d="M25 0h-103l684 741l-422 693h90l388 -633l585 633h103l-650 -703l445 -731h-88l-410 672z" />
<glyph unicode="&#x426;" horiz-adv-x="1572" d="M1356 -356h-78l57 356h-1220l227 1434h82l-215 -1356h958l215 1356h80l-213 -1356h174z" />
<glyph unicode="&#x427;" horiz-adv-x="1378" d="M1075 0h-82l94 592q-245 -79 -466 -76q-253 3 -376 126.5t-87 356.5l69 435h82l-69 -443q-33 -203 73 -299t328 -98q214 -3 461 78l119 762h82z" />
<glyph unicode="&#x428;" horiz-adv-x="2179" d="M1876 0h-1761l227 1434h82l-215 -1356h760l213 1356h82l-215 -1356h759l215 1356h80z" />
<glyph unicode="&#x429;" horiz-adv-x="2213" d="M1997 -356h-78l57 356h-1861l227 1434h82l-215 -1356h760l213 1356h82l-215 -1356h759l215 1356h80l-213 -1356h176z" />
<glyph unicode="&#x42a;" horiz-adv-x="1531" d="M762 0h-457l213 1356h-379l13 78h460l-84 -537h377q98 0 179.5 -13t155 -45.5t120.5 -82.5t67.5 -130t4.5 -182t-59.5 -179.5t-104.5 -127t-144 -81t-170.5 -44t-191.5 -12.5zM514 819l-117 -741h377q90 0 165.5 10.5t146.5 37t123.5 68.5t89.5 108t51 153 q14 85 -3.5 149.5t-57 104.5t-102.5 65.5t-132.5 35t-155.5 9.5h-385z" />
<glyph unicode="&#x42b;" horiz-adv-x="1728" d="M573 0h-458l227 1434h82l-86 -537h379q97 0 178 -13t154 -45.5t120 -82.5t67.5 -130t4.5 -182q-68 -444 -668 -444zM326 819l-117 -741h377q114 0 205 18t170.5 59t131 116.5t68.5 183.5q14 85 -3 149.5t-56.5 104.5t-102.5 65.5t-132.5 35t-155.5 9.5h-385zM1425 0h-82 l228 1434h82z" />
<glyph unicode="&#x42c;" horiz-adv-x="1341" d="M573 0h-458l227 1434h82l-86 -537h379q97 0 178 -13t154 -45.5t120 -82.5t67.5 -130t4.5 -182q-68 -444 -668 -444zM326 819l-117 -741h377q114 0 205 18t170.5 59t131 116.5t68.5 183.5q14 85 -3 149.5t-56.5 104.5t-102.5 65.5t-132.5 35t-155.5 9.5h-385z" />
<glyph unicode="&#x42d;" horiz-adv-x="1341" d="M217 1360q187 96 414 96q103 0 202 -29.5t186 -92t147.5 -150t85 -213t1.5 -271.5t-82 -267.5t-140 -204.5t-183.5 -140.5t-212 -84t-225.5 -26.5q-109 0 -214.5 27t-181.5 74l13 78q164 -101 376 -101q106 0 205 22.5t191 72t165 121.5t126.5 177t76.5 232l-815 -2 l13 78l813 2q14 122 -12 225.5t-80.5 175t-131 122t-162.5 74t-176 23.5q-222 0 -411 -100z" />
<glyph unicode="&#x42e;" horiz-adv-x="2211" d="M2128 711q-17 -109 -62.5 -214t-121 -199t-172.5 -165.5t-225.5 -113.5t-272.5 -42q-135 0 -246.5 39.5t-187 107.5t-125 158t-67.5 190.5t-7 205.5h-338l-106 -678h-82l227 1434h82l-109 -678h336q22 106 70.5 206.5t124.5 190t172 157t220.5 107t260.5 39.5 q101 0 190 -22.5t156 -62t122 -94.5t89 -120.5t56.5 -139.5t24 -151t-8.5 -155zM725 715q-8 -68 -8 -135.5t18.5 -132.5t47 -123t76.5 -107.5t107 -85.5t138.5 -56t171.5 -20q159 0 297.5 57.5t234 152.5t157 212t81.5 242q8 68 8 135t-18.5 132.5t-47 123.5t-76.5 107 t-107 85t-138.5 56t-171.5 20q-160 0 -298.5 -57.5t-234 -152.5t-156.5 -211.5t-81 -241.5z" />
<glyph unicode="&#x42f;" horiz-adv-x="1394" d="M74 0h-99l541 565q-176 35 -262.5 146t-58.5 286q18 113 73.5 199t139.5 137t185.5 76t219.5 25h506l-227 -1434h-82l88 551h-416q-55 0 -82 2zM276 987q-15 -94 9.5 -164.5t82 -112t136 -61.5t178.5 -20h426l115 727h-422q-99 0 -185 -21t-157.5 -64t-119.5 -115.5 t-63 -168.5z" />
<glyph unicode="&#x430;" d="M965 231q-81 -114 -204 -184t-269 -70q-212 0 -330 147.5t-82 379.5q36 224 197 363t368 139q142 0 248 -74t151 -187l39 238h72l-156 -983h-71zM156 496q-21 -133 18.5 -235t125 -156t202.5 -54q149 0 277 84.5t196 210.5l45 291q-24 126 -125.5 210.5t-245.5 84.5 q-181 0 -320.5 -117t-172.5 -319z" />
<glyph unicode="&#x431;" horiz-adv-x="1208" d="M1087 449q-34 -219 -179 -345.5t-365 -126.5q-233 0 -357 163.5t-82 434.5q34 216 146.5 382.5t265.5 252.5q103 56 208 92t171 49t135 38.5t117 66.5l-12 -86q-46 -36 -112 -59.5t-127.5 -35t-155.5 -43.5t-183 -83q-248 -136 -356 -457q76 114 205.5 182t267.5 68 q95 0 178.5 -36.5t141 -100.5t83.5 -157t10 -199zM174 545q-32 -221 70 -356.5t299 -135.5q192 0 314.5 110t152.5 296q27 173 -76 291t-275 118q-158 0 -292.5 -88t-192.5 -235z" />
<glyph unicode="&#x432;" horiz-adv-x="1107" d="M594 0h-522l155 983h494q140 0 214 -69.5t56 -190.5q-14 -85 -65.5 -143.5t-134.5 -79.5q86 -19 132.5 -80t28.5 -166q-20 -123 -113.5 -188.5t-244.5 -65.5zM223 465l-61 -395h430q117 0 194 48.5t93 151.5q8 54 -4.5 93.5t-43 61t-69 31t-88.5 9.5h-451zM295 913 l-59 -381h423q107 0 173 50.5t81 144.5q13 91 -41.5 138.5t-162.5 47.5h-414z" />
<glyph unicode="&#x433;" horiz-adv-x="897" d="M150 0h-78l155 983h699l-13 -74h-618z" />
<glyph unicode="&#x434;" horiz-adv-x="1255" d="M-8 -279h-76l55 351h129q130 199 208 408t124 503h676l-143 -911h141l-55 -351h-76l43 279h-981zM494 909q-44 -263 -118 -456.5t-192 -380.5h703l133 837h-526z" />
<glyph unicode="&#x435;" horiz-adv-x="1112" d="M78 496q19 120 74 218.5t131.5 161t166.5 96.5t183 34q103 0 182 -34.5t124 -91.5t67.5 -129.5t19 -150t-28.5 -151.5h-845q-10 -83 7.5 -150.5t55.5 -113t93 -76.5t116.5 -44.5t128.5 -13.5q185 0 338 80l-12 -80q-145 -74 -336 -74q-79 0 -153 19t-138.5 60.5t-109 101 t-63 147t-1.5 191.5zM938 518q12 45 13.5 91.5t-7.5 93t-33 87.5t-60 73t-92 50.5t-126 18.5q-168 0 -302 -110.5t-171 -303.5h778z" />
<glyph unicode="&#x436;" horiz-adv-x="1470" d="M18 0h-94l516 506l-301 477h82l283 -444h186l70 444h78l-70 -444h182l422 444h90l-454 -481l352 -502h-86l-330 465h-188l-74 -465h-78l74 465h-182z" />
<glyph unicode="&#x437;" horiz-adv-x="970" d="M815 254q-22 -140 -146 -207.5t-319 -69.5q-209 0 -354 74l12 74q62 -33 152 -53.5t184 -20.5q359 0 395 221q8 48 -8 86t-48.5 60.5t-72 33.5t-82.5 11h-249l12 74h233q113 0 184 49.5t83 138.5q16 99 -71.5 154t-223.5 55q-185 0 -359 -74l13 78q182 71 356 68 q175 -2 279 -78t83 -205q-12 -89 -72 -146.5t-157 -76.5q86 -21 139 -86t37 -160z" />
<glyph unicode="&#x438;" horiz-adv-x="1198" d="M143 0h-71l155 983h78l-135 -856l852 856h72l-156 -983h-78l135 856z" />
<glyph unicode="&#x439;" horiz-adv-x="1198" d="M967 1233q-117 -84 -271 -84q-163 0 -254 84l13 76q54 -49 112 -69.5t133 -20.5q152 0 279 90zM143 0h-71l155 983h78l-135 -856l852 856h72l-156 -983h-78l135 856z" />
<glyph unicode="&#x43a;" horiz-adv-x="1024" d="M150 0h-78l155 983h78l-69 -432h256l434 432h92l-473 -475l370 -508h-88l-350 477h-252z" />
<glyph unicode="&#x43b;" horiz-adv-x="1202" d="M494 909q-30 -151 -58.5 -268t-62 -224.5t-69.5 -183.5t-78 -133t-91 -84.5t-106 -27.5q-59 0 -103 16l11 66q31 -15 79 -15q134 0 229.5 229t184.5 699h668l-156 -983h-78l144 909h-514z" />
<glyph unicode="&#x43c;" horiz-adv-x="1363" d="M150 0h-78l155 983h78l338 -610l524 610h93l-156 -983h-78l139 868l-497 -577h-62l-317 575z" />
<glyph unicode="&#x43d;" horiz-adv-x="1181" d="M150 0h-78l155 983h78l-72 -455h695l71 455h78l-155 -983h-78l71 455h-694z" />
<glyph unicode="&#x43e;" horiz-adv-x="1212" d="M1100 479q-19 -118 -76 -215t-138 -159t-177.5 -95t-196.5 -33q-96 0 -182 36t-148.5 101.5t-91 167t-10.5 222.5q19 118 77.5 215t139.5 159t177.5 95t195.5 33q97 0 182.5 -36t148 -101.5t90.5 -167t9 -222.5zM158 492q-16 -100 6.5 -184t73.5 -139t123.5 -85.5 t156.5 -30.5q120 0 226 49.5t183 151t99 238.5q16 100 -6.5 183.5t-73.5 138.5t-123.5 85.5t-156.5 30.5q-120 0 -226 -49.5t-183 -150.5t-99 -238z" />
<glyph unicode="&#x43f;" horiz-adv-x="1181" d="M150 0h-78l155 983h850l-155 -983h-78l145 909h-694z" />
<glyph unicode="&#x440;" horiz-adv-x="1257" d="M260 745q81 118 206 189.5t269 71.5q101 0 185 -39t140.5 -107t80 -167t4.5 -214q-35 -225 -194 -363.5t-369 -138.5q-147 0 -250 73t-146 192l-108 -693h-78l227 1434h72zM1069 487q16 99 -3 183t-66.5 141t-118.5 89t-156 32q-148 0 -277 -85.5t-198 -215.5l-45 -285 q28 -127 126.5 -211t243.5 -84q186 0 324.5 116.5t169.5 319.5z" />
<glyph unicode="&#x441;" horiz-adv-x="1015" d="M80 500q16 104 60.5 190t105 143.5t135.5 97t151 57.5t152 18q169 0 287 -84l-13 -74q-103 84 -268 84q-86 0 -170 -25.5t-160 -77t-131 -139.5t-73 -201q-17 -108 6 -193.5t77 -137.5t129 -79.5t164 -27.5q173 0 322 82l-10 -80q-149 -76 -324 -76q-101 0 -188 32.5 t-151.5 95.5t-92.5 165t-8 230z" />
<glyph unicode="&#x442;" horiz-adv-x="927" d="M408 0h-78l145 909h-397l10 74h873l-13 -74h-395z" />
<glyph unicode="&#x443;" horiz-adv-x="1085" d="M481 80l539 903h86l-692 -1157q-99 -162 -187.5 -230.5t-189.5 -68.5q-44 0 -105 14l11 68q47 -12 88 -12q89 0 163.5 62.5t155.5 199.5l84 141l-342 983h80z" />
<glyph unicode="&#x444;" horiz-adv-x="1437" d="M590 -451h-76l68 428q-160 3 -282.5 65.5t-184.5 183t-37 278.5q25 155 120.5 269t236 172t310.5 61l68 428h76l-68 -428q160 -3 283 -65.5t185.5 -183t37.5 -278.5q-25 -155 -121.5 -269.5t-237.5 -172t-311 -60.5zM154 496q-21 -135 28.5 -236.5t156 -155.5t255.5 -57 l141 889q-229 -5 -388.5 -119.5t-192.5 -320.5zM811 936l-141 -889q229 5 388.5 119.5t192.5 320.5q32 203 -91 323.5t-349 125.5z" />
<glyph unicode="&#x445;" horiz-adv-x="989" d="M31 0h-94l499 506l-319 477h88l282 -424l418 424h94l-475 -479l338 -504h-88l-299 449z" />
<glyph unicode="&#x446;" horiz-adv-x="1212" d="M1008 -279h-76l43 279h-903l155 983h78l-143 -909h682l143 909h78l-143 -909h141z" />
<glyph unicode="&#x447;" horiz-adv-x="1054" d="M795 0h-78l57 369q-157 -62 -336 -62q-177 0 -272.5 90.5t-67.5 264.5l49 321h78l-49 -321q-24 -146 52.5 -213.5t232.5 -67.5q157 0 325 59l86 543h78z" />
<glyph unicode="&#x448;" horiz-adv-x="1654" d="M1395 0h-1323l155 983h78l-143 -909h545l143 909h78l-144 -909h545l144 909h77z" />
<glyph unicode="&#x449;" horiz-adv-x="1697" d="M1493 -279h-78l45 279h-1388l155 983h78l-143 -909h545l143 909h78l-144 -909h545l144 909h77l-143 -909h141z" />
<glyph unicode="&#x44a;" horiz-adv-x="1177" d="M647 0h-438l145 913h-278l10 70h356l-57 -369h365q160 0 247.5 -88.5t65.5 -224.5q-21 -134 -132 -217.5t-284 -83.5zM373 543l-74 -471h348q141 0 231 65.5t107 175.5q17 104 -51.5 167t-200.5 63h-360z" />
<glyph unicode="&#x44b;" horiz-adv-x="1415" d="M510 0h-438l155 983h78l-57 -369h364q160 0 248 -88.5t66 -224.5q-21 -134 -132 -217.5t-284 -83.5zM236 543l-74 -471h348q141 0 231 65.5t107 175.5q17 104 -51.5 167t-200.5 63h-360zM1155 0h-78l156 983h78z" />
<glyph unicode="&#x44c;" horiz-adv-x="1040" d="M510 0h-438l155 983h78l-57 -369h364q160 0 248 -88.5t66 -224.5q-21 -134 -132 -217.5t-284 -83.5zM236 543l-74 -471h348q141 0 231 65.5t107 175.5q17 104 -51.5 167t-200.5 63h-360z" />
<glyph unicode="&#x44d;" horiz-adv-x="1028" d="M913 475q-16 -104 -56.5 -189t-96.5 -141.5t-126.5 -95t-144.5 -55.5t-153 -17q-178 0 -330 89l12 73q139 -88 308 -88q72 0 137 13.5t126 44.5t108.5 77.5t83 115.5t50.5 155l-573 -2l12 73l574 2q10 102 -20.5 182t-89.5 126.5t-131.5 70t-151.5 23.5q-175 0 -322 -90 l12 76q148 88 320 88q75 0 146.5 -19.5t135 -62t107.5 -103t62 -150t1 -196.5z" />
<glyph unicode="&#x44e;" horiz-adv-x="1648" d="M1536 479q-19 -118 -76 -215t-138 -159t-177.5 -95t-196.5 -33q-91 0 -173.5 33t-144.5 93t-95 152t-25 202h-287l-71 -455h-78l155 983h78l-71 -457h286q29 143 117.5 253t210 167t256.5 58q97 0 182.5 -36t148 -101.5t90.5 -167t9 -222.5zM592 492q-16 -100 6.5 -184 t73.5 -139t123.5 -85.5t156.5 -30.5q120 0 226 49.5t183 151t99 238.5q16 100 -6.5 183.5t-73.5 138.5t-123.5 85.5t-156.5 30.5q-120 0 -226 -49.5t-183 -150.5t-99 -238z" />
<glyph unicode="&#x44f;" horiz-adv-x="1099" d="M70 0h-90l358 393q-116 28 -172.5 105.5t-38.5 189.5q21 131 131.5 213t280.5 82h456l-155 -983h-78l61 381h-362h-39zM205 676q-17 -101 53 -162t205 -61h371l73 458h-366q-139 0 -230 -64.5t-106 -170.5z" />
<glyph unicode="&#x451;" horiz-adv-x="1112" d="M944 1255q-3 -23 -22.5 -40t-44.5 -17q-28 0 -45 20t-13 48q5 23 25 41t43 18q29 0 45.5 -21t11.5 -49zM532 1255q-3 -23 -22.5 -40t-44.5 -17q-28 0 -44.5 20t-12.5 48q5 24 24.5 41.5t42.5 17.5q29 0 45.5 -21t11.5 -49zM78 496q19 120 74 218.5t131.5 161t166.5 96.5 t183 34q103 0 182 -34.5t124 -91.5t67.5 -129.5t19 -150t-28.5 -151.5h-845q-10 -83 7.5 -150.5t55.5 -113t93 -76.5t116.5 -44.5t128.5 -13.5q185 0 338 80l-12 -80q-145 -74 -336 -74q-79 0 -153 19t-138.5 60.5t-109 101t-63 147t-1.5 191.5zM938 518q12 45 13.5 91.5 t-7.5 93t-33 87.5t-60 73t-92 50.5t-126 18.5q-168 0 -302 -110.5t-171 -303.5h778z" />
<glyph unicode="&#x2000;" horiz-adv-x="954" />
<glyph unicode="&#x2001;" horiz-adv-x="1909" />
<glyph unicode="&#x2002;" horiz-adv-x="954" />
<glyph unicode="&#x2003;" horiz-adv-x="1909" />
<glyph unicode="&#x2004;" horiz-adv-x="636" />
<glyph unicode="&#x2005;" horiz-adv-x="477" />
<glyph unicode="&#x2006;" horiz-adv-x="318" />
<glyph unicode="&#x2007;" horiz-adv-x="318" />
<glyph unicode="&#x2008;" horiz-adv-x="238" />
<glyph unicode="&#x2009;" horiz-adv-x="381" />
<glyph unicode="&#x200a;" horiz-adv-x="106" />
<glyph unicode="&#x2010;" horiz-adv-x="993" d="M131 537h711l-11 -74h-710z" />
<glyph unicode="&#x2011;" horiz-adv-x="993" d="M131 537h711l-11 -74h-710z" />
<glyph unicode="&#x2012;" horiz-adv-x="993" d="M131 537h711l-11 -74h-710z" />
<glyph unicode="&#x2013;" horiz-adv-x="1165" d="M1001 463h-880l10 74h883z" />
<glyph unicode="&#x2014;" horiz-adv-x="1540" d="M1378 463h-1257l10 74h1258z" />
<glyph unicode="&#x2018;" horiz-adv-x="393" d="M254 987h-82l193 447h65z" />
<glyph unicode="&#x2019;" horiz-adv-x="389" d="M240 987h-66l176 447h82z" />
<glyph unicode="&#x201a;" horiz-adv-x="417" d="M12 -295h-65l176 447h82z" />
<glyph unicode="&#x201c;" horiz-adv-x="655" d="M516 987h-82l193 447h65zM254 987h-82l193 447h65z" />
<glyph unicode="&#x201d;" horiz-adv-x="651" d="M502 987h-66l176 447h82zM240 987h-66l176 447h82z" />
<glyph unicode="&#x201e;" horiz-adv-x="679" d="M274 -295h-65l176 447h82zM12 -295h-65l176 447h82z" />
<glyph unicode="&#x2026;" horiz-adv-x="1001" d="M784 41q-4 -26 -23 -40.5t-44 -14.5q-27 0 -43 18.5t-10 46.5q3 25 21.5 40t41.5 15q30 0 45.5 -17.5t11.5 -47.5zM182 41q-4 -26 -22.5 -40.5t-42.5 -14.5q-29 0 -45.5 18t-10.5 47q3 25 22 40t44 15q28 0 43.5 -17.5t11.5 -47.5zM483 41q-4 -26 -22.5 -40.5 t-42.5 -14.5q-29 0 -45.5 18t-10.5 47q3 25 22 40t44 15q28 0 43.5 -17.5t11.5 -47.5z" />
<glyph unicode="&#x202f;" horiz-adv-x="381" />
<glyph unicode="&#x2039;" horiz-adv-x="563" d="M358 135h-82l-190 346l4 23l297 344h86l-309 -359z" />
<glyph unicode="&#x203a;" horiz-adv-x="565" d="M145 135h-88l310 359l-195 354h82l192 -346l-4 -23z" />
<glyph unicode="&#x205f;" horiz-adv-x="477" />
<glyph unicode="&#x20ac;" horiz-adv-x="1495" d="M1452 1237q-156 100 -369 100q-82 0 -163 -16.5t-162 -52.5t-150.5 -88.5t-127.5 -130.5t-93 -172h793l-13 -70h-802q-14 -52 -19 -88q-10 -59 -10 -133h797l-13 -70h-778q18 -143 97 -249t194.5 -159t253.5 -53q248 0 416 103l-15 -84q-171 -97 -409 -97 q-160 0 -293 62.5t-221.5 186t-106.5 290.5h-182l12 70h166q0 78 10 139q2 14 17 82h-158l12 70h166q37 108 101.5 198t143 152t170.5 105t184 63t183 20q219 0 383 -102z" />
<glyph unicode="&#x2122;" horiz-adv-x="1343" d="M719 918h-51l82 516h57l168 -314l270 314h62l-82 -516h-51l69 440l-258 -295h-33l-161 295zM373 918h-51l73 466h-186l8 50h424l-8 -50h-187z" />
<glyph unicode="&#x25fc;" horiz-adv-x="983" d="M0 983h983v-983h-983v983z" />
</font>
</defs>
</svg>
