<?xml version="1.0" standalone="no"?>
<!DOCTYPE svg PUBLIC "-//W3C//DTD SVG 1.1//EN" "http://www.w3.org/Graphics/SVG/1.1/DTD/svg11.dtd" >
<svg xmlns="http://www.w3.org/2000/svg" xmlns:xlink="http://www.w3.org/1999/xlink" version="1.1">
<metadata></metadata>
<defs>
<font id="mullerthin_italic" horiz-adv-x="1255" >
<font-face units-per-em="2048" ascent="1597" descent="-451" />
<missing-glyph horiz-adv-x="555" />
<glyph horiz-adv-x="0" />
<glyph horiz-adv-x="682" />
<glyph unicode=" "  horiz-adv-x="555" />
<glyph unicode="&#x09;" horiz-adv-x="555" />
<glyph unicode="&#xa0;" horiz-adv-x="555" />
<glyph unicode="!" horiz-adv-x="399" d="M184 346h-45l170 1088h51zM158 29q-4 -19 -18.5 -30t-33.5 -11q-21 0 -31.5 14t-6.5 35q1 18 16 29.5t31 11.5q22 0 34 -13.5t9 -35.5z" />
<glyph unicode="&#x22;" horiz-adv-x="509" d="M449 1163h-37l43 271h51zM264 1163h-37l43 271h52z" />
<glyph unicode="#" horiz-adv-x="1325" d="M137 0h-49l154 389h-191l8 45h199l209 527h-221l6 45h231l154 389h51l-153 -389h530l154 389h51l-154 -389h187l-7 -45h-196l-209 -527h219l-6 -45h-232l-153 -389h-51l153 389h-528zM518 961l-207 -527h529l207 527h-529z" />
<glyph unicode="$" horiz-adv-x="1155" d="M475 -266h-45l37 246q-265 13 -434 118l6 52q95 -58 218 -89.5t245 -31.5q86 0 162.5 16t144 49t112 92t56.5 138q11 71 -11.5 127t-69.5 93t-110.5 67t-135 54.5l-143 49t-134 57t-108.5 72.5t-67 101t-8 138q13 81 63.5 145.5t122.5 103.5t154 59.5t166 21.5l37 246h45 l-37 -246q206 -10 355 -98l-9 -49q-78 46 -182 72t-207 26q-74 0 -147 -17t-139 -50t-112 -90t-58 -130q-12 -69 10 -123.5t68.5 -90.5t109.5 -65.5t134.5 -54t142.5 -49.5t134.5 -57.5t109.5 -74t67.5 -103.5t9.5 -140q-11 -71 -46 -129t-84.5 -96.5t-114 -64.5t-132 -37.5 t-139.5 -11.5z" />
<glyph unicode="%" horiz-adv-x="1787" d="M387 -123h-53l1104 1679h53zM768 1153q-21 -137 -119 -211t-223 -74q-122 0 -202 81t-58 220q22 137 120.5 211t223.5 74q123 0 202 -80.5t56 -220.5zM211 1165q-18 -114 46 -183t169 -69q109 0 193.5 64t103.5 180q18 114 -46.5 183t-166.5 69q-111 0 -195.5 -63.5 t-103.5 -180.5zM1661 264q-22 -137 -120.5 -210.5t-221.5 -73.5q-58 0 -109.5 20t-90 56.5t-56 95t-6.5 129.5q22 137 120 210.5t224 73.5q122 0 202 -81t58 -220zM1106 276q-19 -114 44.5 -182.5t168.5 -68.5q109 0 193.5 63.5t103.5 179.5q18 114 -46.5 183t-166.5 69 q-112 0 -195.5 -64t-101.5 -180z" />
<glyph unicode="&#x26;" horiz-adv-x="1384" d="M1051 227l219 -227h-62l-188 197q-224 -217 -543 -217q-212 0 -320.5 101t-84.5 255q9 58 37 111.5t65 95.5t90.5 83.5t102 71.5t110.5 64q-176 201 -149 362q23 136 147 233t305 97q151 0 240.5 -79.5t69.5 -203.5q-6 -35 -24 -68.5t-40.5 -60.5t-60.5 -57t-69.5 -51.5 t-82.5 -50t-84.5 -45.5t-90.5 -46t-87 -44l45 -48l422 -438q154 168 186 379h49q-33 -233 -202 -414zM780 1407q-169 0 -277 -85t-126 -208q-22 -147 141 -330h2q28 14 84.5 42t88 44t82 43t80 47t66.5 48t58.5 53t38.5 55.5t22 61.5q15 102 -58.5 165.5t-201.5 63.5z M121 330q-19 -131 76.5 -217t283.5 -86q297 0 506 202l-432 449l-45 47q-77 -40 -135 -78t-115 -87t-92.5 -107t-46.5 -123z" />
<glyph unicode="'" horiz-adv-x="325" d="M264 1163h-37l43 271h52z" />
<glyph unicode="(" horiz-adv-x="505" d="M573 1655h54q-171 -197 -292 -447t-159 -495q-38 -243 3.5 -491t150.5 -443h-51q-109 199 -152 448t-4 494q38 243 158.5 490.5t291.5 443.5z" />
<glyph unicode=")" horiz-adv-x="507" d="M215 1655h51q108 -200 151.5 -449t4.5 -493q-38 -240 -159 -488.5t-292 -445.5h-55q172 195 293 445t160 497q38 242 -4 490t-150 444z" />
<glyph unicode="*" horiz-adv-x="866" d="M512 1096l-215 -240l-35 27l217 235l-264 90l23 45l260 -98l41 279h47l-49 -279l292 98l9 -45l-293 -90l141 -235l-43 -27z" />
<glyph unicode="+" horiz-adv-x="1097" d="M596 741h412l-7 -49h-411l-66 -411h-47l66 411h-412l6 49h412l65 412h50z" />
<glyph unicode="," horiz-adv-x="342" d="M-23 -291h-43l172 438h52z" />
<glyph unicode="-" horiz-adv-x="997" d="M135 520h705l-9 -47h-702z" />
<glyph unicode="." horiz-adv-x="342" d="M139 31q-3 -18 -17 -30.5t-32 -12.5q-21 0 -33 14t-8 35q1 18 16 29.5t33 11.5q22 0 33 -12.5t8 -34.5z" />
<glyph unicode="/" horiz-adv-x="831" d="M18 -117h-41l873 1667h43z" />
<glyph unicode="0" horiz-adv-x="1441" d="M139 709q26 158 83.5 286.5t144.5 222t209 144.5t270 51q120 0 214 -35.5t153.5 -100t95.5 -155t40 -201t-14 -237.5q-53 -324 -234.5 -514t-473.5 -190q-120 0 -213 35.5t-153 100t-95.5 155t-40 201t13.5 237.5zM1284 690q26 148 10 272t-66.5 213t-148 139t-233.5 50 q-272 0 -439.5 -177t-216.5 -485q-17 -119 -14 -221.5t34.5 -186t85.5 -142.5t139 -91t194 -32q272 0 439 176.5t216 484.5z" />
<glyph unicode="1" horiz-adv-x="815" d="M580 1393h34l-213 -1344h291l-8 -49h-664l9 49h321l203 1286l-340 -121l8 50z" />
<glyph unicode="2" horiz-adv-x="1140" d="M262 1290q208 123 434 123q193 0 305.5 -93t88.5 -249q-8 -49 -28 -94.5t-43.5 -81t-63 -73t-72 -63t-86 -59t-89.5 -53.5t-98 -53q-184 -97 -237 -131q-172 -108 -245 -244q-41 -76 -58 -170h876l-10 -49h-928l6 35q9 55 25.5 105.5t36.5 91.5t51.5 80.5t59 69t70 61.5 t73.5 53.5t81 49.5t82 45t85 44q3 1 4 2q59 30 93.5 48.5t85.5 49.5t82 54.5t68.5 58t60 67.5t41 75.5t25.5 88.5q20 130 -75.5 208.5t-270.5 78.5q-214 0 -438 -129z" />
<glyph unicode="3" horiz-adv-x="1202" d="M1098 1042q-19 -115 -103.5 -204t-226.5 -115q67 -12 122.5 -40t96.5 -71t58 -107.5t4 -142.5q-29 -182 -176 -282t-365 -100q-290 0 -457 90l6 49q179 -92 449 -92q201 0 333.5 90t159.5 254q13 82 -10.5 145.5t-77 102t-126 58t-160.5 19.5h-201l8 47h195q185 0 293 89 t129 215q21 134 -72.5 226.5t-271.5 92.5q-221 0 -441 -92l8 51q202 88 439 88q195 0 303 -107.5t84 -263.5z" />
<glyph unicode="4" horiz-adv-x="1304" d="M1010 1393h57l-160 -996h299l-6 -49h-299l-55 -348h-51l55 348h-825l6 43zM856 397l150 924l-906 -924h756z" />
<glyph unicode="5" horiz-adv-x="1183" d="M340 1393h790l-8 -50h-741l-133 -600q168 54 344 54q102 0 188.5 -24t152 -71.5t95.5 -129t14 -187.5q-29 -181 -183 -293t-374 -112q-122 0 -237.5 25t-194.5 69l6 47q183 -94 422 -94q204 0 344 100t166 266q15 92 -11 162.5t-85 112t-138.5 62t-176.5 20.5 q-196 0 -394 -68z" />
<glyph unicode="6" horiz-adv-x="1236" d="M1135 1290q-118 74 -277 74q-103 0 -191.5 -24.5t-167.5 -78.5t-140.5 -136.5t-107 -203.5t-69.5 -274l-6 -41q121 111 262.5 172.5t280.5 61.5q89 0 165.5 -26.5t134 -78t83.5 -135.5t10 -190q-33 -199 -183 -314.5t-349 -115.5q-267 0 -382 180.5t-65 494.5 q32 199 98 346t161.5 236.5t211 132.5t254.5 43q162 0 285 -74zM1061 416q15 95 -7 168.5t-72.5 117.5t-119 66.5t-151.5 22.5q-140 0 -283.5 -65.5t-257.5 -180.5q-18 -247 86 -382.5t322 -135.5q120 0 221 44t172 133.5t90 211.5z" />
<glyph unicode="7" horiz-adv-x="1046" d="M195 1393h929l-6 -41l-864 -1352h-57l860 1343h-871z" />
<glyph unicode="8" horiz-adv-x="1312" d="M1155 326q-11 -67 -54 -128.5t-112.5 -110.5t-174 -78t-228.5 -29q-134 0 -237.5 33.5t-164 90.5t-86 131t-12.5 158q41 244 346 387q-101 49 -150.5 121t-31.5 182q10 64 49 122t103.5 105t162.5 75t217 28q114 0 205 -33t143 -87.5t75 -121t12 -135.5 q-34 -212 -302 -372q127 -50 193.5 -130t46.5 -208zM139 389q-25 -154 92.5 -258t358.5 -104q218 0 356 90t158 217q10 65 -9 117.5t-49 84.5t-96.5 63t-112.5 46t-136 41l-21 6q-132 38 -201 66q-143 -61 -232 -156.5t-108 -212.5zM680 739l190 -55q263 150 297 354 q10 60 -9.5 118t-65 105t-126 76t-184.5 29q-209 0 -335.5 -84t-145.5 -205q-10 -62 9 -113t49.5 -82t90 -60.5t98.5 -42.5t108 -33q16 -5 24 -7z" />
<glyph unicode="9" horiz-adv-x="1234" d="M156 983q33 199 183 314.5t349 115.5q265 0 381 -181.5t66 -494.5q-32 -199 -98 -346t-161.5 -236t-211 -132t-254.5 -43q-164 0 -285 73l8 49q116 -73 277 -73q129 0 236 39.5t196 123t151 223t92 330.5l7 41q-121 -111 -262.5 -172t-280.5 -61q-91 0 -168 26.5t-134 78 t-82 135.5t-9 190zM207 977q-15 -94 7 -167.5t72.5 -118t119 -67t151.5 -22.5q140 0 283.5 65.5t257.5 180.5q18 247 -86 382.5t-322 135.5q-120 0 -221 -44t-172 -133.5t-90 -211.5z" />
<glyph unicode=":" horiz-adv-x="387" d="M279 827q-3 -18 -17.5 -29.5t-32.5 -11.5q-21 0 -33.5 13.5t-9.5 36.5q3 18 17.5 29.5t32.5 11.5q22 0 34 -13.5t9 -36.5zM150 31q-3 -18 -17.5 -30.5t-32.5 -12.5q-21 0 -33 14t-8 35q1 18 16.5 29.5t33.5 11.5q22 0 33 -12.5t8 -34.5z" />
<glyph unicode=";" horiz-adv-x="538" d="M47 -291h-43l172 438h51zM348 915q-3 -18 -17 -29.5t-32 -11.5q-21 0 -33.5 14.5t-9.5 35.5q3 18 18 29.5t33 11.5q22 0 33 -13.5t8 -36.5z" />
<glyph unicode="&#x3c;" horiz-adv-x="989" d="M797 412l-9 -52l-675 332l8 51l780 330l-6 -51l-727 -305z" />
<glyph unicode="=" horiz-adv-x="1114" d="M995 879h-796l8 47h797zM938 508h-797l6 47h797z" />
<glyph unicode="&#x3e;" horiz-adv-x="989" d="M907 690l-782 -330l8 52l727 305l-631 305l9 51l677 -332z" />
<glyph unicode="?" horiz-adv-x="1003" d="M469 383h-49q9 58 40.5 115.5t75 107t95 99t103 99.5t95.5 99.5t76 107t41 115.5q22 131 -71.5 205t-274.5 74q-205 0 -410 -117l9 53q199 113 409 113q196 0 304.5 -89t82.5 -243q-10 -60 -42 -120t-76 -111t-95.5 -101.5t-103 -100t-95 -97.5t-75 -102t-39.5 -107z M434 31q-3 -18 -17 -30.5t-32 -12.5q-21 0 -33 14t-8 35q1 18 16 29.5t33 11.5q22 0 33 -12.5t8 -34.5z" />
<glyph unicode="@" horiz-adv-x="2168" d="M92 508q24 148 87 287t166 258.5t234.5 209t300.5 140.5t355 51q177 0 324.5 -55t244.5 -146t159.5 -207.5t83 -241t1.5 -245.5q-43 -265 -163.5 -402t-280.5 -137q-127 0 -191 70t-49 201q-66 -101 -170.5 -162t-222.5 -61q-171 0 -268 117t-68 307q30 186 160.5 300.5 t300.5 114.5q120 0 205.5 -63t119.5 -164l33 209h47l-94 -588q-15 -112 35 -173.5t162 -61.5q142 0 249 128.5t144 372.5q8 63 8.5 127t-14.5 129t-37.5 127t-60.5 120t-84 108.5t-108 92t-132 71.5t-156 46.5t-180 16.5q-177 0 -338 -48.5t-286 -133.5t-223 -199 t-159 -247.5t-84 -276.5q-27 -171 1.5 -319.5t104 -258t186.5 -188t249.5 -117.5t292.5 -39q258 0 473 74l-10 -51q-212 -72 -463 -72q-135 0 -260 29t-231.5 86t-190.5 140.5t-137.5 192t-71.5 242t6 289.5zM1407 606q-18 110 -100.5 182t-206.5 72q-155 0 -272.5 -102 t-143.5 -273q-27 -168 56 -269t233 -101q127 0 234.5 72.5t162.5 183.5z" />
<glyph unicode="A" horiz-adv-x="1447" d="M1319 0h-53l-133 440h-861l-274 -440h-57l886 1434h62zM831 1350l-532 -861h821l-260 863q-7 14 -10 34q-2 -7 -19 -36z" />
<glyph unicode="B" horiz-adv-x="1382" d="M348 1434h514q104 0 186.5 -21.5t141.5 -65t84.5 -114t11.5 -162.5q-16 -96 -68 -164.5t-122 -104t-158 -48.5q49 -8 91.5 -22.5t87 -43.5t73.5 -68.5t42.5 -101t2.5 -137.5q-12 -70 -40 -127.5t-65 -96t-87 -68t-99 -46t-108.5 -27t-109 -13.5t-105.5 -3h-500zM1184 393 q13 84 -8.5 147t-61.5 97.5t-99 56t-108 27.5t-102 6h-518l-107 -678h441q63 0 115 4t116.5 15.5t115 36t97 61t77 94.5t42.5 133zM1237 1075q25 159 -78.5 234t-304.5 75h-463l-96 -608h536q71 0 136 17t121.5 51.5t96 93.5t52.5 137z" />
<glyph unicode="C" horiz-adv-x="1329" d="M129 727q23 143 84.5 264t147 205t190 143t212.5 87t216 28q226 0 377 -98l-8 -51q-141 100 -365 100q-103 0 -205.5 -26t-201 -81t-179 -134t-139 -194t-80.5 -251q-21 -134 0.5 -249t76.5 -194.5t135.5 -136t175 -83.5t196.5 -27q216 0 409 102l-8 -53 q-180 -98 -409 -98q-108 0 -208.5 29t-187 90.5t-146 148t-83 210.5t-0.5 269z" />
<glyph unicode="D" horiz-adv-x="1495" d="M348 1434h400q189 0 328.5 -54t218 -151t106 -227.5t2.5 -288.5q-24 -156 -90.5 -284.5t-173.5 -225t-263 -150t-348 -53.5h-407zM1354 721q23 147 -2 267t-97 209t-201 138t-306 49h-357l-211 -1335h357q177 0 321.5 49.5t245 139.5t164 212t86.5 271z" />
<glyph unicode="E" horiz-adv-x="1282" d="M348 1434h932l-8 -50h-881l-100 -639h819l-8 -49h-819l-103 -647h893l-8 -49h-944z" />
<glyph unicode="F" horiz-adv-x="1220" d="M348 1434h934l-8 -50h-883l-102 -653h823l-8 -49h-825l-107 -682h-51z" />
<glyph unicode="G" horiz-adv-x="1454" d="M131 741q24 149 88 271.5t150.5 203t194 135.5t216 79t219.5 24q226 0 400 -94l-6 -49q-75 45 -180 69.5t-212 24.5q-106 0 -209 -22.5t-204.5 -74t-183 -127t-141.5 -191t-83 -257.5q-24 -146 0 -260.5t79.5 -198t140.5 -138t183 -81t205 -26.5q222 0 402 86l100 633h51 l-106 -672q-209 -96 -449 -96q-115 0 -220 28.5t-196.5 87.5t-152 149.5t-86.5 214t0 281.5z" />
<glyph unicode="H" horiz-adv-x="1570" d="M1438 1434h51l-227 -1434h-52l111 696h-1038l-111 -696h-51l227 1434h51l-108 -689h1038z" />
<glyph unicode="I" horiz-adv-x="481" d="M348 1434h51l-227 -1434h-51z" />
<glyph unicode="J" horiz-adv-x="1073" d="M481 1434h525l-166 -1055q-31 -201 -161 -300t-335 -99q-223 0 -356 88l8 51q131 -90 342 -90q393 0 450 354l160 1001h-475z" />
<glyph unicode="K" horiz-adv-x="1335" d="M1343 1434h60l-631 -701l461 -733h-57l-447 711h-444l-113 -711h-51l227 1434h51l-106 -674h442z" />
<glyph unicode="L" horiz-adv-x="1165" d="M348 1434h51l-219 -1385h877l-8 -49h-928z" />
<glyph unicode="M" horiz-adv-x="1843" d="M1714 1434h47l-227 -1434h-51l211 1333l-781 -930h-36l-492 934l-213 -1337h-51l227 1434h41l512 -971z" />
<glyph unicode="N" horiz-adv-x="1570" d="M172 0h-51l227 1434h41l836 -1348q2 20 7 53t7 47l199 1248h51l-227 -1434h-41l-836 1350q-3 -32 -16 -101z" />
<glyph unicode="O" horiz-adv-x="1689" d="M1604 713q-17 -108 -63.5 -213t-122.5 -199t-173.5 -165.5t-225.5 -113.5t-269 -42q-102 0 -191 22.5t-155.5 62.5t-121 95t-88 120t-55 138.5t-22.5 149.5t8 153q17 108 64 213t123.5 199t174 165.5t225 113.5t267.5 42q102 0 191 -22.5t155.5 -62.5t121 -95t88 -120 t55 -138.5t22.5 -149.5t-8 -153zM176 715q-9 -71 -8.5 -141.5t20 -138t49.5 -128t80 -111.5t111.5 -88t144.5 -58t179 -21q133 0 253 39.5t211 107t162.5 156.5t114.5 187t59 200q9 71 8.5 141.5t-20 138t-49 128t-79.5 111.5t-111.5 88t-144.5 58t-179 21 q-165 0 -309.5 -60.5t-244 -159.5t-163.5 -220.5t-84 -249.5z" />
<glyph unicode="P" horiz-adv-x="1339" d="M348 1434h440q99 0 181.5 -13t156 -45t121 -81.5t68 -128.5t4.5 -181q-70 -440 -666 -440h-395l-86 -545h-51zM1270 993q14 89 -4 158t-60 112.5t-108.5 71t-140.5 38.5t-164 11h-402l-125 -790h396q546 0 608 399z" />
<glyph unicode="Q" horiz-adv-x="1689" d="M1481 -86l-37 -31l-209 246q-217 -149 -485 -149q-102 0 -191 22.5t-155.5 62.5t-121 95t-88 120t-55 138.5t-22.5 149.5t8 153q17 108 64 213t123.5 199t174 165.5t225 113.5t267.5 42q102 0 191 -22.5t155.5 -62.5t121 -95t88 -120t55 -138.5t22.5 -149.5t-8 -153 q-25 -156 -111 -303t-219 -252zM176 715q-9 -71 -8.5 -141.5t20 -138t49.5 -128t80 -111.5t111.5 -88t144.5 -58t179 -21q253 0 452 139l-278 328l37 32l280 -331q125 97 205 235.5t104 286.5q9 71 8.5 141.5t-20 138t-49 128t-79.5 111.5t-111.5 88t-144.5 58t-179 21 q-165 0 -309.5 -60.5t-244 -159.5t-163.5 -220.5t-84 -249.5z" />
<glyph unicode="R" horiz-adv-x="1396" d="M172 0h-51l227 1434h531q75 0 143 -13.5t130.5 -45t105 -78.5t61.5 -120t4 -163q-16 -103 -67.5 -182.5t-125.5 -126.5t-155.5 -71.5t-171.5 -29.5l450 -604h-59l-451 602h-477zM391 1384l-115 -733h488q67 0 131 11.5t128 39t114.5 69t87.5 106t49 145.5q13 79 -3.5 142 t-54 103.5t-92.5 67.5t-115.5 38t-127.5 11h-490z" />
<glyph unicode="S" horiz-adv-x="1159" d="M203 1120q14 87 65 153.5t125 104.5t155.5 57t166.5 19q229 0 393 -100l-8 -49q-156 103 -383 100q-81 0 -154.5 -16t-140 -48.5t-111 -91t-57.5 -135.5q-10 -65 6.5 -117.5t54 -88t90.5 -66.5t114.5 -53t126 -47.5t125.5 -49t113.5 -59t89.5 -77t53 -102t5 -135.5 q-14 -90 -63 -158t-122.5 -106.5t-158.5 -57t-180 -17.5q-131 0 -255.5 31.5t-215.5 86.5l6 49q200 -118 463 -118q89 0 165 15.5t143 48.5t110.5 92t56.5 139q11 76 -10.5 136t-67.5 99.5t-109 71.5t-133.5 57.5t-141.5 51.5t-133 59t-108 74.5t-66.5 104.5t-8.5 142z" />
<glyph unicode="T" horiz-adv-x="1204" d="M158 1434h1153l-8 -50h-551l-220 -1384h-51l219 1384h-550z" />
<glyph unicode="U" horiz-adv-x="1533" d="M1419 1434h51l-149 -942q-21 -139 -79.5 -240.5t-146.5 -159.5t-191 -85t-228 -27q-82 0 -151.5 11.5t-131.5 37t-106.5 65.5t-74.5 97.5t-36.5 132.5t6.5 170l148 940h51l-150 -940q-20 -127 4 -219t87 -144.5t150 -77t202 -24.5q524 0 598 467z" />
<glyph unicode="V" horiz-adv-x="1386" d="M625 0h-52l-399 1434h53l379 -1375l815 1375h58z" />
<glyph unicode="W" horiz-adv-x="2013" d="M2040 1434h53l-684 -1434h-55l-224 1329l-653 -1329h-57l-232 1434h52l219 -1364l661 1347h45l226 -1341z" />
<glyph unicode="X" horiz-adv-x="1236" d="M-8 0h-66l686 739l-426 695h58l403 -658l613 658h63l-651 -703l448 -731h-55l-428 694z" />
<glyph unicode="Y" horiz-adv-x="1277" d="M569 0h-51l92 582l-428 852h54l405 -801l659 801h62l-700 -852z" />
<glyph unicode="Z" horiz-adv-x="1159" d="M1008 0h-1055l6 45l1186 1339h-934l10 50h1000l-7 -45l-1187 -1340h989z" />
<glyph unicode="[" horiz-adv-x="481" d="M313 -225h-282l297 1884h282l-6 -49h-231l-285 -1786h231z" />
<glyph unicode="\" horiz-adv-x="817" d="M623 -117h-41l-344 1667h41z" />
<glyph unicode="]" horiz-adv-x="481" d="M193 -225h-283l6 49h234l282 1786h-231l6 49h282z" />
<glyph unicode="^" horiz-adv-x="989" d="M215 827h-57l452 607h45l260 -607h-53l-235 553z" />
<glyph unicode="_" horiz-adv-x="874" d="M739 -260h-874l8 49h875z" />
<glyph unicode="`" horiz-adv-x="337" d="M496 1593h-54l-143 273h57z" />
<glyph unicode="a" d="M985 254q-80 -122 -209.5 -198t-279.5 -76q-104 0 -189 37.5t-140 105t-77.5 166t-3.5 215.5q36 227 196.5 363.5t368.5 136.5q146 0 256.5 -79.5t151.5 -201.5l41 260h47l-156 -983h-47zM133 498q-17 -106 2.5 -195.5t69 -150t125 -94t168.5 -33.5q156 0 291 89t204 222 l49 307q-25 134 -132.5 224.5t-256.5 90.5q-192 0 -339.5 -123.5t-180.5 -336.5z" />
<glyph unicode="b" d="M305 1434h49l-110 -705q78 121 209 198t276 77q97 0 180.5 -38t141 -105t82.5 -166.5t6 -215.5q-24 -152 -105 -266.5t-200 -173.5t-261 -59q-152 0 -258 78.5t-147 207.5l-45 -266h-45zM1090 485q17 105 -5 195t-73.5 150t-125.5 94t-161 34q-156 0 -291 -90.5 t-207 -228.5l-47 -297q27 -137 131.5 -227t257.5 -90q200 0 344 122.5t177 337.5z" />
<glyph unicode="c" horiz-adv-x="1009" d="M84 496q16 104 61 190.5t106 144t136.5 97.5t151 58t151.5 18q173 0 281 -82l-8 -48q-103 84 -271 84q-71 0 -141 -16.5t-139 -53.5t-124.5 -90t-97 -133t-57.5 -176q-18 -113 6 -203t81 -146t135 -85.5t171 -29.5q177 0 324 81l-6 -51q-142 -75 -324 -75 q-100 0 -185.5 32t-149.5 93.5t-92 162.5t-9 228z" />
<glyph unicode="d" d="M1169 1434h50l-228 -1434h-45l41 258q-79 -124 -209.5 -201t-281.5 -77q-208 0 -327.5 146t-82.5 378q24 152 105.5 266.5t200.5 174t257 59.5q151 0 260 -79t148 -206zM1042 641q-26 137 -131 227t-258 90q-197 0 -342 -122.5t-178 -337.5q-34 -212 72 -342.5 t293 -130.5q157 0 292 90.5t205 228.5z" />
<glyph unicode="e" horiz-adv-x="1110" d="M84 494q19 119 72.5 217.5t128.5 161.5t164.5 97t183.5 34q102 0 180 -34.5t122 -90.5t66 -127t19.5 -145.5t-25.5 -145.5h-866q-12 -90 6 -164t57.5 -123.5t97 -83.5t122 -49.5t135.5 -15.5q184 0 336 79l-11 -51q-134 -73 -329 -73q-80 0 -153 18.5t-137 59t-107.5 99 t-61 145.5t-0.5 192zM958 506q14 49 15.5 100.5t-8 102.5t-35 95.5t-64 79t-98 54.5t-133.5 20q-116 0 -218.5 -51t-179 -155t-102.5 -246h823z" />
<glyph unicode="f" horiz-adv-x="716" d="M309 1157q25 156 121.5 226.5t237.5 70.5q129 0 225 -47l-8 -47q-84 49 -213 49q-127 0 -210.5 -60.5t-105.5 -193.5l-26 -172h436l-6 -47h-436l-150 -936h-49l149 936h-168l7 47h168z" />
<glyph unicode="g" d="M989 -2q-16 -101 -57 -181.5t-96.5 -133.5t-126.5 -88.5t-145.5 -50.5t-155.5 -15q-213 0 -361 94l8 49q149 -98 348 -98q96 0 181 23.5t160 72t126.5 133.5t69.5 199l41 250q-78 -120 -208 -196t-279 -76q-214 0 -331 145t-79 379q24 152 106 266.5t201.5 174 t257.5 59.5q151 0 258 -79.5t150 -209.5l41 268h47zM131 498q-35 -213 69 -343t296 -130q157 0 292 89.5t205 225.5l47 301q-26 137 -131 227t-258 90q-195 0 -341 -123t-179 -337z" />
<glyph unicode="h" horiz-adv-x="1175" d="M305 1434h49l-106 -670q36 43 79.5 81.5t101 76t128 60t143.5 22.5q164 0 256.5 -108.5t63.5 -291.5l-96 -604h-50l97 602q27 167 -53 261.5t-226 94.5q-138 0 -259.5 -79.5t-196.5 -186.5l-109 -692h-49z" />
<glyph unicode="i" horiz-adv-x="409" d="M135 0h-49l156 983h49zM350 1257q-6 -36 -45 -36q-18 0 -29 11t-8 32q6 36 45 36q18 0 29 -11t8 -32z" />
<glyph unicode="j" horiz-adv-x="407" d="M96 -240q-38 -231 -272 -231q-77 0 -141 25l8 45q58 -25 127 -25q95 0 154 44.5t77 150.5l191 1214h49zM350 1257q-6 -36 -45 -36q-18 0 -29 11t-8 32q6 36 45 36q18 0 29 -11t8 -32z" />
<glyph unicode="k" horiz-adv-x="1001" d="M940 983h59l-485 -477l385 -506h-57l-371 489h-266l-78 -489h-49l227 1434h49l-143 -897h272z" />
<glyph unicode="l" horiz-adv-x="407" d="M322 1495h49l-238 -1495h-49z" />
<glyph unicode="m" horiz-adv-x="1830" d="M961 778q49 57 107.5 104t144.5 84.5t171 37.5q155 0 237 -103t56 -262l-100 -639h-49l102 639q22 139 -46 229t-204 90q-64 0 -127 -21t-115.5 -56.5t-93.5 -74t-75 -81.5q0 -39 -6 -86l-101 -639h-49l102 639q22 139 -45.5 229t-203.5 90q-127 0 -238.5 -75.5 t-187.5 -175.5l-113 -707h-49l155 983h46l-33 -213q33 41 75.5 79.5t96.5 74.5t120 58t132 22q117 0 194.5 -61t96.5 -165z" />
<glyph unicode="n" horiz-adv-x="1175" d="M244 760q36 44 79.5 83t102 77.5t130.5 61t146 22.5q163 0 254.5 -108.5t63.5 -291.5l-96 -604h-50l97 602q27 167 -53 261.5t-226 94.5q-138 0 -259.5 -79.5t-196.5 -186.5l-109 -692h-49l155 983h46z" />
<glyph unicode="o" horiz-adv-x="1212" d="M1096 479q-19 -118 -76 -214.5t-137.5 -157.5t-175.5 -94t-195 -33q-96 0 -181 36t-147 101.5t-90 166t-10 220.5q15 95 55.5 177t97.5 140.5t128 100t148.5 62t156.5 20.5q96 0 181 -36.5t147 -101.5t89.5 -166t8.5 -221zM133 496q-17 -106 7 -196t78.5 -149 t130.5 -91.5t163 -32.5q93 0 181 30.5t161.5 87t125 145t67.5 197.5q17 106 -7 196t-78.5 149t-130.5 91.5t-163 32.5q-93 0 -181 -30.5t-161.5 -87t-125 -145t-67.5 -197.5z" />
<glyph unicode="p" d="M238 723q82 126 212.5 203.5t278.5 77.5q206 0 326.5 -146.5t83.5 -378.5q-36 -229 -194 -364t-372 -135q-152 0 -258 78t-147 206l-113 -715h-49l227 1434h46zM1090 485q34 211 -73 342t-294 131q-152 0 -289 -91.5t-207 -227.5l-47 -297q27 -137 131.5 -227t257.5 -90 q197 0 342 122.5t179 337.5z" />
<glyph unicode="q" d="M86 504q36 227 196.5 363.5t368.5 136.5q146 0 256.5 -79.5t151.5 -203.5l41 262h47l-227 -1434h-50l111 701q-77 -119 -206 -194.5t-279 -75.5q-104 0 -189 37.5t-140 105t-77.5 166t-3.5 215.5zM1042 643q-25 134 -132.5 224.5t-256.5 90.5q-192 0 -339.5 -123.5 t-180.5 -336.5q-17 -106 2.5 -195.5t69 -150t125 -94t168.5 -33.5q156 0 291 89t204 222z" />
<glyph unicode="r" horiz-adv-x="692" d="M231 682q73 140 203 232.5t297 89.5l-8 -50q-87 2 -169.5 -29t-146 -84t-111.5 -118.5t-77 -136.5l-92 -586h-49l155 983h46z" />
<glyph unicode="s" horiz-adv-x="931" d="M125 760q10 63 48.5 112t94 76.5t118.5 41.5t130 14q92 0 178 -23.5t144 -62.5l-7 -46q-56 39 -141.5 62.5t-173.5 23.5q-82 0 -152.5 -20t-124.5 -67.5t-65 -116.5q-8 -51 10 -90.5t55 -64t86.5 -43.5t105.5 -34t111.5 -30.5t104.5 -37.5t85 -50.5t53 -73.5t8 -103 q-13 -84 -75 -141.5t-145 -81.5t-182 -24q-101 0 -201.5 28t-160.5 72l8 47q65 -46 161.5 -74t190.5 -28q90 0 163.5 20.5t126.5 68t64 117.5q8 51 -9.5 89.5t-54 62.5t-86 43t-105.5 34t-111.5 31t-104.5 38t-85 51t-53.5 75t-8.5 105z" />
<glyph unicode="t" horiz-adv-x="729" d="M315 1305l52 18l-54 -340h441l-9 -47h-438l-106 -664q-20 -121 34 -184t173 -63q124 0 221 51l-6 -47q-85 -49 -224 -49q-134 0 -202 75.5t-45 214.5l106 666h-184l6 47h184z" />
<glyph unicode="u" horiz-adv-x="1177" d="M1018 983h49l-156 -983h-45l35 223q-74 -95 -194.5 -169t-257.5 -74q-166 0 -259 108.5t-65 292.5l96 602h49l-96 -602q-26 -167 52.5 -261.5t224.5 -94.5q141 0 262 80t194 188z" />
<glyph unicode="v" horiz-adv-x="1064" d="M1028 983h55l-618 -983h-53l-306 983h52l286 -928z" />
<glyph unicode="w" horiz-adv-x="1630" d="M1585 983h53l-534 -983h-47l-189 901l-481 -901h-49l-221 983h49l207 -913l479 897h47l188 -899z" />
<glyph unicode="x" horiz-adv-x="987" d="M2 0h-61l510 506l-330 477h57l305 -442l451 442h61l-485 -479l348 -504h-55l-326 469z" />
<glyph unicode="y" horiz-adv-x="1085" d="M481 51l563 932h56l-705 -1163q-98 -160 -181.5 -225.5t-180.5 -65.5q-51 0 -101 12l7 43q41 -10 90 -10q91 0 165.5 63t159.5 205l97 158l-355 983h51z" />
<glyph unicode="z" horiz-adv-x="899" d="M147 983h732l-9 -39l-833 -899h715l-9 -45h-780l6 39l836 899h-664z" />
<glyph unicode="{" horiz-adv-x="526" d="M326 -180l-7 -45q-113 -18 -153.5 30.5t-22.5 157.5l84 529q16 99 -31 150.5t-124 51.5l6 45q76 0 140.5 53.5t80.5 153.5l84 529q18 110 73.5 157.5t159.5 26.5l-6 -45q-84 16 -124 -23t-56 -135l-82 -520q-14 -90 -64.5 -146t-119.5 -75q60 -17 94.5 -72t20.5 -147 l-82 -523q-14 -93 12.5 -130t116.5 -23z" />
<glyph unicode="|" horiz-adv-x="370" d="M84 -205h-51l295 1864h51z" />
<glyph unicode="}" horiz-adv-x="526" d="M182 -41q-18 -109 -73 -157t-160 -27l6 47q83 -17 123.5 20.5t54.5 128.5l84 531q14 92 67 147t124 70q-63 17 -99 73t-22 148l84 522q14 93 -12.5 130.5t-118.5 23.5l6 43q110 20 152 -30t24 -159l-84 -528q-14 -100 34 -151.5t122 -51.5l-7 -45q-75 0 -140 -53.5 t-81 -153.5z" />
<glyph unicode="~" horiz-adv-x="1173" d="M1047 750q-8 -76 -60 -123t-133 -47q-51 0 -122.5 22.5t-132 49t-131 49t-118.5 22.5q-61 0 -100 -34.5t-47 -88.5h-47q9 76 61 123t131 47q53 0 125 -22.5t131.5 -49t129 -49t118.5 -22.5q62 0 101.5 34t45.5 89h48z" />
<glyph unicode="&#xa1;" horiz-adv-x="368" d="M43 -442h-51l176 1089h45zM283 956q-3 -19 -17 -31t-33 -12q-20 0 -31 14t-7 36q3 18 17 29.5t30 11.5q22 0 33.5 -13.5t7.5 -34.5z" />
<glyph unicode="&#xa2;" horiz-adv-x="1048" d="M979 922l-8 -48q-103 84 -269 84l-147 -933q166 7 303 81l-6 -51q-138 -72 -305 -75l-35 -226h-45l35 226q-95 4 -176 38t-141 95.5t-85.5 160.5t-7.5 222q15 100 57 183.5t99 140.5t128.5 98t143.5 61.5t146 24.5l34 225h45l-34 -225q163 -3 268 -82zM657 956 q-86 -6 -167 -36.5t-153.5 -85.5t-125 -144t-70.5 -201q-18 -109 4 -197.5t75.5 -144.5t127.5 -87t162 -35z" />
<glyph unicode="&#xa3;" horiz-adv-x="1241" d="M1055 0h-1067l8 49h63q80 0 132 51.5t69 149.5l66 420h-166l8 49h166l37 233q15 100 52.5 180t87.5 132t113 86t127.5 48.5t133.5 14.5q158 0 276 -80l-8 -49q-113 80 -268 80q-62 0 -120 -12.5t-115.5 -43t-102.5 -77t-79 -118.5t-48 -163l-35 -231h524l-8 -49h-524 l-68 -422q-23 -159 -127 -199h881z" />
<glyph unicode="&#xa4;" horiz-adv-x="1171" d="M307 422l-155 -133l-29 35l153 133q-89 105 -63 264q24 157 145 260l-110 129l41 35l110 -133q118 86 265 86q141 0 243 -86l154 133l29 -35l-154 -133q89 -102 63 -264q-20 -151 -143 -260l109 -129l-39 -35l-111 133q-121 -86 -266 -86q-143 0 -242 86zM262 713 q-15 -97 21 -173.5t106.5 -116.5t161.5 -40q144 0 260.5 93.5t140.5 244.5q23 145 -62 237.5t-226 92.5q-146 0 -261 -93t-141 -245z" />
<glyph unicode="&#xa5;" horiz-adv-x="1284" d="M1272 1393h55l-635 -770h365l-8 -45h-387l-33 -201h389l-8 -45h-389l-54 -332h-49l51 332h-387l8 45h388l32 201h-389l8 45h363l-391 770h55l385 -766z" />
<glyph unicode="&#xa6;" horiz-adv-x="407" d="M287 956h-51l110 703h49zM102 -205h-51l113 703h49z" />
<glyph unicode="&#xa7;" horiz-adv-x="991" d="M791 168q-18 -111 -130 -174.5t-260 -63.5q-96 0 -183.5 24.5t-149.5 65.5l6 50q140 -95 325 -95q134 0 231.5 54.5t110.5 146.5q9 56 -8 97t-65 69t-89.5 43.5t-117.5 36.5q-149 42 -205 72q-132 72 -114 209q1 3 1 6q16 93 90 161t168 107q-86 36 -128.5 90.5 t-28.5 144.5q19 113 125.5 177.5t244.5 64.5q167 0 308 -80l-7 -47q-131 82 -299 82q-125 0 -216.5 -54.5t-106.5 -148.5q-7 -46 8.5 -82.5t36.5 -58t74.5 -43.5t82.5 -30.5t100 -26.5q5 -1 7 -2q57 -16 96.5 -30t84 -38t69.5 -51.5t38 -70t5 -93.5q-29 -168 -274 -264 q199 -75 170 -248zM477 465q14 -4 44 -13t46 -14q44 14 84.5 32t83.5 47t73 71.5t38 93.5q7 44 -4.5 78.5t-32 57.5t-60 43t-73.5 31t-88 26q-18 5 -63.5 17.5t-69.5 20.5q-54 -17 -105.5 -46t-98.5 -83.5t-58 -119.5q-3 -29 -1.5 -52.5t12.5 -43.5t24 -35.5t34.5 -29 t43 -24t49.5 -20t54 -17.5t57 -17q7 -2 11 -3z" />
<glyph unicode="&#xa8;" horiz-adv-x="565" d="M764 1708q-3 -19 -17.5 -32t-33.5 -13q-22 0 -34 15.5t-7 35.5q1 17 16.5 30t32.5 13q23 0 34.5 -14t8.5 -35zM354 1708q-3 -19 -17.5 -32t-33.5 -13q-22 0 -34 15.5t-7 35.5q1 17 16.5 30t32.5 13q23 0 34.5 -14t8.5 -35z" />
<glyph unicode="&#xa9;" horiz-adv-x="1751" d="M1655 705q-22 -141 -85.5 -261.5t-152 -204.5t-196 -143.5t-218.5 -87.5t-219 -28q-109 0 -212.5 30t-193 92t-152 149t-88.5 211t-3 267q22 141 85.5 261.5t151.5 204.5t195.5 143.5t218.5 87.5t220 28q90 0 177 -21t166.5 -63t143.5 -105t107.5 -146t58.5 -187t-4 -227 zM1137 375q-136 -68 -277 -68q-76 0 -143 25.5t-118 74t-74 128t-7 178.5q14 86 50.5 156.5t86 117.5t110 79t121 46t120.5 14q144 0 237 -71l-4 -39q-94 69 -227 69q-72 0 -141.5 -21.5t-134 -64t-111.5 -118.5t-62 -174q-14 -88 5.5 -158.5t64 -113t104.5 -65t129 -22.5 q144 0 277 70zM164 725q-21 -135 3 -253t82.5 -201.5t143 -144t183 -89.5t202.5 -29q106 0 214.5 27t212.5 84t189.5 138t147.5 198t84 254q21 136 -3.5 253.5t-83 201t-143 143.5t-183.5 89t-203 29q-106 0 -214.5 -27t-212.5 -84t-189.5 -137.5t-147 -197.5t-82.5 -254z " />
<glyph unicode="&#xab;" horiz-adv-x="849" d="M637 141h-51l-191 342l2 19l295 340h58l-306 -353zM332 141h-51l-191 342l2 19l295 340h57l-305 -353z" />
<glyph unicode="&#xac;" horiz-adv-x="1187" d="M1026 618h-49l51 318h-821l6 47h870z" />
<glyph unicode="&#xad;" horiz-adv-x="997" d="M135 520h705l-9 -47h-702z" />
<glyph unicode="&#xae;" horiz-adv-x="1751" d="M1655 705q-22 -141 -85.5 -261.5t-152 -204.5t-196 -143.5t-218.5 -87.5t-219 -28q-109 0 -212.5 30t-193 92t-152 149t-88.5 211t-3 267q22 141 85.5 261.5t151.5 204.5t195.5 143.5t218.5 87.5t220 28q90 0 177 -21t166.5 -63t143.5 -105t107.5 -146t58.5 -187t-4 -227 zM164 725q-21 -135 3 -253t82.5 -201.5t143 -144t183 -89.5t202.5 -29q106 0 214.5 27t212.5 84t189.5 138t147.5 198t84 254q21 136 -3.5 253.5t-83 201t-143 143.5t-183.5 89t-203 29q-106 0 -214.5 -27t-212.5 -84t-189.5 -137.5t-147 -197.5t-82.5 -254zM608 305h-41 l127 809h307q35 0 70.5 -6t75 -23t67 -43.5t41.5 -73t5 -106.5q-31 -182 -226 -219l185 -338h-45l-181 332q-27 -4 -69 -4h-265zM729 1073l-63 -399h264q258 0 289 194q8 51 -4 89.5t-35 60t-57.5 34.5t-64.5 17t-63 4h-266z" />
<glyph unicode="&#xaf;" horiz-adv-x="606" d="M272 1708h516l-6 -47h-516z" />
<glyph unicode="&#xb0;" horiz-adv-x="796" d="M782 1176q-21 -129 -119 -206t-217 -77q-120 0 -197 81.5t-56 215.5q15 86 67.5 151t122.5 97t145 32q120 0 197.5 -81.5t56.5 -212.5zM233 1184q-18 -111 46 -181.5t167 -70.5q106 0 191.5 67t103.5 181q18 111 -45.5 181.5t-163.5 70.5q-107 0 -194 -67t-105 -181z" />
<glyph unicode="&#xb1;" horiz-adv-x="1196" d="M725 1165l-68 -411h412l-6 -47h-412l-65 -412h-47l65 412h-411l6 47h411l66 411h49zM950 0h-870l8 47h870z" />
<glyph unicode="&#xb4;" horiz-adv-x="337" d="M324 1593h-56l221 273h62z" />
<glyph unicode="&#xb6;" horiz-adv-x="1208" d="M397 -451h-49l168 1057q-205 0 -305.5 110.5t-69.5 307.5q31 193 165 301.5t339 108.5h518l-299 -1885h-51l291 1835h-416z" />
<glyph unicode="&#xb7;" horiz-adv-x="382" d="M221 485q-3 -18 -17 -29.5t-32 -11.5q-21 0 -33.5 13.5t-9.5 36.5q3 18 17 29.5t32 11.5q22 0 34 -13.5t9 -36.5z" />
<glyph unicode="&#xb8;" horiz-adv-x="430" d="M139 0h45l-78 -195q61 12 115.5 5.5t89.5 -42t27 -90.5q-9 -68 -72 -108.5t-172 -40.5q-119 0 -207 45l9 43q82 -45 194 -45q96 0 147 31.5t56 81.5q10 66 -70 88.5t-176 -9.5z" />
<glyph unicode="&#xbb;" horiz-adv-x="849" d="M430 141h-57l305 353l-193 348h54l188 -342l-2 -19zM125 141h-57l305 353l-193 348h53l189 -342l-2 -19z" />
<glyph unicode="&#xbc;" horiz-adv-x="1918" d="M1657 836h47l-92 -590h176l-4 -41h-178l-33 -205h-45l33 205h-490l6 39zM1567 246l82 524l-514 -524h432zM362 -23h-36l1167 1477h37zM463 1393h33l-125 -793h161l-8 -43h-415l8 43h209l118 743l-202 -71l6 43z" />
<glyph unicode="&#xbd;" horiz-adv-x="1812" d="M352 -23h-37l1168 1477h37zM1223 776q124 72 262 72q115 0 184.5 -57.5t52.5 -153.5q-8 -49 -32.5 -90.5t-67 -76.5t-83.5 -60.5t-103 -57.5q-131 -70 -176 -104q-111 -83 -132 -205h512l-8 -43h-563l4 27q6 42 21.5 80t31.5 66t46 57t50.5 46t60.5 41t61 35.5t65 34.5 q55 29 81.5 44t66.5 42t59.5 49t37.5 53.5t23 67.5q13 75 -42 118.5t-152 43.5q-134 0 -269 -78zM453 1393h32l-125 -793h162l-8 -43h-416l8 43h209l119 743l-203 -71l7 43z" />
<glyph unicode="&#xbe;" horiz-adv-x="2017" d="M512 -23h-37l1167 1477h37zM1753 836h47l-92 -590h176l-4 -41h-178l-33 -205h-45l33 205h-490l7 39zM1663 246l82 524l-514 -524h432zM760 1188q-11 -66 -61.5 -119.5t-133.5 -71.5q81 -12 129.5 -67t34.5 -148q-17 -109 -108 -169t-228 -60q-156 0 -268 53l8 45 q107 -55 258 -55q124 0 202 50.5t93 146.5q14 93 -46.5 137.5t-168.5 44.5h-123l6 43h117q107 0 170.5 51.5t73.5 124.5q12 75 -43 125.5t-156 50.5q-136 0 -264 -55l8 47q121 51 262 51q117 0 184.5 -65t53.5 -160z" />
<glyph unicode="&#xbf;" horiz-adv-x="980" d="M760 -348q-197 -115 -410 -115q-197 0 -305 89t-84 243q13 81 68.5 163.5t126.5 151.5t142 136t125.5 142t65.5 146h50q-10 -66 -51 -133.5t-95 -122t-117 -116t-117 -116t-95.5 -122t-51.5 -133.5q-22 -131 71 -205t273 -74q204 0 412 117zM616 954q-3 -17 -18 -29 t-31 -12q-22 0 -33.5 14t-7.5 36q3 19 16.5 30t32.5 11q21 0 32.5 -13.5t8.5 -36.5z" />
<glyph unicode="&#xc0;" horiz-adv-x="1447" d="M1319 0h-53l-133 440h-861l-274 -440h-57l886 1434h62zM831 1350l-532 -861h821l-260 863q-7 14 -10 34q-2 -7 -19 -36zM940 1593h-53l-144 273h58z" />
<glyph unicode="&#xc1;" horiz-adv-x="1447" d="M1319 0h-53l-133 440h-861l-274 -440h-57l886 1434h62zM831 1350l-532 -861h821l-260 863q-7 14 -10 34q-2 -7 -19 -36zM874 1593h-55l221 273h62z" />
<glyph unicode="&#xc2;" horiz-adv-x="1447" d="M1319 0h-53l-133 440h-861l-274 -440h-57l886 1434h62zM831 1350l-532 -861h821l-260 863q-7 14 -10 34q-2 -7 -19 -36zM899 1849h43l219 -256h-55l-186 217l-256 -217h-62z" />
<glyph unicode="&#xc3;" horiz-adv-x="1447" d="M1319 0h-53l-133 440h-861l-274 -440h-57l886 1434h62zM831 1350l-532 -861h821l-260 863q-7 14 -10 34q-2 -7 -19 -36zM1196 1763q-2 -66 -39 -106.5t-98 -40.5q-48 0 -109 29t-119 57.5t-98 28.5q-44 0 -71 -29t-27 -76h-45q0 65 39.5 107.5t97.5 42.5q47 0 108.5 -29 t120.5 -57.5t99 -28.5q46 0 70 27t26 75h45z" />
<glyph unicode="&#xc4;" horiz-adv-x="1447" d="M1319 0h-53l-133 440h-861l-274 -440h-57l886 1434h62zM831 1350l-532 -861h821l-260 863q-7 14 -10 34q-2 -7 -19 -36zM1149 1708q-3 -19 -17.5 -32t-33.5 -13q-22 0 -34 15.5t-7 35.5q1 17 16.5 30t32.5 13q23 0 34.5 -14t8.5 -35zM739 1708q-3 -19 -17.5 -32 t-33.5 -13q-22 0 -34 15.5t-7 35.5q1 17 16.5 30t32.5 13q23 0 34.5 -14t8.5 -35z" />
<glyph unicode="&#xc5;" horiz-adv-x="1447" d="M1319 0h-53l-133 440h-861l-274 -440h-57l886 1434h62zM831 1350l-532 -861h821l-260 863q-7 14 -10 34q-2 -7 -19 -36zM1075 1716q-12 -73 -68.5 -118.5t-125.5 -45.5q-72 0 -117.5 48.5t-32.5 123.5q10 71 68 117.5t127 46.5q72 0 117 -48.5t32 -123.5zM770 1718 q-9 -56 25 -91.5t84 -35.5q57 0 102 35t55 94q9 57 -23.5 93t-84.5 36q-55 0 -101.5 -36t-56.5 -95z" />
<glyph unicode="&#xc6;" horiz-adv-x="2037" d="M2040 1434l-8 -50h-820l-100 -639h758l-8 -49h-758l-103 -647h832l-8 -49h-881l70 442h-674l-385 -442h-64l1256 1434h893zM383 489h639l141 893z" />
<glyph unicode="&#xc7;" horiz-adv-x="1329" d="M1348 1305q-138 100 -363 100q-103 0 -205.5 -26t-201.5 -81t-179.5 -134t-139 -194t-79.5 -251q-21 -134 0.5 -249t76.5 -194.5t135.5 -136t174.5 -83.5t195 -27q219 0 412 102l-11 -53q-182 -98 -399 -98l-70 -175q61 12 115.5 5.5t89.5 -42t27 -90.5 q-8 -68 -70.5 -108.5t-171.5 -40.5q-122 0 -207 45l6 43q85 -45 197 -45q96 0 146.5 31t56.5 82q10 66 -70.5 88.5t-177.5 -9.5l86 216q-104 5 -200 37.5t-178 93t-137 149.5t-77.5 205.5t0.5 261.5q23 143 85 264t147.5 205t190 143t213 87t216.5 28q224 0 375 -98z" />
<glyph unicode="&#xc8;" horiz-adv-x="1282" d="M348 1434h932l-8 -50h-881l-100 -639h819l-8 -49h-819l-103 -647h893l-8 -49h-944zM899 1593h-53l-144 273h58z" />
<glyph unicode="&#xc9;" horiz-adv-x="1282" d="M348 1434h932l-8 -50h-881l-100 -639h819l-8 -49h-819l-103 -647h893l-8 -49h-944zM834 1593h-56l221 273h62z" />
<glyph unicode="&#xca;" horiz-adv-x="1282" d="M348 1434h932l-8 -50h-881l-100 -639h819l-8 -49h-819l-103 -647h893l-8 -49h-944zM858 1849h43l219 -256h-55l-186 217l-256 -217h-62z" />
<glyph unicode="&#xcb;" horiz-adv-x="1282" d="M348 1434h932l-8 -50h-881l-100 -639h819l-8 -49h-819l-103 -647h893l-8 -49h-944zM1108 1708q-3 -19 -17.5 -32t-33.5 -13q-22 0 -34 15.5t-7 35.5q1 17 16.5 30t32.5 13q23 0 34.5 -14t8.5 -35zM698 1708q-3 -19 -17.5 -32t-33.5 -13q-22 0 -34 15.5t-7 35.5 q1 17 16.5 30t32.5 13q23 0 34.5 -14t8.5 -35z" />
<glyph unicode="&#xcc;" horiz-adv-x="481" d="M348 1434h51l-227 -1434h-51zM455 1593h-54l-143 273h57z" />
<glyph unicode="&#xcd;" horiz-adv-x="481" d="M348 1434h51l-227 -1434h-51zM389 1593h-55l221 273h61z" />
<glyph unicode="&#xce;" horiz-adv-x="481" d="M348 1434h51l-227 -1434h-51zM414 1849h43l219 -256h-55l-187 217l-256 -217h-61z" />
<glyph unicode="&#xcf;" horiz-adv-x="481" d="M348 1434h51l-227 -1434h-51zM664 1708q-3 -19 -18 -32t-34 -13q-22 0 -34 15.5t-7 35.5q1 17 16.5 30t33.5 13q23 0 34.5 -14t8.5 -35zM254 1708q-3 -19 -17.5 -32t-33.5 -13q-22 0 -34 15.5t-7 35.5q1 17 16.5 30t32.5 13q23 0 34.5 -14t8.5 -35z" />
<glyph unicode="&#xd0;" horiz-adv-x="1497" d="M350 1434h400q189 0 328.5 -54t218 -151t106 -227.5t2.5 -288.5q-24 -156 -90.5 -284.5t-173.5 -225t-263 -150t-348 -53.5h-407l108 692h-129l7 47h131zM537 49q177 0 321.5 49.5t245 139.5t164 212t86.5 271q23 147 -2 267t-97 209t-201 138t-306 49h-357l-102 -645 h530l-6 -47h-530l-103 -643h357z" />
<glyph unicode="&#xd1;" horiz-adv-x="1570" d="M172 0h-51l227 1434h41l836 -1348q2 20 7 53t7 47l199 1248h51l-227 -1434h-41l-836 1350q-3 -32 -16 -101zM1260 1763q-2 -66 -39.5 -106.5t-98.5 -40.5q-48 0 -109 29t-118.5 57.5t-97.5 28.5q-44 0 -71.5 -29t-27.5 -76h-45q0 65 40 107.5t98 42.5q47 0 108.5 -29 t120 -57.5t98.5 -28.5q46 0 70 27t26 75h46z" />
<glyph unicode="&#xd2;" horiz-adv-x="1689" d="M1604 713q-17 -108 -63.5 -213t-122.5 -199t-173.5 -165.5t-225.5 -113.5t-269 -42q-102 0 -191 22.5t-155.5 62.5t-121 95t-88 120t-55 138.5t-22.5 149.5t8 153q17 108 64 213t123.5 199t174 165.5t225 113.5t267.5 42q102 0 191 -22.5t155.5 -62.5t121 -95t88 -120 t55 -138.5t22.5 -149.5t-8 -153zM176 715q-9 -71 -8.5 -141.5t20 -138t49.5 -128t80 -111.5t111.5 -88t144.5 -58t179 -21q133 0 253 39.5t211 107t162.5 156.5t114.5 187t59 200q9 71 8.5 141.5t-20 138t-49 128t-79.5 111.5t-111.5 88t-144.5 58t-179 21 q-165 0 -309.5 -60.5t-244 -159.5t-163.5 -220.5t-84 -249.5zM1061 1593h-53l-144 273h58z" />
<glyph unicode="&#xd3;" horiz-adv-x="1689" d="M1604 713q-17 -108 -63.5 -213t-122.5 -199t-173.5 -165.5t-225.5 -113.5t-269 -42q-102 0 -191 22.5t-155.5 62.5t-121 95t-88 120t-55 138.5t-22.5 149.5t8 153q17 108 64 213t123.5 199t174 165.5t225 113.5t267.5 42q102 0 191 -22.5t155.5 -62.5t121 -95t88 -120 t55 -138.5t22.5 -149.5t-8 -153zM176 715q-9 -71 -8.5 -141.5t20 -138t49.5 -128t80 -111.5t111.5 -88t144.5 -58t179 -21q133 0 253 39.5t211 107t162.5 156.5t114.5 187t59 200q9 71 8.5 141.5t-20 138t-49 128t-79.5 111.5t-111.5 88t-144.5 58t-179 21 q-165 0 -309.5 -60.5t-244 -159.5t-163.5 -220.5t-84 -249.5zM995 1593h-55l221 273h62z" />
<glyph unicode="&#xd4;" horiz-adv-x="1689" d="M1604 713q-17 -108 -63.5 -213t-122.5 -199t-173.5 -165.5t-225.5 -113.5t-269 -42q-102 0 -191 22.5t-155.5 62.5t-121 95t-88 120t-55 138.5t-22.5 149.5t8 153q17 108 64 213t123.5 199t174 165.5t225 113.5t267.5 42q102 0 191 -22.5t155.5 -62.5t121 -95t88 -120 t55 -138.5t22.5 -149.5t-8 -153zM176 715q-9 -71 -8.5 -141.5t20 -138t49.5 -128t80 -111.5t111.5 -88t144.5 -58t179 -21q133 0 253 39.5t211 107t162.5 156.5t114.5 187t59 200q9 71 8.5 141.5t-20 138t-49 128t-79.5 111.5t-111.5 88t-144.5 58t-179 21 q-165 0 -309.5 -60.5t-244 -159.5t-163.5 -220.5t-84 -249.5zM1020 1849h43l219 -256h-55l-187 217l-256 -217h-61z" />
<glyph unicode="&#xd5;" horiz-adv-x="1689" d="M1604 713q-17 -108 -63.5 -213t-122.5 -199t-173.5 -165.5t-225.5 -113.5t-269 -42q-102 0 -191 22.5t-155.5 62.5t-121 95t-88 120t-55 138.5t-22.5 149.5t8 153q17 108 64 213t123.5 199t174 165.5t225 113.5t267.5 42q102 0 191 -22.5t155.5 -62.5t121 -95t88 -120 t55 -138.5t22.5 -149.5t-8 -153zM176 715q-9 -71 -8.5 -141.5t20 -138t49.5 -128t80 -111.5t111.5 -88t144.5 -58t179 -21q133 0 253 39.5t211 107t162.5 156.5t114.5 187t59 200q9 71 8.5 141.5t-20 138t-49 128t-79.5 111.5t-111.5 88t-144.5 58t-179 21 q-165 0 -309.5 -60.5t-244 -159.5t-163.5 -220.5t-84 -249.5zM1317 1763q-2 -66 -39 -106.5t-98 -40.5q-48 0 -109 29t-119 57.5t-98 28.5q-44 0 -71 -29t-27 -76h-45q0 65 39.5 107.5t97.5 42.5q47 0 108.5 -29t120.5 -57.5t99 -28.5q46 0 70 27t26 75h45z" />
<glyph unicode="&#xd6;" horiz-adv-x="1689" d="M1604 713q-17 -108 -63.5 -213t-122.5 -199t-173.5 -165.5t-225.5 -113.5t-269 -42q-102 0 -191 22.5t-155.5 62.5t-121 95t-88 120t-55 138.5t-22.5 149.5t8 153q17 108 64 213t123.5 199t174 165.5t225 113.5t267.5 42q102 0 191 -22.5t155.5 -62.5t121 -95t88 -120 t55 -138.5t22.5 -149.5t-8 -153zM176 715q-9 -71 -8.5 -141.5t20 -138t49.5 -128t80 -111.5t111.5 -88t144.5 -58t179 -21q133 0 253 39.5t211 107t162.5 156.5t114.5 187t59 200q9 71 8.5 141.5t-20 138t-49 128t-79.5 111.5t-111.5 88t-144.5 58t-179 21 q-165 0 -309.5 -60.5t-244 -159.5t-163.5 -220.5t-84 -249.5zM1270 1708q-3 -19 -17.5 -32t-33.5 -13q-22 0 -34 15.5t-7 35.5q1 17 16.5 30t32.5 13q23 0 34.5 -14t8.5 -35zM860 1708q-3 -19 -17.5 -32t-33.5 -13q-22 0 -34 15.5t-7 35.5q1 17 16.5 30t32.5 13 q23 0 34.5 -14t8.5 -35z" />
<glyph unicode="&#xd7;" horiz-adv-x="909" d="M469 686l-319 -278l-29 34l319 275l-233 276l37 31l231 -274l322 276l26 -33l-319 -276l231 -277l-35 -32z" />
<glyph unicode="&#xd8;" horiz-adv-x="1689" d="M170 -98h-53l198 225q-120 106 -167.5 265t-20.5 329q17 108 63 213t122.5 199t174 165.5t225 113.5t267.5 42q241 0 405 -121l177 199h53l-199 -225q120 -106 168 -265.5t21 -328.5q-17 -108 -62.5 -213t-122 -199t-173.5 -165.5t-225 -113.5t-269 -42q-244 0 -406 120z M178 715q-24 -159 19 -306t155 -243l1000 1128q-146 111 -373 111q-133 0 -253.5 -39.5t-211.5 -107t-162.5 -156.5t-114.5 -187t-59 -200zM381 139q145 -110 373 -110q133 0 253 39.5t211 107t162 156.5t113.5 187t58.5 200q26 158 -17 305.5t-155 243.5z" />
<glyph unicode="&#xd9;" horiz-adv-x="1533" d="M1419 1434h51l-149 -942q-21 -139 -79.5 -240.5t-146.5 -159.5t-191 -85t-228 -27q-82 0 -151.5 11.5t-131.5 37t-106.5 65.5t-74.5 97.5t-36.5 132.5t6.5 170l148 940h51l-150 -940q-20 -127 4 -219t87 -144.5t150 -77t202 -24.5q524 0 598 467zM977 1593h-53l-144 273 h58z" />
<glyph unicode="&#xda;" horiz-adv-x="1533" d="M1419 1434h51l-149 -942q-21 -139 -79.5 -240.5t-146.5 -159.5t-191 -85t-228 -27q-82 0 -151.5 11.5t-131.5 37t-106.5 65.5t-74.5 97.5t-36.5 132.5t6.5 170l148 940h51l-150 -940q-20 -127 4 -219t87 -144.5t150 -77t202 -24.5q524 0 598 467zM911 1593h-55l221 273 h62z" />
<glyph unicode="&#xdb;" horiz-adv-x="1533" d="M1419 1434h51l-149 -942q-21 -139 -79.5 -240.5t-146.5 -159.5t-191 -85t-228 -27q-82 0 -151.5 11.5t-131.5 37t-106.5 65.5t-74.5 97.5t-36.5 132.5t6.5 170l148 940h51l-150 -940q-20 -127 4 -219t87 -144.5t150 -77t202 -24.5q524 0 598 467zM936 1849h43l219 -256 h-55l-187 217l-256 -217h-61z" />
<glyph unicode="&#xdc;" horiz-adv-x="1533" d="M1419 1434h51l-149 -942q-21 -139 -79.5 -240.5t-146.5 -159.5t-191 -85t-228 -27q-82 0 -151.5 11.5t-131.5 37t-106.5 65.5t-74.5 97.5t-36.5 132.5t6.5 170l148 940h51l-150 -940q-20 -127 4 -219t87 -144.5t150 -77t202 -24.5q524 0 598 467zM1186 1708 q-3 -19 -17.5 -32t-33.5 -13q-22 0 -34 15.5t-7 35.5q1 17 16.5 30t32.5 13q23 0 34.5 -14t8.5 -35zM776 1708q-3 -19 -17.5 -32t-33.5 -13q-22 0 -34 15.5t-7 35.5q1 17 16.5 30t32.5 13q23 0 34.5 -14t8.5 -35z" />
<glyph unicode="&#xdd;" horiz-adv-x="1277" d="M569 0h-51l92 582l-428 852h54l405 -801l659 801h62l-700 -852zM784 1593h-55l221 273h62z" />
<glyph unicode="&#xde;" horiz-adv-x="1331" d="M356 1161h387q101 0 184 -12.5t157 -44.5t121 -82t67 -128.5t4 -180.5q-71 -441 -666 -441h-395l-43 -272h-51l227 1434h51zM223 322h395q547 0 609 399q14 89 -4 158t-60 112.5t-108 71t-141 38.5t-166 11h-400z" />
<glyph unicode="&#xdf;" horiz-adv-x="1204" d="M1079 303q-13 -81 -58 -144.5t-110 -101.5t-140 -57.5t-155 -19.5q-157 0 -262 65l6 45q103 -65 250 -65q102 0 188.5 28.5t151 95.5t80.5 164q9 56 -6.5 109.5t-45 93t-65.5 80.5t-67 73.5t-49 70.5t-13 73q6 37 28.5 70.5t51 61.5t57.5 57.5t52.5 71t30.5 89.5 q14 95 -63.5 170.5t-215.5 75.5q-169 0 -287.5 -100.5t-146.5 -272.5l-164 -1036h-49l164 1034q32 196 163.5 308t319.5 112q161 1 253.5 -91t74.5 -204q-8 -50 -31.5 -92.5t-52.5 -72t-57.5 -56.5t-50.5 -59t-27 -66q-4 -28 9.5 -57.5t37.5 -58.5t54 -60t58.5 -67.5 t51 -75.5t32.5 -88.5t2 -102.5z" />
<glyph unicode="&#xe0;" d="M985 254q-80 -122 -209.5 -198t-279.5 -76q-104 0 -189 37.5t-140 105t-77.5 166t-3.5 215.5q36 227 196.5 363.5t368.5 136.5q146 0 256.5 -79.5t151.5 -201.5l41 260h47l-156 -983h-47zM133 498q-17 -106 2.5 -195.5t69 -150t125 -94t168.5 -33.5q156 0 291 89t204 222 l49 307q-25 134 -132.5 224.5t-256.5 90.5q-192 0 -339.5 -123.5t-180.5 -336.5zM766 1143h-53l-144 272h58z" />
<glyph unicode="&#xe1;" d="M985 254q-80 -122 -209.5 -198t-279.5 -76q-104 0 -189 37.5t-140 105t-77.5 166t-3.5 215.5q36 227 196.5 363.5t368.5 136.5q146 0 256.5 -79.5t151.5 -201.5l41 260h47l-156 -983h-47zM133 498q-17 -106 2.5 -195.5t69 -150t125 -94t168.5 -33.5q156 0 291 89t204 222 l49 307q-25 134 -132.5 224.5t-256.5 90.5q-192 0 -339.5 -123.5t-180.5 -336.5zM700 1143h-55l221 272h62z" />
<glyph unicode="&#xe2;" d="M985 254q-80 -122 -209.5 -198t-279.5 -76q-104 0 -189 37.5t-140 105t-77.5 166t-3.5 215.5q36 227 196.5 363.5t368.5 136.5q146 0 256.5 -79.5t151.5 -201.5l41 260h47l-156 -983h-47zM133 498q-17 -106 2.5 -195.5t69 -150t125 -94t168.5 -33.5q156 0 291 89t204 222 l49 307q-25 134 -132.5 224.5t-256.5 90.5q-192 0 -339.5 -123.5t-180.5 -336.5zM725 1399h43l219 -256h-55l-187 217l-256 -217h-61z" />
<glyph unicode="&#xe3;" d="M985 254q-80 -122 -209.5 -198t-279.5 -76q-104 0 -189 37.5t-140 105t-77.5 166t-3.5 215.5q36 227 196.5 363.5t368.5 136.5q146 0 256.5 -79.5t151.5 -201.5l41 260h47l-156 -983h-47zM133 498q-17 -106 2.5 -195.5t69 -150t125 -94t168.5 -33.5q156 0 291 89t204 222 l49 307q-25 134 -132.5 224.5t-256.5 90.5q-192 0 -339.5 -123.5t-180.5 -336.5zM1022 1313q-2 -67 -39 -107.5t-98 -40.5q-48 0 -109 28.5t-119 57.5t-98 29q-44 0 -71 -28.5t-27 -75.5h-45q0 65 39.5 107t97.5 42q47 0 108.5 -28.5t120.5 -57.5t99 -29q46 0 70 27t26 76 h45z" />
<glyph unicode="&#xe4;" d="M985 254q-80 -122 -209.5 -198t-279.5 -76q-104 0 -189 37.5t-140 105t-77.5 166t-3.5 215.5q36 227 196.5 363.5t368.5 136.5q146 0 256.5 -79.5t151.5 -201.5l41 260h47l-156 -983h-47zM133 498q-17 -106 2.5 -195.5t69 -150t125 -94t168.5 -33.5q156 0 291 89t204 222 l49 307q-25 134 -132.5 224.5t-256.5 90.5q-192 0 -339.5 -123.5t-180.5 -336.5zM975 1257q-3 -19 -17.5 -32t-33.5 -13q-21 0 -33.5 15.5t-7.5 36.5q1 17 16.5 30t32.5 13q23 0 34.5 -14.5t8.5 -35.5zM565 1257q-3 -19 -17.5 -32t-33.5 -13q-21 0 -33.5 15.5t-7.5 36.5 q1 17 16.5 30t32.5 13q23 0 34.5 -14.5t8.5 -35.5z" />
<glyph unicode="&#xe5;" d="M985 254q-80 -122 -209.5 -198t-279.5 -76q-104 0 -189 37.5t-140 105t-77.5 166t-3.5 215.5q36 227 196.5 363.5t368.5 136.5q146 0 256.5 -79.5t151.5 -201.5l41 260h47l-156 -983h-47zM133 498q-17 -106 2.5 -195.5t69 -150t125 -94t168.5 -33.5q156 0 291 89t204 222 l49 307q-25 134 -132.5 224.5t-256.5 90.5q-192 0 -339.5 -123.5t-180.5 -336.5zM901 1266q-12 -73 -68.5 -118.5t-125.5 -45.5q-72 0 -117.5 48.5t-32.5 123.5q10 71 68 117.5t127 46.5q72 0 117 -48.5t32 -123.5zM596 1268q-9 -56 25 -91.5t84 -35.5q57 0 102 35t55 94 q9 57 -23.5 93t-84.5 36q-55 0 -101.5 -36t-56.5 -95z" />
<glyph unicode="&#xe6;" horiz-adv-x="2050" d="M985 250q-81 -120 -209 -195t-280 -75q-102 0 -186.5 37.5t-140.5 105t-79 166.5t-4 215q36 227 196.5 363.5t368.5 136.5q146 0 256.5 -79.5t151.5 -201.5l41 260h47l-47 -295q72 150 203.5 233t281.5 83q104 0 181.5 -34.5t119.5 -90t61.5 -127.5t15 -146t-27.5 -145 h-864q-15 -111 15 -197.5t92.5 -137t141.5 -76t169 -25.5q184 0 332 79l-9 -51q-134 -73 -329 -73q-105 0 -196 32t-160.5 106.5t-88.5 182.5l-47 -301h-47zM135 498q-17 -106 2.5 -195.5t69 -150t125 -94t168.5 -33.5q156 0 291 89t204 222l49 307q-25 133 -134.5 224 t-254.5 91q-194 0 -340.5 -123.5t-179.5 -336.5zM1581 958q-187 0 -332 -128.5t-174 -323.5h823q16 60 17 121t-17 121t-55 106.5t-104.5 75t-157.5 28.5z" />
<glyph unicode="&#xe7;" horiz-adv-x="1009" d="M961 874q-103 84 -269 84q-71 0 -141.5 -16.5t-139.5 -53.5t-125 -90t-97 -133t-56 -176q-18 -113 5.5 -203t80 -146t135 -85.5t170.5 -29.5q179 0 326 81l-8 -51q-136 -75 -312 -75l-69 -175q61 12 115.5 5.5t89 -42t26.5 -90.5q-9 -68 -71.5 -108.5t-171.5 -40.5 q-119 0 -207 45l8 43q82 -45 194 -45q96 0 147 31.5t56 81.5q10 66 -70 88.5t-176 -9.5l86 216q-95 5 -174.5 39t-138 95.5t-83.5 160t-7 221.5q16 104 61 190.5t106 144t136.5 97.5t151 58t151.5 18q170 0 281 -82z" />
<glyph unicode="&#xe8;" horiz-adv-x="1110" d="M84 494q19 119 72.5 217.5t128.5 161.5t164.5 97t183.5 34q102 0 180 -34.5t122 -90.5t66 -127t19.5 -145.5t-25.5 -145.5h-866q-12 -90 6 -164t57.5 -123.5t97 -83.5t122 -49.5t135.5 -15.5q184 0 336 79l-11 -51q-134 -73 -329 -73q-80 0 -153 18.5t-137 59t-107.5 99 t-61 145.5t-0.5 192zM958 506q14 49 15.5 100.5t-8 102.5t-35 95.5t-64 79t-98 54.5t-133.5 20q-116 0 -218.5 -51t-179 -155t-102.5 -246h823zM725 1143h-53l-144 272h58z" />
<glyph unicode="&#xe9;" horiz-adv-x="1110" d="M84 494q19 119 72.5 217.5t128.5 161.5t164.5 97t183.5 34q102 0 180 -34.5t122 -90.5t66 -127t19.5 -145.5t-25.5 -145.5h-866q-12 -90 6 -164t57.5 -123.5t97 -83.5t122 -49.5t135.5 -15.5q184 0 336 79l-11 -51q-134 -73 -329 -73q-80 0 -153 18.5t-137 59t-107.5 99 t-61 145.5t-0.5 192zM958 506q14 49 15.5 100.5t-8 102.5t-35 95.5t-64 79t-98 54.5t-133.5 20q-116 0 -218.5 -51t-179 -155t-102.5 -246h823zM659 1143h-55l221 272h62z" />
<glyph unicode="&#xea;" horiz-adv-x="1110" d="M84 494q19 119 72.5 217.5t128.5 161.5t164.5 97t183.5 34q102 0 180 -34.5t122 -90.5t66 -127t19.5 -145.5t-25.5 -145.5h-866q-12 -90 6 -164t57.5 -123.5t97 -83.5t122 -49.5t135.5 -15.5q184 0 336 79l-11 -51q-134 -73 -329 -73q-80 0 -153 18.5t-137 59t-107.5 99 t-61 145.5t-0.5 192zM958 506q14 49 15.5 100.5t-8 102.5t-35 95.5t-64 79t-98 54.5t-133.5 20q-116 0 -218.5 -51t-179 -155t-102.5 -246h823zM684 1399h43l219 -256h-55l-186 217l-256 -217h-62z" />
<glyph unicode="&#xeb;" horiz-adv-x="1110" d="M84 494q19 119 72.5 217.5t128.5 161.5t164.5 97t183.5 34q102 0 180 -34.5t122 -90.5t66 -127t19.5 -145.5t-25.5 -145.5h-866q-12 -90 6 -164t57.5 -123.5t97 -83.5t122 -49.5t135.5 -15.5q184 0 336 79l-11 -51q-134 -73 -329 -73q-80 0 -153 18.5t-137 59t-107.5 99 t-61 145.5t-0.5 192zM958 506q14 49 15.5 100.5t-8 102.5t-35 95.5t-64 79t-98 54.5t-133.5 20q-116 0 -218.5 -51t-179 -155t-102.5 -246h823zM934 1257q-3 -19 -17.5 -32t-33.5 -13q-21 0 -33.5 15.5t-7.5 36.5q1 17 16.5 30t32.5 13q23 0 34.5 -14.5t8.5 -35.5zM524 1257 q-3 -19 -17.5 -32t-33.5 -13q-21 0 -33.5 15.5t-7.5 36.5q1 17 16.5 30t32.5 13q23 0 34.5 -14.5t8.5 -35.5z" />
<glyph unicode="&#xec;" horiz-adv-x="409" d="M328 1143h-49l-101 272h58zM135 0h-49l156 983h49z" />
<glyph unicode="&#xed;" horiz-adv-x="409" d="M135 0h-49l156 983h49zM285 1143h-56l222 272h61z" />
<glyph unicode="&#xee;" horiz-adv-x="409" d="M135 0h-49l156 983h49zM98 1143h-61l272 256h43l195 -256h-55l-162 217z" />
<glyph unicode="&#xef;" horiz-adv-x="409" d="M135 0h-49l156 983h49zM205 1257q-3 -18 -17 -30.5t-32 -12.5q-20 0 -31.5 15t-7.5 35q1 17 15.5 29t31.5 12q21 0 32.5 -13.5t8.5 -34.5zM500 1257q-3 -18 -17 -30.5t-32 -12.5q-20 0 -31.5 15t-7.5 35q1 17 15.5 29t31.5 12q21 0 32.5 -13.5t8.5 -34.5z" />
<glyph unicode="&#xf0;" horiz-adv-x="1218" d="M1090 541q-41 -256 -202.5 -408.5t-387.5 -152.5q-104 0 -190 34t-143.5 95.5t-81.5 153t-7 200.5q32 198 191 327.5t354 129.5q81 0 154 -24.5t132.5 -71t94.5 -122t36 -170.5q5 22 9 54q13 112 10 202t-28.5 166t-59 133.5t-83 104t-100.5 78t-110 55.5l-285 -246 l-26 31l266 227q-130 49 -303 49l8 48q175 0 336 -60l200 174l27 -30l-188 -162q63 -26 117 -61.5t105 -87t86 -115.5t59.5 -147.5t25.5 -182.5t-16 -221zM127 455q-30 -193 76 -310.5t297 -117.5q179 0 313 103.5t195 281.5q16 113 -10 203t-81.5 145t-129.5 83.5 t-158 28.5q-184 0 -328.5 -116.5t-173.5 -300.5z" />
<glyph unicode="&#xf1;" horiz-adv-x="1175" d="M244 760q36 44 79.5 83t102 77.5t130.5 61t146 22.5q163 0 254.5 -108.5t63.5 -291.5l-96 -604h-50l97 602q27 167 -53 261.5t-226 94.5q-138 0 -259.5 -79.5t-196.5 -186.5l-109 -692h-49l155 983h46zM979 1313q-2 -67 -39 -107.5t-98 -40.5q-48 0 -109 28.5t-119 57.5 t-98 29q-44 0 -71 -28.5t-27 -75.5h-45q0 65 39.5 107t97.5 42q47 0 108.5 -28.5t120.5 -57.5t99 -29q46 0 70 27t26 76h45z" />
<glyph unicode="&#xf2;" horiz-adv-x="1212" d="M1096 479q-19 -118 -76 -214.5t-137.5 -157.5t-175.5 -94t-195 -33q-96 0 -181 36t-147 101.5t-90 166t-10 220.5q15 95 55.5 177t97.5 140.5t128 100t148.5 62t156.5 20.5q96 0 181 -36.5t147 -101.5t89.5 -166t8.5 -221zM133 496q-17 -106 7 -196t78.5 -149 t130.5 -91.5t163 -32.5q93 0 181 30.5t161.5 87t125 145t67.5 197.5q17 106 -7 196t-78.5 149t-130.5 91.5t-163 32.5q-93 0 -181 -30.5t-161.5 -87t-125 -145t-67.5 -197.5zM752 1126h-54l-143 273h57z" />
<glyph unicode="&#xf3;" horiz-adv-x="1212" d="M1096 479q-19 -118 -76 -214.5t-137.5 -157.5t-175.5 -94t-195 -33q-96 0 -181 36t-147 101.5t-90 166t-10 220.5q15 95 55.5 177t97.5 140.5t128 100t148.5 62t156.5 20.5q96 0 181 -36.5t147 -101.5t89.5 -166t8.5 -221zM133 496q-17 -106 7 -196t78.5 -149 t130.5 -91.5t163 -32.5q93 0 181 30.5t161.5 87t125 145t67.5 197.5q17 106 -7 196t-78.5 149t-130.5 91.5t-163 32.5q-93 0 -181 -30.5t-161.5 -87t-125 -145t-67.5 -197.5zM686 1126h-55l221 273h61z" />
<glyph unicode="&#xf4;" horiz-adv-x="1212" d="M1096 479q-19 -118 -76 -214.5t-137.5 -157.5t-175.5 -94t-195 -33q-96 0 -181 36t-147 101.5t-90 166t-10 220.5q15 95 55.5 177t97.5 140.5t128 100t148.5 62t156.5 20.5q96 0 181 -36.5t147 -101.5t89.5 -166t8.5 -221zM133 496q-17 -106 7 -196t78.5 -149 t130.5 -91.5t163 -32.5q93 0 181 30.5t161.5 87t125 145t67.5 197.5q17 106 -7 196t-78.5 149t-130.5 91.5t-163 32.5q-93 0 -181 -30.5t-161.5 -87t-125 -145t-67.5 -197.5zM711 1382h43l219 -256h-55l-187 217l-256 -217h-61z" />
<glyph unicode="&#xf5;" horiz-adv-x="1212" d="M1096 479q-19 -118 -76 -214.5t-137.5 -157.5t-175.5 -94t-195 -33q-96 0 -181 36t-147 101.5t-90 166t-10 220.5q15 95 55.5 177t97.5 140.5t128 100t148.5 62t156.5 20.5q96 0 181 -36.5t147 -101.5t89.5 -166t8.5 -221zM133 496q-17 -106 7 -196t78.5 -149 t130.5 -91.5t163 -32.5q93 0 181 30.5t161.5 87t125 145t67.5 197.5q17 106 -7 196t-78.5 149t-130.5 91.5t-163 32.5q-93 0 -181 -30.5t-161.5 -87t-125 -145t-67.5 -197.5zM1008 1296q-2 -66 -39.5 -106.5t-98.5 -40.5q-38 0 -85 18t-84 39.5t-80.5 39.5t-75.5 18 q-44 0 -71.5 -29t-27.5 -76h-45q0 65 40 107.5t98 42.5q47 0 108.5 -28.5t120 -57.5t98.5 -29q46 0 70.5 27t26.5 75h45z" />
<glyph unicode="&#xf6;" horiz-adv-x="1212" d="M1096 479q-19 -118 -76 -214.5t-137.5 -157.5t-175.5 -94t-195 -33q-96 0 -181 36t-147 101.5t-90 166t-10 220.5q15 95 55.5 177t97.5 140.5t128 100t148.5 62t156.5 20.5q96 0 181 -36.5t147 -101.5t89.5 -166t8.5 -221zM133 496q-17 -106 7 -196t78.5 -149 t130.5 -91.5t163 -32.5q93 0 181 30.5t161.5 87t125 145t67.5 197.5q17 106 -7 196t-78.5 149t-130.5 91.5t-163 32.5q-93 0 -181 -30.5t-161.5 -87t-125 -145t-67.5 -197.5zM961 1241q-3 -19 -18 -32t-34 -13q-22 0 -34 15.5t-7 35.5q1 17 16.5 30t33.5 13q23 0 34.5 -14 t8.5 -35zM551 1241q-3 -19 -17.5 -32t-33.5 -13q-22 0 -34 15.5t-7 35.5q1 17 16.5 30t32.5 13q23 0 34.5 -14t8.5 -35z" />
<glyph unicode="&#xf7;" horiz-adv-x="1318" d="M1167 692h-983l6 49h984zM649 252q-1 -18 -15 -29.5t-32 -11.5q-22 0 -34 13.5t-9 35.5q3 18 17 29.5t32 11.5q22 0 33 -13t8 -36zM797 1167q-3 -18 -17 -29.5t-32 -11.5q-22 0 -33.5 14t-7.5 36q3 18 17 29.5t32 11.5q22 0 33 -13.5t8 -36.5z" />
<glyph unicode="&#xf8;" horiz-adv-x="1214" d="M1104 1112l-158 -199q89 -70 131.5 -181t20.5 -253q-19 -118 -76 -214.5t-137.5 -157.5t-175.5 -94t-195 -33q-139 0 -254 73l-135 -172h-47l153 195q-87 69 -127 178t-18 250q15 95 55.5 177t97.5 140.5t128 100t148.5 62t156.5 20.5q139 0 246 -70l139 178h47zM668 956 q-126 0 -237.5 -51.5t-193 -158t-104.5 -250.5q-20 -124 15 -222t112 -161l623 784q-92 59 -215 59zM514 27q126 0 237.5 51.5t193 158t104.5 250.5q21 127 -16.5 227t-117.5 160l-624 -784q97 -63 223 -63z" />
<glyph unicode="&#xf9;" horiz-adv-x="1177" d="M1018 983h49l-156 -983h-45l35 223q-74 -95 -194.5 -169t-257.5 -74q-166 0 -259 108.5t-65 292.5l96 602h49l-96 -602q-26 -167 52.5 -261.5t224.5 -94.5q141 0 262 80t194 188zM721 1143h-53l-144 272h58z" />
<glyph unicode="&#xfa;" horiz-adv-x="1177" d="M1018 983h49l-156 -983h-45l35 223q-74 -95 -194.5 -169t-257.5 -74q-166 0 -259 108.5t-65 292.5l96 602h49l-96 -602q-26 -167 52.5 -261.5t224.5 -94.5q141 0 262 80t194 188zM655 1143h-55l221 272h62z" />
<glyph unicode="&#xfb;" horiz-adv-x="1177" d="M1018 983h49l-156 -983h-45l35 223q-74 -95 -194.5 -169t-257.5 -74q-166 0 -259 108.5t-65 292.5l96 602h49l-96 -602q-26 -167 52.5 -261.5t224.5 -94.5q141 0 262 80t194 188zM680 1399h43l219 -256h-55l-187 217l-256 -217h-61z" />
<glyph unicode="&#xfc;" horiz-adv-x="1177" d="M1018 983h49l-156 -983h-45l35 223q-74 -95 -194.5 -169t-257.5 -74q-166 0 -259 108.5t-65 292.5l96 602h49l-96 -602q-26 -167 52.5 -261.5t224.5 -94.5q141 0 262 80t194 188zM930 1257q-3 -19 -17.5 -32t-33.5 -13q-21 0 -33.5 15.5t-7.5 36.5q1 17 16.5 30t32.5 13 q23 0 34.5 -14.5t8.5 -35.5zM520 1257q-3 -19 -17.5 -32t-33.5 -13q-21 0 -33.5 15.5t-7.5 36.5q1 17 16.5 30t32.5 13q23 0 34.5 -14.5t8.5 -35.5z" />
<glyph unicode="&#xfd;" horiz-adv-x="1085" d="M481 51l563 932h56l-705 -1163q-98 -160 -181.5 -225.5t-180.5 -65.5q-51 0 -101 12l7 43q41 -10 90 -10q91 0 165.5 63t159.5 205l97 158l-355 983h51zM598 1143h-55l221 272h61z" />
<glyph unicode="&#xfe;" d="M55 -451h-49l299 1885h49l-112 -707q81 123 210.5 200t276.5 77q206 0 326.5 -146.5t83.5 -378.5q-36 -229 -194 -364t-372 -135q-152 0 -258 78t-147 206zM180 342q27 -137 131.5 -227t257.5 -90q197 0 342 122.5t179 337.5q34 211 -73 342t-294 131q-152 0 -289 -91.5 t-207 -227.5z" />
<glyph unicode="&#xff;" horiz-adv-x="1085" d="M481 51l563 932h56l-705 -1163q-98 -160 -181.5 -225.5t-180.5 -65.5q-51 0 -101 12l7 43q41 -10 90 -10q91 0 165.5 63t159.5 205l97 158l-355 983h51zM872 1257q-3 -19 -17.5 -32t-33.5 -13q-21 0 -33.5 15.5t-7.5 36.5q1 17 16.5 30t32.5 13q23 0 34.5 -14.5 t8.5 -35.5zM463 1257q-3 -19 -17.5 -32t-33.5 -13q-21 0 -33.5 15.5t-7.5 36.5q1 17 16.5 30t32.5 13q23 0 34.5 -14.5t8.5 -35.5z" />
<glyph unicode="&#x100;" horiz-adv-x="1447" d="M1319 0h-53l-133 440h-861l-274 -440h-57l886 1434h62zM831 1350l-532 -861h821l-260 863q-7 14 -10 34q-2 -7 -19 -36zM645 1708h516l-6 -47h-516z" />
<glyph unicode="&#x101;" d="M985 254q-80 -122 -209.5 -198t-279.5 -76q-104 0 -189 37.5t-140 105t-77.5 166t-3.5 215.5q36 227 196.5 363.5t368.5 136.5q146 0 256.5 -79.5t151.5 -201.5l41 260h47l-156 -983h-47zM133 498q-17 -106 2.5 -195.5t69 -150t125 -94t168.5 -33.5q156 0 291 89t204 222 l49 307q-25 134 -132.5 224.5t-256.5 90.5q-192 0 -339.5 -123.5t-180.5 -336.5zM471 1257h516l-6 -47h-516z" />
<glyph unicode="&#x102;" horiz-adv-x="1447" d="M1319 0h-53l-133 440h-861l-274 -440h-57l886 1434h62zM831 1350l-532 -861h821l-260 863q-7 14 -10 34q-2 -7 -19 -36zM1145 1688q-116 -84 -260 -84q-161 0 -248 84l8 53q93 -90 240 -90q149 0 268 90z" />
<glyph unicode="&#x103;" d="M985 254q-80 -122 -209.5 -198t-279.5 -76q-104 0 -189 37.5t-140 105t-77.5 166t-3.5 215.5q36 227 196.5 363.5t368.5 136.5q146 0 256.5 -79.5t151.5 -201.5l41 260h47l-156 -983h-47zM133 498q-17 -106 2.5 -195.5t69 -150t125 -94t168.5 -33.5q156 0 291 89t204 222 l49 307q-25 134 -132.5 224.5t-256.5 90.5q-192 0 -339.5 -123.5t-180.5 -336.5zM971 1237q-116 -84 -260 -84q-161 0 -248 84l8 53q93 -90 240 -90q149 0 268 90z" />
<glyph unicode="&#x104;" horiz-adv-x="1447" d="M1319 0q-275 -173 -297 -309q-8 -55 22.5 -87t94.5 -32q56 0 114 22l-6 -45q-53 -20 -117 -20q-85 0 -126 44t-29 118q21 140 287 321l-129 428h-861l-274 -440h-57l886 1434h62zM831 1350l-532 -861h821l-260 863q-7 14 -10 34q-2 -7 -10 -20t-9 -16z" />
<glyph unicode="&#x105;" d="M1147 983l-156 -983q-257 -172 -280 -309q-7 -55 20 -87t80 -32q55 0 113 18l-6 -45q-59 -16 -115 -16q-73 0 -112 44.5t-27 117.5q22 144 284 327l37 236q-80 -122 -209.5 -198t-279.5 -76q-104 0 -189 37.5t-140 105t-77.5 166t-3.5 215.5q36 227 196.5 363.5 t368.5 136.5q146 0 256.5 -79.5t151.5 -201.5l41 260h47zM133 498q-17 -106 2.5 -195.5t69 -150t125 -94t168.5 -33.5q156 0 291 89t204 222l49 307q-25 134 -132.5 224.5t-256.5 90.5q-192 0 -339.5 -123.5t-180.5 -336.5z" />
<glyph unicode="&#x106;" horiz-adv-x="1329" d="M129 727q23 143 84.5 264t147 205t190 143t212.5 87t216 28q226 0 377 -98l-8 -51q-141 100 -365 100q-103 0 -205.5 -26t-201 -81t-179 -134t-139 -194t-80.5 -251q-21 -134 0.5 -249t76.5 -194.5t135.5 -136t175 -83.5t196.5 -27q216 0 409 102l-8 -53 q-180 -98 -409 -98q-108 0 -208.5 29t-187 90.5t-146 148t-83 210.5t-0.5 269zM995 1593h-55l221 273h62z" />
<glyph unicode="&#x107;" horiz-adv-x="1009" d="M84 496q16 104 61 190.5t106 144t136.5 97.5t151 58t151.5 18q173 0 281 -82l-8 -48q-103 84 -271 84q-71 0 -141 -16.5t-139 -53.5t-124.5 -90t-97 -133t-57.5 -176q-18 -113 6 -203t81 -146t135 -85.5t171 -29.5q177 0 324 81l-6 -51q-142 -75 -324 -75 q-100 0 -185.5 32t-149.5 93.5t-92 162.5t-9 228zM686 1143h-55l221 272h61z" />
<glyph unicode="&#x10a;" horiz-adv-x="1329" d="M129 727q23 143 84.5 264t147 205t190 143t212.5 87t216 28q226 0 377 -98l-8 -51q-141 100 -365 100q-103 0 -205.5 -26t-201 -81t-179 -134t-139 -194t-80.5 -251q-21 -134 0.5 -249t76.5 -194.5t135.5 -136t175 -83.5t196.5 -27q216 0 409 102l-8 -53 q-180 -98 -409 -98q-108 0 -208.5 29t-187 90.5t-146 148t-83 210.5t-0.5 269zM1069 1671q-4 -24 -22 -38.5t-41 -14.5q-26 0 -41 16t-11 43q4 23 22 38.5t40 15.5q27 0 42 -17t11 -43z" />
<glyph unicode="&#x10b;" horiz-adv-x="1009" d="M84 496q16 104 61 190.5t106 144t136.5 97.5t151 58t151.5 18q173 0 281 -82l-8 -48q-103 84 -271 84q-71 0 -141 -16.5t-139 -53.5t-124.5 -90t-97 -133t-57.5 -176q-18 -113 6 -203t81 -146t135 -85.5t171 -29.5q177 0 324 81l-6 -51q-142 -75 -324 -75 q-100 0 -185.5 32t-149.5 93.5t-92 162.5t-9 228zM760 1221q-4 -24 -23 -39t-41 -15q-26 0 -40.5 16.5t-10.5 43.5q4 23 22 38t40 15q27 0 42 -16.5t11 -42.5z" />
<glyph unicode="&#x10c;" horiz-adv-x="1329" d="M129 727q23 143 84.5 264t147 205t190 143t212.5 87t216 28q226 0 377 -98l-8 -51q-141 100 -365 100q-103 0 -205.5 -26t-201 -81t-179 -134t-139 -194t-80.5 -251q-21 -134 0.5 -249t76.5 -194.5t135.5 -136t175 -83.5t196.5 -27q216 0 409 102l-8 -53 q-180 -98 -409 -98q-108 0 -208.5 29t-187 90.5t-146 148t-83 210.5t-0.5 269zM1321 1829l-301 -256h-41l-219 256h55l189 -217l253 217h64z" />
<glyph unicode="&#x10d;" horiz-adv-x="1009" d="M84 496q16 104 61 190.5t106 144t136.5 97.5t151 58t151.5 18q173 0 281 -82l-8 -48q-103 84 -271 84q-71 0 -141 -16.5t-139 -53.5t-124.5 -90t-97 -133t-57.5 -176q-18 -113 6 -203t81 -146t135 -85.5t171 -29.5q177 0 324 81l-6 -51q-142 -75 -324 -75 q-100 0 -185.5 32t-149.5 93.5t-92 162.5t-9 228zM1012 1378l-301 -256h-41l-219 256h55l188 -217l254 217h64z" />
<glyph unicode="&#x10e;" horiz-adv-x="1495" d="M348 1434h400q189 0 328.5 -54t218 -151t106 -227.5t2.5 -288.5q-24 -156 -90.5 -284.5t-173.5 -225t-263 -150t-348 -53.5h-407zM1354 721q23 147 -2 267t-97 209t-201 138t-306 49h-357l-211 -1335h357q177 0 321.5 49.5t245 139.5t164 212t86.5 271zM1145 1829 l-301 -256h-41l-219 256h55l188 -217l254 217h64z" />
<glyph unicode="&#x10f;" d="M1393 1434h47l-94 -320h-41zM1169 1434h50l-228 -1434h-45l41 258q-79 -124 -209.5 -201t-281.5 -77q-208 0 -327.5 146t-82.5 378q24 152 105.5 266.5t200.5 174t257 59.5q151 0 260 -79t148 -206zM1042 641q-26 137 -131 227t-258 90q-197 0 -342 -122.5t-178 -337.5 q-34 -212 72 -342.5t293 -130.5q157 0 292 90.5t205 228.5z" />
<glyph unicode="&#x110;" horiz-adv-x="1497" d="M350 1434h400q189 0 328.5 -54t218 -151t106 -227.5t2.5 -288.5q-24 -156 -90.5 -284.5t-173.5 -225t-263 -150t-348 -53.5h-407l108 692h-129l7 47h131zM537 49q177 0 321.5 49.5t245 139.5t164 212t86.5 271q23 147 -2 267t-97 209t-201 138t-306 49h-357l-102 -645 h530l-6 -47h-530l-103 -643h357z" />
<glyph unicode="&#x111;" d="M1188 1251h190l-6 -41h-188l-193 -1210h-45l41 258q-79 -124 -209.5 -201t-281.5 -77q-208 0 -327.5 146t-82.5 378q24 152 105.5 266.5t200.5 174t257 59.5q151 0 260 -79t148 -206l78 491h-383l4 41h385l28 183h50zM498 25q157 0 292 90.5t205 228.5l47 297 q-26 137 -131 227t-258 90q-197 0 -342 -122.5t-178 -337.5q-34 -212 72 -342.5t293 -130.5z" />
<glyph unicode="&#x112;" horiz-adv-x="1282" d="M348 1434h932l-8 -50h-881l-100 -639h819l-8 -49h-819l-103 -647h893l-8 -49h-944zM604 1708h516l-6 -47h-516z" />
<glyph unicode="&#x113;" horiz-adv-x="1110" d="M84 494q19 119 72.5 217.5t128.5 161.5t164.5 97t183.5 34q102 0 180 -34.5t122 -90.5t66 -127t19.5 -145.5t-25.5 -145.5h-866q-12 -90 6 -164t57.5 -123.5t97 -83.5t122 -49.5t135.5 -15.5q184 0 336 79l-11 -51q-134 -73 -329 -73q-80 0 -153 18.5t-137 59t-107.5 99 t-61 145.5t-0.5 192zM958 506q14 49 15.5 100.5t-8 102.5t-35 95.5t-64 79t-98 54.5t-133.5 20q-116 0 -218.5 -51t-179 -155t-102.5 -246h823zM430 1257h516l-6 -47h-516z" />
<glyph unicode="&#x116;" horiz-adv-x="1282" d="M348 1434h932l-8 -50h-881l-100 -639h819l-8 -49h-819l-103 -647h893l-8 -49h-944zM907 1671q-4 -24 -22 -38.5t-41 -14.5q-26 0 -40.5 16t-10.5 43q4 23 21.5 38.5t39.5 15.5q27 0 42 -17t11 -43z" />
<glyph unicode="&#x117;" horiz-adv-x="1110" d="M84 494q19 119 72.5 217.5t128.5 161.5t164.5 97t183.5 34q102 0 180 -34.5t122 -90.5t66 -127t19.5 -145.5t-25.5 -145.5h-866q-12 -90 6 -164t57.5 -123.5t97 -83.5t122 -49.5t135.5 -15.5q184 0 336 79l-11 -51q-134 -73 -329 -73q-80 0 -153 18.5t-137 59t-107.5 99 t-61 145.5t-0.5 192zM958 506q14 49 15.5 100.5t-8 102.5t-35 95.5t-64 79t-98 54.5t-133.5 20q-116 0 -218.5 -51t-179 -155t-102.5 -246h823zM733 1221q-4 -24 -22.5 -39t-40.5 -15q-26 0 -41 16.5t-11 43.5q4 23 22 38t40 15q27 0 42 -16.5t11 -42.5z" />
<glyph unicode="&#x118;" horiz-adv-x="1282" d="M995 -403l-6 -46q-58 -22 -121 -22q-79 0 -119 44t-28 118q20 145 272 309h-872l227 1434h932l-8 -50h-881l-100 -639h819l-8 -49h-819l-103 -647h893l-8 -49q-278 -175 -297 -307q-9 -56 19.5 -88.5t86.5 -32.5q60 0 121 25z" />
<glyph unicode="&#x119;" horiz-adv-x="1110" d="M772 -432q-71 -39 -160 -39q-85 -1 -126 43t-29 119q19 141 288 317q-89 -28 -202 -28q-80 0 -153 18.5t-137 59t-107.5 99t-61 145.5t-0.5 192q19 119 72.5 217.5t128.5 161.5t164.5 97t183.5 34q102 0 180 -34.5t122 -90.5t66 -127t19.5 -145.5t-25.5 -145.5h-866 q-12 -90 6 -164t57.5 -123.5t97 -83.5t122 -49.5t135.5 -15.5q184 0 336 79l-11 -51q-178 -117 -267.5 -201t-100.5 -161q-8 -56 21.5 -88t92.5 -31q80 0 160 41zM635 958q-116 0 -218.5 -51t-179 -155t-102.5 -246h823q14 49 15.5 100.5t-8 102.5t-35 95.5t-64 79t-98 54.5 t-133.5 20z" />
<glyph unicode="&#x11a;" horiz-adv-x="1282" d="M348 1434h932l-8 -50h-881l-100 -639h819l-8 -49h-819l-103 -647h893l-8 -49h-944zM1159 1829l-301 -256h-41l-219 256h55l189 -217l254 217h63z" />
<glyph unicode="&#x11b;" horiz-adv-x="1110" d="M84 494q19 119 72.5 217.5t128.5 161.5t164.5 97t183.5 34q102 0 180 -34.5t122 -90.5t66 -127t19.5 -145.5t-25.5 -145.5h-866q-12 -90 6 -164t57.5 -123.5t97 -83.5t122 -49.5t135.5 -15.5q184 0 336 79l-11 -51q-134 -73 -329 -73q-80 0 -153 18.5t-137 59t-107.5 99 t-61 145.5t-0.5 192zM958 506q14 49 15.5 100.5t-8 102.5t-35 95.5t-64 79t-98 54.5t-133.5 20q-116 0 -218.5 -51t-179 -155t-102.5 -246h823zM985 1378l-301 -256h-41l-219 256h55l189 -217l254 217h63z" />
<glyph unicode="&#x11e;" horiz-adv-x="1454" d="M131 741q24 149 88 271.5t150.5 203t194 135.5t216 79t219.5 24q226 0 400 -94l-6 -49q-75 45 -180 69.5t-212 24.5q-106 0 -209 -22.5t-204.5 -74t-183 -127t-141.5 -191t-83 -257.5q-24 -146 0 -260.5t79.5 -198t140.5 -138t183 -81t205 -26.5q222 0 402 86l100 633h51 l-106 -672q-209 -96 -449 -96q-115 0 -220 28.5t-196.5 87.5t-152 149.5t-86.5 214t0 281.5zM1270 1688q-116 -84 -260 -84q-161 0 -248 84l8 53q93 -90 240 -90q149 0 268 90z" />
<glyph unicode="&#x11f;" d="M989 -2q-16 -101 -57 -181.5t-96.5 -133.5t-126.5 -88.5t-145.5 -50.5t-155.5 -15q-213 0 -361 94l8 49q149 -98 348 -98q96 0 181 23.5t160 72t126.5 133.5t69.5 199l41 250q-78 -120 -208 -196t-279 -76q-214 0 -331 145t-79 379q24 152 106 266.5t201.5 174 t257.5 59.5q151 0 258 -79.5t150 -209.5l41 268h47zM131 498q-35 -213 69 -343t296 -130q157 0 292 89.5t205 225.5l47 301q-26 137 -131 227t-258 90q-195 0 -341 -123t-179 -337zM954 1237q-116 -84 -260 -84q-161 0 -248 84l9 53q93 -90 239 -90q150 0 269 90z" />
<glyph unicode="&#x120;" horiz-adv-x="1454" d="M131 741q24 149 88 271.5t150.5 203t194 135.5t216 79t219.5 24q226 0 400 -94l-6 -49q-75 45 -180 69.5t-212 24.5q-106 0 -209 -22.5t-204.5 -74t-183 -127t-141.5 -191t-83 -257.5q-24 -146 0 -260.5t79.5 -198t140.5 -138t183 -81t205 -26.5q222 0 402 86l100 633h51 l-106 -672q-209 -96 -449 -96q-115 0 -220 28.5t-196.5 87.5t-152 149.5t-86.5 214t0 281.5zM1073 1671q-4 -24 -22 -38.5t-41 -14.5q-26 0 -41 16t-11 43q4 23 22 38.5t40 15.5q27 0 42 -17t11 -43z" />
<glyph unicode="&#x121;" d="M989 -2q-16 -101 -57 -181.5t-96.5 -133.5t-126.5 -88.5t-145.5 -50.5t-155.5 -15q-213 0 -361 94l8 49q149 -98 348 -98q96 0 181 23.5t160 72t126.5 133.5t69.5 199l41 250q-78 -120 -208 -196t-279 -76q-214 0 -331 145t-79 379q24 152 106 266.5t201.5 174 t257.5 59.5q151 0 258 -79.5t150 -209.5l41 268h47zM131 498q-35 -213 69 -343t296 -130q157 0 292 89.5t205 225.5l47 301q-26 137 -131 227t-258 90q-195 0 -341 -123t-179 -337zM758 1221q-4 -24 -23 -39t-41 -15q-26 0 -40.5 16.5t-10.5 43.5q4 23 22 38t40 15 q27 0 42 -16.5t11 -42.5z" />
<glyph unicode="&#x122;" horiz-adv-x="1454" d="M131 741q24 149 88 271.5t150.5 203t194 135.5t216 79t219.5 24q226 0 400 -94l-6 -49q-75 45 -180 69.5t-212 24.5q-106 0 -209 -22.5t-204.5 -74t-183 -127t-141.5 -191t-83 -257.5q-24 -146 0 -260.5t79.5 -198t140.5 -138t183 -81t205 -26.5q222 0 402 86l100 633h51 l-106 -672q-209 -96 -449 -96q-115 0 -220 28.5t-196.5 87.5t-152 149.5t-86.5 214t0 281.5zM696 -459h-45l97 340h49z" />
<glyph unicode="&#x123;" d="M676 1126h-53l98 312h43zM989 -2q-16 -101 -57 -181.5t-96.5 -133.5t-126.5 -88.5t-145.5 -50.5t-155.5 -15q-213 0 -361 94l8 49q149 -98 348 -98q96 0 181 23.5t160 72t126.5 133.5t69.5 199l41 250q-78 -120 -208 -196t-279 -76q-214 0 -331 145t-79 379 q24 152 106 266.5t201.5 174t257.5 59.5q151 0 258 -79.5t150 -209.5l41 268h47zM131 498q-35 -213 69 -343t296 -130q157 0 292 89.5t205 225.5l47 301q-26 137 -131 227t-258 90q-195 0 -341 -123t-179 -337z" />
<glyph unicode="&#x126;" horiz-adv-x="1570" d="M174 0h-51l168 1065h-160l6 45h162l51 324h51l-51 -324h1039l51 324h51l-51 -324h162l-9 -45h-161l-168 -1065h-52l111 696h-1038zM342 1065l-49 -320h1038l49 320h-1038z" />
<glyph unicode="&#x127;" horiz-adv-x="1175" d="M248 764q36 43 79.5 81.5t101 76t128 60t143.5 22.5q164 0 256.5 -108.5t63.5 -291.5l-96 -604h-50l97 602q27 167 -53 261.5t-226 94.5q-138 0 -259.5 -79.5t-196.5 -186.5l-109 -692h-49l192 1210h-120l4 41h120l31 183h49l-30 -183h452l-6 -41h-451z" />
<glyph unicode="&#x12a;" horiz-adv-x="481" d="M348 1434h51l-227 -1434h-51zM160 1708h516l-6 -47h-516z" />
<glyph unicode="&#x12b;" horiz-adv-x="409" d="M528 1214h-450l6 48h451zM135 0h-49l156 983h49z" />
<glyph unicode="&#x12e;" horiz-adv-x="481" d="M172 0q-172 -181 -190 -309q-8 -55 22.5 -88t93.5 -33q83 3 160 41l-6 -43q-71 -39 -160 -39q-84 0 -125.5 44t-29.5 118q17 123 186 321l225 1422h51z" />
<glyph unicode="&#x12f;" horiz-adv-x="407" d="M270 1264q6 36 45 36q18 0 29 -11t8 -32q-6 -36 -45 -36q-18 0 -29 11t-8 32zM291 983l-156 -983q-168 -183 -188 -307q-8 -56 22 -88.5t94 -32.5q79 0 158 39l-6 -45q-73 -37 -158 -37t-126 45.5t-29 118.5q7 49 40 110.5t65 104.5t81 102l154 973h49z" />
<glyph unicode="&#x130;" horiz-adv-x="481" d="M348 1434h51l-227 -1434h-51zM463 1671q-4 -24 -22.5 -38.5t-41.5 -14.5q-26 0 -40.5 16t-10.5 43q4 23 22 38.5t40 15.5q27 0 42 -17t11 -43z" />
<glyph unicode="&#x131;" horiz-adv-x="409" d="M135 0h-49l156 983h49z" />
<glyph unicode="&#x132;" horiz-adv-x="1554" d="M348 1434h51l-227 -1434h-51zM963 1434h524l-166 -1055q-31 -201 -161 -300t-335 -99q-223 0 -356 88l8 51q131 -90 342 -90q191 0 306.5 87.5t144.5 266.5l160 1001h-476z" />
<glyph unicode="&#x133;" horiz-adv-x="817" d="M135 0h-49l156 983h49zM350 1257q-6 -36 -45 -36q-18 0 -29 11t-8 32q6 36 45 36q18 0 29 -11t8 -32zM506 -240q-38 -231 -273 -231q-77 0 -141 25l8 45q58 -25 127 -25q95 0 154.5 44.5t77.5 150.5l190 1214h49zM760 1257q-6 -36 -45 -36q-18 0 -29 11t-8 32q6 36 45 36 q18 0 29 -11t8 -32z" />
<glyph unicode="&#x136;" horiz-adv-x="1335" d="M1343 1434h60l-631 -701l461 -733h-57l-447 711h-444l-113 -711h-51l227 1434h51l-106 -674h442zM551 -438h-45l96 340h49z" />
<glyph unicode="&#x137;" horiz-adv-x="1001" d="M940 983h59l-485 -477l385 -506h-57l-371 489h-266l-78 -489h-49l227 1434h49l-143 -897h272zM377 -438h-45l96 340h49z" />
<glyph unicode="&#x139;" horiz-adv-x="1165" d="M348 1434h51l-219 -1385h877l-8 -49h-928zM426 1593h-55l221 273h61z" />
<glyph unicode="&#x13a;" horiz-adv-x="407" d="M322 1495h49l-238 -1495h-49zM379 1610h-55l221 272h61z" />
<glyph unicode="&#x13b;" horiz-adv-x="1165" d="M348 1434h51l-219 -1385h877l-8 -49h-928zM514 -438h-45l96 340h49z" />
<glyph unicode="&#x13c;" horiz-adv-x="407" d="M322 1495h49l-238 -1495h-49zM4 -438h-45l96 340h49z" />
<glyph unicode="&#x13d;" horiz-adv-x="1165" d="M920 1434h47l-95 -320h-41zM348 1434h51l-219 -1385h877l-8 -49h-928z" />
<glyph unicode="&#x13e;" horiz-adv-x="409" d="M545 1495h47l-94 -319h-41zM324 1495h49l-238 -1495h-49z" />
<glyph unicode="&#x13f;" horiz-adv-x="1179" d="M784 680q-3 -18 -17 -29.5t-32 -11.5q-21 0 -33.5 13t-9.5 36q3 18 17 29.5t32 11.5q22 0 34 -13t9 -36zM348 1434h51l-219 -1385h877l-8 -49h-928z" />
<glyph unicode="&#x140;" horiz-adv-x="497" d="M322 1495h49l-238 -1495h-49zM516 713q-3 -18 -17 -29.5t-32 -11.5q-21 0 -33.5 13t-9.5 36q3 18 17 29.5t32 11.5q22 0 34 -13t9 -36z" />
<glyph unicode="&#x141;" horiz-adv-x="1171" d="M1055 0h-928l96 596l-211 -86l8 45l209 86l125 793h52l-123 -772l530 219l-6 -45l-531 -220l-90 -567h877z" />
<glyph unicode="&#x142;" horiz-adv-x="452" d="M344 1495h49l-112 -698l196 80l-8 -46l-195 -79l-118 -752h-50l117 731l-194 -80l6 45l196 80z" />
<glyph unicode="&#x143;" horiz-adv-x="1570" d="M172 0h-51l227 1434h41l836 -1348q2 20 7 53t7 47l199 1248h51l-227 -1434h-41l-836 1350q-3 -32 -16 -101zM938 1593h-55l221 273h61z" />
<glyph unicode="&#x144;" horiz-adv-x="1175" d="M244 760q36 44 79.5 83t102 77.5t130.5 61t146 22.5q163 0 254.5 -108.5t63.5 -291.5l-96 -604h-50l97 602q27 167 -53 261.5t-226 94.5q-138 0 -259.5 -79.5t-196.5 -186.5l-109 -692h-49l155 983h46zM657 1143h-55l221 272h62z" />
<glyph unicode="&#x145;" horiz-adv-x="1570" d="M172 0h-51l227 1434h41l836 -1348q2 20 7 53t7 47l199 1248h51l-227 -1434h-41l-836 1350q-3 -32 -16 -101zM627 -438h-45l96 340h49z" />
<glyph unicode="&#x146;" horiz-adv-x="1175" d="M244 760q36 44 79.5 83t102 77.5t130.5 61t146 22.5q163 0 254.5 -108.5t63.5 -291.5l-96 -604h-50l97 602q27 167 -53 261.5t-226 94.5q-138 0 -259.5 -79.5t-196.5 -186.5l-109 -692h-49l155 983h46zM422 -438h-45l96 340h49z" />
<glyph unicode="&#x147;" horiz-adv-x="1570" d="M172 0h-51l227 1434h41l836 -1348q2 20 7 53t7 47l199 1248h51l-227 -1434h-41l-836 1350q-3 -32 -16 -101zM1264 1829l-301 -256h-41l-220 256h56l188 -217l254 217h64z" />
<glyph unicode="&#x148;" horiz-adv-x="1175" d="M244 760q36 44 79.5 83t102 77.5t130.5 61t146 22.5q163 0 254.5 -108.5t63.5 -291.5l-96 -604h-50l97 602q27 167 -53 261.5t-226 94.5q-138 0 -259.5 -79.5t-196.5 -186.5l-109 -692h-49l155 983h46zM983 1378l-301 -256h-41l-219 256h55l189 -217l254 217h63z" />
<glyph unicode="&#x14a;" horiz-adv-x="1570" d="M1225 -236q-38 -235 -275 -235q-77 0 -141 22l8 48q55 -21 125 -21q97 0 156.5 44t75.5 149l38 241l-827 1338q-3 -32 -16 -101l-197 -1249h-51l227 1434h41l836 -1348q2 20 7 53t7 47l199 1248h51z" />
<glyph unicode="&#x14b;" horiz-adv-x="1177" d="M887 -240q-10 -65 -37 -111.5t-65 -72t-80 -36.5t-91 -11q-80 0 -141 22l8 48q58 -25 129 -25q197 0 228 195l133 833q27 167 -53 261.5t-226 94.5q-138 0 -259.5 -79.5t-196.5 -186.5l-109 -692h-49l155 983h46l-35 -223q36 44 79.5 83t102 77.5t130.5 61t146 22.5 q163 0 254.5 -108.5t63.5 -291.5z" />
<glyph unicode="&#x14c;" horiz-adv-x="1689" d="M1604 713q-17 -108 -63.5 -213t-122.5 -199t-173.5 -165.5t-225.5 -113.5t-269 -42q-102 0 -191 22.5t-155.5 62.5t-121 95t-88 120t-55 138.5t-22.5 149.5t8 153q17 108 64 213t123.5 199t174 165.5t225 113.5t267.5 42q102 0 191 -22.5t155.5 -62.5t121 -95t88 -120 t55 -138.5t22.5 -149.5t-8 -153zM176 715q-9 -71 -8.5 -141.5t20 -138t49.5 -128t80 -111.5t111.5 -88t144.5 -58t179 -21q133 0 253 39.5t211 107t162.5 156.5t114.5 187t59 200q9 71 8.5 141.5t-20 138t-49 128t-79.5 111.5t-111.5 88t-144.5 58t-179 21 q-165 0 -309.5 -60.5t-244 -159.5t-163.5 -220.5t-84 -249.5zM766 1708h516l-6 -47h-516z" />
<glyph unicode="&#x14d;" horiz-adv-x="1212" d="M1096 479q-19 -118 -76 -214.5t-137.5 -157.5t-175.5 -94t-195 -33q-96 0 -181 36t-147 101.5t-90 166t-10 220.5q15 95 55.5 177t97.5 140.5t128 100t148.5 62t156.5 20.5q96 0 181 -36.5t147 -101.5t89.5 -166t8.5 -221zM133 496q-17 -106 7 -196t78.5 -149 t130.5 -91.5t163 -32.5q93 0 181 30.5t161.5 87t125 145t67.5 197.5q17 106 -7 196t-78.5 149t-130.5 91.5t-163 32.5q-93 0 -181 -30.5t-161.5 -87t-125 -145t-67.5 -197.5zM457 1241h516l-6 -47h-516z" />
<glyph unicode="&#x150;" horiz-adv-x="1689" d="M1604 713q-17 -108 -63.5 -213t-122.5 -199t-173.5 -165.5t-225.5 -113.5t-269 -42q-102 0 -191 22.5t-155.5 62.5t-121 95t-88 120t-55 138.5t-22.5 149.5t8 153q17 108 64 213t123.5 199t174 165.5t225 113.5t267.5 42q102 0 191 -22.5t155.5 -62.5t121 -95t88 -120 t55 -138.5t22.5 -149.5t-8 -153zM176 715q-9 -71 -8.5 -141.5t20 -138t49.5 -128t80 -111.5t111.5 -88t144.5 -58t179 -21q133 0 253 39.5t211 107t162.5 156.5t114.5 187t59 200q9 71 8.5 141.5t-20 138t-49 128t-79.5 111.5t-111.5 88t-144.5 58t-179 21 q-165 0 -309.5 -60.5t-244 -159.5t-163.5 -220.5t-84 -249.5zM1184 1593h-56l201 291h57zM872 1593h-55l201 291h57z" />
<glyph unicode="&#x151;" horiz-adv-x="1212" d="M1096 479q-19 -118 -76 -214.5t-137.5 -157.5t-175.5 -94t-195 -33q-96 0 -181 36t-147 101.5t-90 166t-10 220.5q15 95 55.5 177t97.5 140.5t128 100t148.5 62t156.5 20.5q96 0 181 -36.5t147 -101.5t89.5 -166t8.5 -221zM133 496q-17 -106 7 -196t78.5 -149 t130.5 -91.5t163 -32.5q93 0 181 30.5t161.5 87t125 145t67.5 197.5q17 106 -7 196t-78.5 149t-130.5 91.5t-163 32.5q-93 0 -181 -30.5t-161.5 -87t-125 -145t-67.5 -197.5zM874 1126h-55l201 291h57zM563 1126h-55l201 291h57z" />
<glyph unicode="&#x152;" horiz-adv-x="2093" d="M999 0q-95 -20 -243 -20q-103 0 -193 22.5t-157.5 62.5t-122.5 95.5t-88 121.5t-55 140.5t-22.5 152t9.5 156.5q17 107 63.5 210.5t122.5 196t173 163t223 112t264 41.5q154 0 248 -20h874l-8 -50h-819l-101 -639h760l-10 -49h-758l-102 -647h833l-10 -49h-881zM178 723 q-10 -73 -9.5 -145.5t20 -141t50 -129.5t81 -112t113 -88t146 -57.5t179.5 -20.5q155 0 248 22l211 1333q-89 21 -246 21q-162 0 -305 -60t-242 -158t-163 -218t-83 -246z" />
<glyph unicode="&#x153;" horiz-adv-x="2031" d="M1030 344q-70 -176 -208.5 -270t-319.5 -94q-92 0 -175 36t-144.5 101.5t-89 167t-9.5 221.5q18 117 75.5 213.5t137 157.5t172.5 94t188 33q164 0 281 -100t135 -273q61 176 195.5 274.5t292.5 98.5q102 0 179 -34.5t120 -90.5t64 -128.5t17.5 -148t-26.5 -149.5h-842 q-12 -87 5.5 -159.5t56.5 -121.5t94.5 -83t117.5 -49t128 -15q175 0 327 79l-10 -51q-137 -73 -324 -73q-79 0 -152 21.5t-135.5 64t-103 114.5t-47.5 164zM133 498q-17 -106 7 -196.5t77 -149.5t127.5 -92t157.5 -33q132 0 241.5 52.5t184.5 158t98 251.5q17 107 -5.5 196 t-75 147.5t-127.5 91t-163 32.5q-89 0 -174 -30t-157 -86t-123.5 -145t-67.5 -197zM1563 958q-83 0 -161 -30t-143 -86.5t-113 -145t-67 -198.5h799q16 63 17 126t-17.5 123.5t-56 107t-104 75t-154.5 28.5z" />
<glyph unicode="&#x154;" horiz-adv-x="1396" d="M172 0h-51l227 1434h531q75 0 143 -13.5t130.5 -45t105 -78.5t61.5 -120t4 -163q-16 -103 -67.5 -182.5t-125.5 -126.5t-155.5 -71.5t-171.5 -29.5l450 -604h-59l-451 602h-477zM391 1384l-115 -733h488q67 0 131 11.5t128 39t114.5 69t87.5 106t49 145.5q13 79 -3.5 142 t-54 103.5t-92.5 67.5t-115.5 38t-127.5 11h-490zM836 1593h-56l221 273h62z" />
<glyph unicode="&#x155;" horiz-adv-x="692" d="M231 682q73 140 203 232.5t297 89.5l-8 -50q-87 2 -169.5 -29t-146 -84t-111.5 -118.5t-77 -136.5l-92 -586h-49l155 983h46zM494 1143h-56l221 272h62z" />
<glyph unicode="&#x156;" horiz-adv-x="1396" d="M172 0h-51l227 1434h531q75 0 143 -13.5t130.5 -45t105 -78.5t61.5 -120t4 -163q-16 -103 -67.5 -182.5t-125.5 -126.5t-155.5 -71.5t-171.5 -29.5l450 -604h-59l-451 602h-477zM391 1384l-115 -733h488q67 0 131 11.5t128 39t114.5 69t87.5 106t49 145.5q13 79 -3.5 142 t-54 103.5t-92.5 67.5t-115.5 38t-127.5 11h-490zM584 -438h-45l96 340h49z" />
<glyph unicode="&#x157;" horiz-adv-x="692" d="M231 682q73 140 203 232.5t297 89.5l-8 -50q-87 2 -169.5 -29t-146 -84t-111.5 -118.5t-77 -136.5l-92 -586h-49l155 983h46zM12 -438h-45l96 340h50z" />
<glyph unicode="&#x158;" horiz-adv-x="1396" d="M172 0h-51l227 1434h531q75 0 143 -13.5t130.5 -45t105 -78.5t61.5 -120t4 -163q-16 -103 -67.5 -182.5t-125.5 -126.5t-155.5 -71.5t-171.5 -29.5l450 -604h-59l-451 602h-477zM391 1384l-115 -733h488q67 0 131 11.5t128 39t114.5 69t87.5 106t49 145.5q13 79 -3.5 142 t-54 103.5t-92.5 67.5t-115.5 38t-127.5 11h-490zM1161 1829l-301 -256h-41l-219 256h55l189 -217l254 217h63z" />
<glyph unicode="&#x159;" horiz-adv-x="692" d="M231 682q73 140 203 232.5t297 89.5l-8 -50q-87 2 -169.5 -29t-146 -84t-111.5 -118.5t-77 -136.5l-92 -586h-49l155 983h46zM819 1378l-301 -256h-41l-219 256h55l189 -217l254 217h63z" />
<glyph unicode="&#x15a;" horiz-adv-x="1159" d="M203 1120q14 87 65 153.5t125 104.5t155.5 57t166.5 19q229 0 393 -100l-8 -49q-156 103 -383 100q-81 0 -154.5 -16t-140 -48.5t-111 -91t-57.5 -135.5q-10 -65 6.5 -117.5t54 -88t90.5 -66.5t114.5 -53t126 -47.5t125.5 -49t113.5 -59t89.5 -77t53 -102t5 -135.5 q-14 -90 -63 -158t-122.5 -106.5t-158.5 -57t-180 -17.5q-131 0 -255.5 31.5t-215.5 86.5l6 49q200 -118 463 -118q89 0 165 15.5t143 48.5t110.5 92t56.5 139q11 76 -10.5 136t-67.5 99.5t-109 71.5t-133.5 57.5t-141.5 51.5t-133 59t-108 74.5t-66.5 104.5t-8.5 142z M694 1593h-55l221 273h62z" />
<glyph unicode="&#x15b;" horiz-adv-x="931" d="M125 760q10 63 48.5 112t94 76.5t118.5 41.5t130 14q92 0 178 -23.5t144 -62.5l-7 -46q-56 39 -141.5 62.5t-173.5 23.5q-82 0 -152.5 -20t-124.5 -67.5t-65 -116.5q-8 -51 10 -90.5t55 -64t86.5 -43.5t105.5 -34t111.5 -30.5t104.5 -37.5t85 -50.5t53 -73.5t8 -103 q-13 -84 -75 -141.5t-145 -81.5t-182 -24q-101 0 -201.5 28t-160.5 72l8 47q65 -46 161.5 -74t190.5 -28q90 0 163.5 20.5t126.5 68t64 117.5q8 51 -9.5 89.5t-54 62.5t-86 43t-105.5 34t-111.5 31t-104.5 38t-85 51t-53.5 75t-8.5 105zM528 1143h-55l221 272h62z" />
<glyph unicode="&#x15e;" horiz-adv-x="1159" d="M696 -322q-8 -68 -70 -108.5t-171 -40.5q-122 0 -207 45l6 43q85 -45 197 -45q96 0 146 31t56 82q10 66 -70 88.5t-177 -9.5l86 216q-126 2 -246.5 33t-208.5 85l6 49q200 -118 463 -118q89 0 165 15.5t143 48.5t110.5 92t56.5 139q11 76 -10.5 136t-67.5 99.5t-109 71.5 t-133.5 57.5t-141.5 51.5t-133 59t-108 74.5t-66.5 104.5t-8.5 142q14 87 65 153.5t125 104.5t155.5 57t166.5 19q229 0 393 -100l-8 -49q-156 103 -383 100q-81 0 -154.5 -16t-140 -48.5t-111 -91t-57.5 -135.5q-10 -65 6.5 -117.5t54 -88t90.5 -66.5t114.5 -53t126 -47.5 t125.5 -49t113.5 -59t89.5 -77t53 -102t5 -135.5q-14 -87 -60.5 -153t-115 -105.5t-148.5 -59t-171 -21.5l-72 -175q61 12 115.5 5.5t89 -42t26.5 -90.5z" />
<glyph unicode="&#x15f;" horiz-adv-x="931" d="M573 -322q-9 -68 -71.5 -108.5t-171.5 -40.5q-119 0 -207 45l8 43q82 -45 195 -45q96 0 146 31t56 82q10 66 -69.5 88.5t-175.5 -9.5l84 216q-96 3 -188.5 30.5t-149.5 69.5l8 47q65 -46 161.5 -74t190.5 -28q90 0 163.5 20.5t126.5 68t64 117.5q8 51 -9.5 89.5t-54 62.5 t-86 43t-105.5 34t-111.5 31t-104.5 38t-85 51t-53.5 75t-8.5 105q10 63 48.5 112t94 76.5t118.5 41.5t130 14q92 0 178 -23.5t144 -62.5l-7 -46q-56 39 -141.5 62.5t-173.5 23.5q-82 0 -152.5 -20t-124.5 -67.5t-65 -116.5q-8 -51 10 -90.5t55 -64t86.5 -43.5t105.5 -34 t111.5 -30.5t104.5 -37.5t85 -50.5t53 -73.5t8 -103q-13 -81 -70.5 -138t-136.5 -82t-174 -27l-72 -175q61 12 115.5 5.5t89.5 -42t28 -90.5z" />
<glyph unicode="&#x160;" horiz-adv-x="1159" d="M203 1120q14 87 65 153.5t125 104.5t155.5 57t166.5 19q229 0 393 -100l-8 -49q-156 103 -383 100q-81 0 -154.5 -16t-140 -48.5t-111 -91t-57.5 -135.5q-10 -65 6.5 -117.5t54 -88t90.5 -66.5t114.5 -53t126 -47.5t125.5 -49t113.5 -59t89.5 -77t53 -102t5 -135.5 q-14 -90 -63 -158t-122.5 -106.5t-158.5 -57t-180 -17.5q-131 0 -255.5 31.5t-215.5 86.5l6 49q200 -118 463 -118q89 0 165 15.5t143 48.5t110.5 92t56.5 139q11 76 -10.5 136t-67.5 99.5t-109 71.5t-133.5 57.5t-141.5 51.5t-133 59t-108 74.5t-66.5 104.5t-8.5 142z M1020 1829l-301 -256h-41l-219 256h55l188 -217l254 217h64z" />
<glyph unicode="&#x161;" horiz-adv-x="931" d="M125 760q10 63 48.5 112t94 76.5t118.5 41.5t130 14q92 0 178 -23.5t144 -62.5l-7 -46q-56 39 -141.5 62.5t-173.5 23.5q-82 0 -152.5 -20t-124.5 -67.5t-65 -116.5q-8 -51 10 -90.5t55 -64t86.5 -43.5t105.5 -34t111.5 -30.5t104.5 -37.5t85 -50.5t53 -73.5t8 -103 q-13 -84 -75 -141.5t-145 -81.5t-182 -24q-101 0 -201.5 28t-160.5 72l8 47q65 -46 161.5 -74t190.5 -28q90 0 163.5 20.5t126.5 68t64 117.5q8 51 -9.5 89.5t-54 62.5t-86 43t-105.5 34t-111.5 31t-104.5 38t-85 51t-53.5 75t-8.5 105zM854 1378l-301 -256h-41l-219 256h55 l189 -217l254 217h63z" />
<glyph unicode="&#x162;" horiz-adv-x="1204" d="M158 1434h1153l-8 -50h-551l-220 -1384h-51l219 1384h-550zM418 -438h-45l96 340h49z" />
<glyph unicode="&#x163;" horiz-adv-x="729" d="M315 1305l52 18l-54 -340h441l-9 -47h-438l-106 -664q-20 -121 34 -184t173 -63q124 0 221 51l-6 -47q-85 -49 -224 -49q-134 0 -202 75.5t-45 214.5l106 666h-184l6 47h184zM315 -438h-45l97 340h49z" />
<glyph unicode="&#x164;" horiz-adv-x="1204" d="M158 1434h1153l-8 -50h-551l-220 -1384h-51l219 1384h-550zM1081 1829l-301 -256h-41l-219 256h55l189 -217l254 217h63z" />
<glyph unicode="&#x165;" horiz-adv-x="729" d="M629 1464h47l-94 -315h-41zM315 1305l52 18l-54 -340h441l-9 -47h-438l-106 -664q-20 -121 34 -184t173 -63q124 0 221 51l-6 -47q-85 -49 -224 -49q-134 0 -202 75.5t-45 214.5l106 666h-184l6 47h184z" />
<glyph unicode="&#x166;" horiz-adv-x="1230" d="M545 0h-51l112 711h-287l9 45h286l99 628h-551l8 50h1153l-8 -50h-551l-98 -628h286l-8 -45h-287z" />
<glyph unicode="&#x167;" horiz-adv-x="729" d="M756 983l-8 -47h-439l-49 -305h342l-6 -45h-344l-49 -314q-20 -121 34 -184t173 -63q124 0 221 51l-6 -47q-85 -49 -224 -49q-134 0 -202 75.5t-45 214.5l49 316h-117l8 45h117l49 305h-184l6 47h184l51 322l52 18l-54 -340h441z" />
<glyph unicode="&#x16a;" horiz-adv-x="1533" d="M1419 1434h51l-149 -942q-21 -139 -79.5 -240.5t-146.5 -159.5t-191 -85t-228 -27q-82 0 -151.5 11.5t-131.5 37t-106.5 65.5t-74.5 97.5t-36.5 132.5t6.5 170l148 940h51l-150 -940q-20 -127 4 -219t87 -144.5t150 -77t202 -24.5q524 0 598 467zM682 1708h516l-6 -47 h-516z" />
<glyph unicode="&#x16b;" horiz-adv-x="1177" d="M1018 983h49l-156 -983h-45l35 223q-74 -95 -194.5 -169t-257.5 -74q-166 0 -259 108.5t-65 292.5l96 602h49l-96 -602q-26 -167 52.5 -261.5t224.5 -94.5q141 0 262 80t194 188zM426 1257h516l-6 -47h-516z" />
<glyph unicode="&#x16e;" horiz-adv-x="1533" d="M1419 1434h51l-149 -942q-21 -139 -79.5 -240.5t-146.5 -159.5t-191 -85t-228 -27q-82 0 -151.5 11.5t-131.5 37t-106.5 65.5t-74.5 97.5t-36.5 132.5t6.5 170l148 940h51l-150 -940q-20 -127 4 -219t87 -144.5t150 -77t202 -24.5q524 0 598 467zM1112 1716 q-12 -73 -68.5 -118.5t-125.5 -45.5q-72 0 -117.5 48.5t-32.5 123.5q10 71 68 117.5t127 46.5q72 0 117 -48.5t32 -123.5zM807 1718q-9 -56 24.5 -91.5t83.5 -35.5q57 0 102.5 35t55.5 94q9 57 -23.5 93t-84.5 36q-55 0 -101.5 -36t-56.5 -95z" />
<glyph unicode="&#x16f;" horiz-adv-x="1177" d="M1018 983h49l-156 -983h-45l35 223q-74 -95 -194.5 -169t-257.5 -74q-166 0 -259 108.5t-65 292.5l96 602h49l-96 -602q-26 -167 52.5 -261.5t224.5 -94.5q141 0 262 80t194 188zM856 1266q-12 -73 -68.5 -118.5t-125.5 -45.5q-72 0 -117.5 48.5t-32.5 123.5 q10 71 68 117.5t127 46.5q72 0 117 -48.5t32 -123.5zM551 1268q-9 -56 24.5 -91.5t83.5 -35.5q57 0 102.5 35t55.5 94q9 57 -23.5 93t-84.5 36q-55 0 -101.5 -36t-56.5 -95z" />
<glyph unicode="&#x170;" horiz-adv-x="1533" d="M1419 1434h51l-149 -942q-21 -139 -79.5 -240.5t-146.5 -159.5t-191 -85t-228 -27q-82 0 -151.5 11.5t-131.5 37t-106.5 65.5t-74.5 97.5t-36.5 132.5t6.5 170l148 940h51l-150 -940q-20 -127 4 -219t87 -144.5t150 -77t202 -24.5q524 0 598 467zM1100 1593h-56l201 291 h58zM788 1593h-55l201 291h57z" />
<glyph unicode="&#x171;" horiz-adv-x="1177" d="M1018 983h49l-156 -983h-45l35 223q-74 -95 -194.5 -169t-257.5 -74q-166 0 -259 108.5t-65 292.5l96 602h49l-96 -602q-26 -167 52.5 -261.5t224.5 -94.5q141 0 262 80t194 188zM844 1143h-56l201 291h58zM532 1143h-55l201 291h57z" />
<glyph unicode="&#x172;" horiz-adv-x="1533" d="M1272 496l147 938h51l-149 -942q-40 -266 -219 -396q-153 -111 -236 -214.5t-94 -182.5q-8 -57 22.5 -91.5t96.5 -33.5q83 3 153 41l-6 -51q-69 -35 -155 -35q-89 0 -131.5 47.5t-30.5 122.5q11 68 68.5 152.5t158.5 171.5q-101 -43 -272 -43q-82 0 -151.5 11.5 t-131.5 37t-106.5 65.5t-74.5 97.5t-36.5 132.5t6.5 170l148 940h51l-150 -940q-20 -127 4 -219t87 -144.5t150 -77t202 -24.5q524 0 598 467z" />
<glyph unicode="&#x173;" horiz-adv-x="1177" d="M1067 983l-156 -983q-260 -173 -282 -309q-7 -55 20 -87t80 -32t109 18l-7 -45q-56 -16 -110 -16q-73 0 -112 44.5t-27 117.5q22 145 286 327l33 205q-74 -95 -194.5 -169t-257.5 -74q-166 0 -259 108.5t-65 292.5l96 602h49l-96 -602q-26 -167 52.5 -261.5t224.5 -94.5 q141 0 262 80t194 188l111 690h49z" />
<glyph unicode="&#x174;" horiz-adv-x="2013" d="M2040 1434h53l-684 -1434h-55l-224 1329l-653 -1329h-57l-232 1434h52l219 -1364l661 1347h45l226 -1341zM1186 1849h43l219 -256h-55l-187 217l-256 -217h-61z" />
<glyph unicode="&#x175;" horiz-adv-x="1630" d="M1585 983h53l-534 -983h-47l-189 901l-481 -901h-49l-221 983h49l207 -913l479 897h47l188 -899zM918 1399h43l219 -256h-56l-186 217l-256 -217h-61z" />
<glyph unicode="&#x176;" horiz-adv-x="1277" d="M569 0h-51l92 582l-428 852h54l405 -801l659 801h62l-700 -852zM809 1849h43l219 -256h-55l-187 217l-256 -217h-61z" />
<glyph unicode="&#x177;" horiz-adv-x="1085" d="M481 51l563 932h56l-705 -1163q-98 -160 -181.5 -225.5t-180.5 -65.5q-51 0 -101 12l7 43q41 -10 90 -10q91 0 165.5 63t159.5 205l97 158l-355 983h51zM623 1399h43l219 -256h-56l-186 217l-256 -217h-61z" />
<glyph unicode="&#x178;" horiz-adv-x="1277" d="M569 0h-51l92 582l-428 852h54l405 -801l659 801h62l-700 -852zM1059 1708q-3 -19 -17.5 -32t-33.5 -13q-22 0 -34 15.5t-7 35.5q1 17 16.5 30t32.5 13q23 0 34.5 -14t8.5 -35zM649 1708q-3 -19 -17.5 -32t-33.5 -13q-22 0 -34 15.5t-7 35.5q1 17 16.5 30t32.5 13 q23 0 34.5 -14t8.5 -35z" />
<glyph unicode="&#x179;" horiz-adv-x="1159" d="M1008 0h-1055l6 45l1186 1339h-934l10 50h1000l-7 -45l-1187 -1340h989zM754 1593h-56l222 273h61z" />
<glyph unicode="&#x17a;" horiz-adv-x="899" d="M147 983h732l-9 -39l-833 -899h715l-9 -45h-780l6 39l836 899h-664zM535 1143h-56l221 272h62z" />
<glyph unicode="&#x17b;" horiz-adv-x="1159" d="M1008 0h-1055l6 45l1186 1339h-934l10 50h1000l-7 -45l-1187 -1340h989zM827 1671q-4 -24 -22 -38.5t-41 -14.5q-26 0 -40.5 16t-10.5 43q4 23 21.5 38.5t39.5 15.5q27 0 42 -17t11 -43z" />
<glyph unicode="&#x17c;" horiz-adv-x="899" d="M147 983h732l-9 -39l-833 -899h715l-9 -45h-780l6 39l836 899h-664zM608 1221q-4 -24 -22.5 -39t-40.5 -15q-26 0 -40.5 16.5t-10.5 43.5q4 23 21.5 38t39.5 15q27 0 42 -16.5t11 -42.5z" />
<glyph unicode="&#x17d;" horiz-adv-x="1159" d="M1008 0h-1055l6 45l1186 1339h-934l10 50h1000l-7 -45l-1187 -1340h989zM1079 1829l-301 -256h-41l-219 256h55l189 -217l254 217h63z" />
<glyph unicode="&#x17e;" horiz-adv-x="899" d="M147 983h732l-9 -39l-833 -899h715l-9 -45h-780l6 39l836 899h-664zM860 1378l-301 -256h-41l-219 256h55l189 -217l254 217h63z" />
<glyph unicode="&#x2c6;" horiz-adv-x="528" d="M489 1849h43l220 -256h-56l-186 217l-256 -217h-61z" />
<glyph unicode="&#x2da;" horiz-adv-x="409" d="M606 1716q-12 -73 -68.5 -118.5t-125.5 -45.5q-72 0 -117.5 48.5t-32.5 123.5q10 71 68 117.5t127 46.5q72 0 117 -48.5t32 -123.5zM301 1718q-9 -56 25 -91.5t84 -35.5q57 0 102 35t55 94q9 57 -23.5 93t-84.5 36q-55 0 -101.5 -36t-56.5 -95z" />
<glyph unicode="&#x2dc;" horiz-adv-x="630" d="M844 1763q-2 -66 -39 -106.5t-98 -40.5q-48 0 -109 29t-119 57.5t-98 28.5q-44 0 -71 -29t-27 -76h-45q0 65 39.5 107.5t97.5 42.5q47 0 108.5 -29t120 -57.5t98.5 -28.5q46 0 70.5 27t26.5 75h45z" />
<glyph unicode="&#x401;" horiz-adv-x="1280" d="M1108 1708q-3 -19 -17.5 -32t-33.5 -13q-22 0 -34 15.5t-7 35.5q1 17 16.5 30t32.5 13q23 0 34.5 -14t8.5 -35zM698 1708q-3 -19 -17.5 -32t-33.5 -13q-22 0 -34 15.5t-7 35.5q1 17 16.5 30t32.5 13q23 0 34.5 -14t8.5 -35zM348 1434h932l-8 -50h-881l-100 -639h819 l-8 -49h-819l-103 -647h893l-8 -49h-944z" />
<glyph unicode="&#x410;" horiz-adv-x="1445" d="M1319 0h-53l-133 440h-861l-274 -440h-57l886 1434h62zM831 1350l-532 -861h821l-260 863q-7 14 -10 34q-2 -7 -19 -36z" />
<glyph unicode="&#x411;" horiz-adv-x="1345" d="M301 809h399q48 0 90.5 -2t87 -7t81.5 -13.5t75 -21t65.5 -30t54.5 -40.5t42.5 -52.5t28 -65.5t11.5 -80t-7 -96q-13 -84 -45 -149t-80 -108t-104 -72t-128 -44.5t-140.5 -21.5t-151.5 -6h-459l227 1434h938l-8 -50h-887zM180 49h408q94 0 166.5 7t148.5 30t128.5 61 t92.5 104.5t54 156.5q14 89 -5 154t-59.5 102.5t-109.5 59.5t-138 29t-161 7h-412z" />
<glyph unicode="&#x412;" horiz-adv-x="1382" d="M348 1434h514q104 0 186.5 -21.5t141.5 -65t84.5 -114t11.5 -162.5q-16 -96 -68 -164.5t-122 -104t-158 -48.5q49 -8 91.5 -22.5t87 -43.5t73.5 -68.5t42.5 -101t2.5 -137.5q-12 -70 -40 -127.5t-65 -96t-87 -68t-99 -46t-108.5 -27t-109 -13.5t-105.5 -3h-500zM1184 393 q13 84 -8.5 147t-61.5 97.5t-99 56t-108 27.5t-102 6h-518l-107 -678h441q63 0 115 4t116.5 15.5t115 36t97 61t77 94.5t42.5 133zM1237 1075q25 159 -78.5 234t-304.5 75h-463l-96 -608h536q71 0 136 17t121.5 51.5t96 93.5t52.5 137z" />
<glyph unicode="&#x413;" horiz-adv-x="1187" d="M172 0h-51l227 1434h922l-8 -50h-871z" />
<glyph unicode="&#x414;" horiz-adv-x="1531" d="M-59 -362h-50l64 411h147q178 250 304 623t186 762h831l-219 -1385h176l-65 -411h-49l57 362h-1327zM637 1384q-66 -380 -187.5 -737.5t-289.5 -597.5h993l211 1335h-727z" />
<glyph unicode="&#x415;" horiz-adv-x="1280" d="M348 1434h932l-8 -50h-881l-100 -639h819l-8 -49h-819l-103 -647h893l-8 -49h-944z" />
<glyph unicode="&#x416;" horiz-adv-x="1890" d="M1888 1434h56l-549 -699l383 -735h-54l-370 711h-363l-112 -711h-50l111 711h-354l-596 -711h-62l619 735l-332 699h53l320 -674h362l107 674h49l-107 -674h359z" />
<glyph unicode="&#x417;" horiz-adv-x="1232" d="M1092 381q-14 -86 -57 -155.5t-103.5 -114.5t-137 -75t-153 -43t-156.5 -13q-289 0 -479 88l8 49q194 -88 469 -88q73 0 143.5 11.5t140.5 38.5t125.5 67.5t95.5 103.5t52 141q12 75 -9.5 134t-64.5 95.5t-106.5 60t-129.5 33t-140 9.5h-266l10 49h260q203 0 339 85 t159 230q12 78 -15 140t-83.5 100t-133.5 58t-168 20q-138 0 -244.5 -22t-220.5 -70l9 49q107 47 214.5 69.5t247.5 22.5q99 0 185 -23.5t149.5 -68.5t94 -117t16.5 -162q-21 -136 -133 -224t-277 -109q63 -7 117 -23t104.5 -45t84 -69.5t49 -100t4.5 -131.5z" />
<glyph unicode="&#x418;" horiz-adv-x="1570" d="M1489 1434l-227 -1434h-52l199 1247q2 17 16 99l-1259 -1346h-45l227 1434h51l-200 -1256q-5 -41 -15 -88l1258 1344h47z" />
<glyph unicode="&#x419;" horiz-adv-x="1570" d="M1489 1434l-227 -1434h-52l199 1247q2 17 16 99l-1259 -1346h-45l227 1434h51l-200 -1256q-5 -41 -15 -88l1258 1344h47zM1217 1688q-116 -84 -261 -84q-160 0 -247 84l8 53q93 -90 239 -90q150 0 269 90z" />
<glyph unicode="&#x41a;" horiz-adv-x="1335" d="M1343 1434h60l-631 -701l461 -733h-57l-447 711h-444l-113 -711h-51l227 1434h51l-106 -674h442z" />
<glyph unicode="&#x41b;" horiz-adv-x="1499" d="M621 1434h796l-227 -1434h-51l219 1384h-696q-43 -189 -73.5 -313t-75 -286t-82 -266.5t-89 -216.5t-102 -175.5t-114 -105t-132.5 -41.5q-61 0 -103 18l7 49q47 -16 90 -16q49 0 95 25t85.5 66t78.5 110t71.5 140t67.5 174t62 194.5t59.5 219.5t57 230t56.5 244z" />
<glyph unicode="&#x41c;" horiz-adv-x="1843" d="M1714 1434h47l-227 -1434h-51l211 1333l-781 -930h-36l-492 934l-213 -1337h-51l227 1434h41l512 -971z" />
<glyph unicode="&#x41d;" horiz-adv-x="1570" d="M1438 1434h51l-227 -1434h-52l111 696h-1038l-111 -696h-51l227 1434h51l-108 -689h1038z" />
<glyph unicode="&#x41e;" horiz-adv-x="1689" d="M1604 713q-17 -108 -63.5 -213t-122.5 -199t-173.5 -165.5t-225.5 -113.5t-269 -42q-102 0 -191 22.5t-155.5 62.5t-121 95t-88 120t-55 138.5t-22.5 149.5t8 153q17 108 64 213t123.5 199t174 165.5t225 113.5t267.5 42q102 0 191 -22.5t155.5 -62.5t121 -95t88 -120 t55 -138.5t22.5 -149.5t-8 -153zM176 715q-9 -71 -8.5 -141.5t20 -138t49.5 -128t80 -111.5t111.5 -88t144.5 -58t179 -21q133 0 253 39.5t211 107t162.5 156.5t114.5 187t59 200q9 71 8.5 141.5t-20 138t-49 128t-79.5 111.5t-111.5 88t-144.5 58t-179 21 q-165 0 -309.5 -60.5t-244 -159.5t-163.5 -220.5t-84 -249.5z" />
<glyph unicode="&#x41f;" horiz-adv-x="1531" d="M172 0h-51l227 1434h1102l-227 -1434h-52l220 1384h-1000z" />
<glyph unicode="&#x420;" horiz-adv-x="1333" d="M348 1434h440q99 0 181.5 -13t156 -45t121 -81.5t68 -128.5t4.5 -181q-70 -440 -666 -440h-395l-86 -545h-51zM1270 993q14 89 -4 158t-60 112.5t-108.5 71t-140.5 38.5t-164 11h-402l-125 -790h396q546 0 608 399z" />
<glyph unicode="&#x421;" horiz-adv-x="1339" d="M129 727q23 143 84.5 264t147 205t190 143t212.5 87t216 28q226 0 377 -98l-8 -51q-141 100 -365 100q-103 0 -205.5 -26t-201 -81t-179 -134t-139 -194t-80.5 -251q-21 -134 0.5 -249t76.5 -194.5t135.5 -136t175 -83.5t196.5 -27q216 0 409 102l-8 -53 q-180 -98 -409 -98q-108 0 -208.5 29t-187 90.5t-146 148t-83 210.5t-0.5 269z" />
<glyph unicode="&#x422;" horiz-adv-x="1204" d="M158 1434h1153l-8 -50h-551l-220 -1384h-51l219 1384h-550z" />
<glyph unicode="&#x423;" horiz-adv-x="1263" d="M664 326q-68 -103 -131 -173t-121.5 -107t-111 -51.5t-112.5 -14.5q-84 0 -149 22l8 49q65 -22 135 -22q106 0 201 58t203 208l30 45l-466 1094h55l442 -1047l686 1047h58z" />
<glyph unicode="&#x424;" horiz-adv-x="1726" d="M784 -72h-51l31 193q-224 2 -386.5 73.5t-241 210.5t-48.5 326q29 186 146.5 317.5t300 197t417.5 67.5l31 192h51l-30 -192q222 -2 383.5 -73t240.5 -209.5t49 -325.5q-29 -186 -146 -318t-300 -198t-418 -68zM139 725q-39 -258 131 -405t502 -152l174 1098 q-339 -5 -552.5 -144t-254.5 -397zM995 1266l-172 -1098q338 5 551 144.5t254 398.5q41 257 -130 403.5t-503 151.5z" />
<glyph unicode="&#x425;" horiz-adv-x="1236" d="M-8 0h-66l686 739l-426 695h58l403 -658l613 658h63l-651 -703l448 -731h-55l-428 694z" />
<glyph unicode="&#x426;" horiz-adv-x="1560" d="M1341 -362h-47l58 362h-1231l227 1434h51l-219 -1385h1002l219 1385h51l-219 -1385h174z" />
<glyph unicode="&#x427;" horiz-adv-x="1370" d="M1061 0h-51l96 604q-248 -83 -483 -80q-254 3 -376.5 125.5t-86.5 356.5l69 428h50l-68 -433q-34 -215 77.5 -320t344.5 -108q222 -3 481 82l123 779h51z" />
<glyph unicode="&#x428;" horiz-adv-x="2181" d="M1872 0h-1751l227 1434h51l-219 -1385h799l219 1385h51l-219 -1385h801l217 1385h51z" />
<glyph unicode="&#x429;" horiz-adv-x="2207" d="M1991 -362h-49l57 362h-1878l227 1434h51l-219 -1385h799l219 1385h51l-219 -1385h801l217 1385h51l-219 -1385h176z" />
<glyph unicode="&#x42a;" horiz-adv-x="1523" d="M754 0h-447l219 1384h-385l9 50h436l-88 -545h397q97 0 178 -13t154 -45t120 -81.5t67.5 -128.5t4.5 -181q-68 -440 -665 -440zM492 840l-125 -791h395q546 0 606 400q15 89 -2.5 158t-59.5 112.5t-108 71t-141 38.5t-166 11h-399z" />
<glyph unicode="&#x42b;" horiz-adv-x="1701" d="M567 0h-446l227 1434h51l-86 -545h396q97 0 178 -13t154 -45t120 -81.5t67.5 -128.5t4.5 -181q-68 -440 -666 -440zM305 840l-125 -791h395q547 0 607 400q15 89 -2.5 158t-59.5 112.5t-108 71t-141 38.5t-166 11h-400zM1393 0h-52l228 1434h51z" />
<glyph unicode="&#x42c;" horiz-adv-x="1337" d="M567 0h-446l227 1434h51l-86 -545h396q97 0 178 -13t154 -45t120 -81.5t67.5 -128.5t4.5 -181q-68 -440 -666 -440zM305 840l-125 -791h395q547 0 607 400q15 89 -2.5 158t-59.5 112.5t-108 71t-141 38.5t-166 11h-400z" />
<glyph unicode="&#x42d;" horiz-adv-x="1345" d="M221 1358q187 96 414 96q85 0 167.5 -21t158.5 -63t137.5 -104.5t103.5 -146t55.5 -188t-4.5 -229.5q-29 -181 -112 -322.5t-200 -227t-251.5 -129t-279.5 -43.5q-230 0 -392 100l9 49q168 -100 376 -100q110 0 213 24.5t199.5 77t173.5 129t132.5 188t78.5 246.5 l-838 -2l7 49l837 2q16 128 -9.5 238t-82 186.5t-135.5 131t-168.5 80.5t-183.5 26q-228 0 -414 -100z" />
<glyph unicode="&#x42e;" horiz-adv-x="2201" d="M2114 713q-17 -108 -62.5 -213t-122 -199t-173.5 -165.5t-225 -113.5t-269 -42q-138 0 -251 41t-188 110t-122.5 161t-63.5 193.5t-4 206.5h-350l-111 -692h-51l227 1434h51l-110 -693h352q20 106 68 208.5t124.5 194t172.5 160.5t221.5 109.5t263.5 40.5 q102 0 191 -22.5t155.5 -62.5t121 -95t87.5 -120t54.5 -138.5t22.5 -149.5t-9 -153zM688 715q-9 -71 -8.5 -141.5t20 -138t49.5 -128t80 -111.5t111.5 -88t144.5 -58t179 -21q133 0 253 39.5t211 107t162.5 156.5t114.5 187t59 200q9 71 8.5 141.5t-20 138t-49 128 t-79.5 111.5t-111.5 88t-144.5 58t-179 21q-165 0 -309.5 -60.5t-244 -159.5t-163.5 -220.5t-84 -249.5z" />
<glyph unicode="&#x42f;" horiz-adv-x="1386" d="M45 0h-61l544 573q-183 32 -272 141t-59 287q17 111 72.5 196t138.5 135.5t183.5 76t215.5 25.5h498l-228 -1434h-49l88 561h-438q-63 0 -94 4zM248 993q-16 -99 10.5 -174t87.5 -120t144 -67t186 -22h448l123 774h-448q-102 0 -191.5 -22.5t-165.5 -68t-127 -122.5 t-67 -178z" />
<glyph unicode="&#x430;" d="M985 254q-80 -122 -209.5 -198t-279.5 -76q-104 0 -189 37.5t-140 105t-77.5 166t-3.5 215.5q36 227 196.5 363.5t368.5 136.5q146 0 256.5 -79.5t151.5 -201.5l41 260h47l-156 -983h-47zM133 498q-17 -106 2.5 -195.5t69 -150t125 -94t168.5 -33.5q156 0 291 89t204 222 l49 307q-25 134 -132.5 224.5t-256.5 90.5q-192 0 -339.5 -123.5t-180.5 -336.5z" />
<glyph unicode="&#x431;" horiz-adv-x="1208" d="M1085 449q-33 -217 -176 -343t-364 -126q-232 0 -355 166.5t-81 435.5q33 206 146 372.5t263 251.5q103 57 207.5 93t169.5 48.5t132.5 38t115.5 68.5l-8 -55q-47 -39 -112.5 -63.5t-127.5 -36t-158.5 -45t-189.5 -85.5q-133 -74 -229 -202.5t-148 -296.5 q81 125 217.5 198.5t284.5 73.5q99 0 183 -37t141 -101.5t81.5 -157t7.5 -197.5zM156 571q-37 -245 71 -394.5t318 -149.5q203 0 332.5 115t160.5 313q20 123 -23 224t-135 158.5t-214 57.5q-158 0 -300.5 -87t-209.5 -237z" />
<glyph unicode="&#x432;" horiz-adv-x="1107" d="M594 0h-516l155 983h488q137 0 210 -68.5t54 -187.5q-14 -86 -68 -146t-143 -81q93 -16 142 -77t30 -171q-18 -124 -113 -188t-239 -64zM203 477l-68 -432h459q124 0 206.5 53t100.5 164q9 59 -4.5 101.5t-46 67t-75 35.5t-97.5 11h-475zM276 938l-65 -416h446 q120 0 192 55.5t87 153.5q14 97 -45 152t-178 55h-437z" />
<glyph unicode="&#x433;" horiz-adv-x="899" d="M127 0h-49l155 983h691l-6 -47h-642z" />
<glyph unicode="&#x434;" horiz-adv-x="1234" d="M-41 -283h-47l51 328h127q133 210 213 423.5t127 514.5h662l-148 -938h139l-53 -328h-47l45 283h-1024zM471 936q-45 -280 -123 -484.5t-205 -406.5h752l141 891h-565z" />
<glyph unicode="&#x435;" horiz-adv-x="1105" d="M84 494q19 119 72.5 217.5t128.5 161.5t164.5 97t183.5 34q102 0 180 -34.5t122 -90.5t66 -127t19.5 -145.5t-25.5 -145.5h-866q-12 -90 6 -164t57.5 -123.5t97 -83.5t122 -49.5t135.5 -15.5q184 0 336 79l-11 -51q-134 -73 -329 -73q-80 0 -153 18.5t-137 59t-107.5 99 t-61 145.5t-0.5 192zM958 506q14 49 15.5 100.5t-8 102.5t-35 95.5t-64 79t-98 54.5t-133.5 20q-116 0 -218.5 -51t-179 -155t-102.5 -246h823z" />
<glyph unicode="&#x436;" horiz-adv-x="1445" d="M-14 0h-60l529 508l-312 475h52l299 -453h196l72 453h49l-72 -453h195l442 453h56l-463 -477l364 -506h-53l-350 483h-197l-78 -483h-49l78 483h-192z" />
<glyph unicode="&#x437;" horiz-adv-x="964" d="M807 254q-12 -72 -53 -126t-104 -86t-138 -47t-162 -15q-205 -3 -352 69l8 47q142 -71 340 -71q78 0 145 12.5t124.5 39.5t94.5 75t48 112q17 99 -53 156t-164 57h-254l8 45h235q120 0 193.5 56t87.5 151q16 107 -76 168t-235 61q-182 0 -357 -69l9 49q176 68 352 68 q167 -2 271 -76.5t85 -202.5q-14 -91 -74.5 -150.5t-158.5 -76.5q85 -19 139.5 -84.5t40.5 -161.5z" />
<glyph unicode="&#x438;" horiz-adv-x="1196" d="M125 0h-47l155 983h50l-144 -905l899 905h47l-155 -983h-49l143 905z" />
<glyph unicode="&#x439;" horiz-adv-x="1196" d="M958 1237q-116 -84 -260 -84q-160 0 -247 84l8 51q93 -90 237 -90q152 0 271 90zM125 0h-47l155 983h50l-144 -905l899 905h47l-155 -983h-49l143 905z" />
<glyph unicode="&#x43a;" horiz-adv-x="1011" d="M127 0h-49l155 983h50l-72 -446h272l459 446h57l-483 -475l385 -508h-55l-371 489h-270z" />
<glyph unicode="&#x43b;" horiz-adv-x="1196" d="M477 936q-36 -186 -72.5 -328.5t-79.5 -262t-90 -196.5t-103.5 -119t-121.5 -42q-49 0 -88 16l6 43q29 -14 76 -14q139 0 241 235.5t193 714.5h647l-155 -983h-49l149 936h-553z" />
<glyph unicode="&#x43c;" horiz-adv-x="1357" d="M127 0h-49l155 983h50l356 -631l551 631h57l-155 -983h-50l146 909l-537 -612h-35l-344 612z" />
<glyph unicode="&#x43d;" horiz-adv-x="1179" d="M127 0h-49l155 983h50l-74 -469h737l74 469h49l-156 -983h-49l74 469h-737z" />
<glyph unicode="&#x43e;" horiz-adv-x="1212" d="M1096 479q-19 -118 -76 -214.5t-137.5 -157.5t-175.5 -94t-195 -33q-96 0 -181 36t-147 101.5t-90 166t-10 220.5q15 95 55.5 177t97.5 140.5t128 100t148.5 62t156.5 20.5q96 0 181 -36.5t147 -101.5t89.5 -166t8.5 -221zM133 496q-17 -106 7 -196t78.5 -149 t130.5 -91.5t163 -32.5q93 0 181 30.5t161.5 87t125 145t67.5 197.5q17 106 -7 196t-78.5 149t-130.5 91.5t-163 32.5q-93 0 -181 -30.5t-161.5 -87t-125 -145t-67.5 -197.5z" />
<glyph unicode="&#x43f;" horiz-adv-x="1179" d="M127 0h-49l155 983h836l-156 -983h-49l148 936h-736z" />
<glyph unicode="&#x440;" d="M238 723q82 126 212.5 203.5t278.5 77.5q206 0 326.5 -146.5t83.5 -378.5q-36 -229 -194 -364t-372 -135q-152 0 -258 78t-147 206l-113 -715h-49l227 1434h46zM1090 485q34 211 -73 342t-294 131q-152 0 -289 -91.5t-207 -227.5l-47 -297q27 -137 131.5 -227t257.5 -90 q197 0 342 122.5t179 337.5z" />
<glyph unicode="&#x441;" horiz-adv-x="1017" d="M84 496q16 104 61 190.5t106 144t136.5 97.5t151 58t151.5 18q173 0 281 -82l-8 -48q-103 84 -271 84q-71 0 -141 -16.5t-139 -53.5t-124.5 -90t-97 -133t-57.5 -176q-18 -113 6 -203t81 -146t135 -85.5t171 -29.5q177 0 324 81l-6 -51q-142 -75 -324 -75 q-100 0 -185.5 32t-149.5 93.5t-92 162.5t-9 228z" />
<glyph unicode="&#x442;" horiz-adv-x="919" d="M389 0h-49l147 936h-407l6 47h866l-6 -47h-409z" />
<glyph unicode="&#x443;" horiz-adv-x="1085" d="M481 51l563 932h56l-705 -1163q-98 -160 -181.5 -225.5t-180.5 -65.5q-51 0 -101 12l7 43q41 -10 90 -10q91 0 165.5 63t159.5 205l97 158l-355 983h51z" />
<glyph unicode="&#x444;" horiz-adv-x="1425" d="M571 -451h-49l68 431q-163 2 -286 63t-185 181t-37 280q19 119 79 214t149.5 156.5t202.5 94.5t241 35l67 430h49l-67 -430q121 -2 222.5 -38t172 -101.5t101.5 -165t12 -220.5q-25 -157 -122 -271t-238 -170t-312 -58zM129 498q-34 -216 97 -343t370 -130l147 933 q-157 -2 -285.5 -53t-217 -156t-111.5 -251zM793 958l-148 -933q157 2 286.5 53t218.5 156t112 251q34 216 -98 343t-371 130z" />
<glyph unicode="&#x445;" horiz-adv-x="987" d="M2 0h-61l510 506l-330 477h57l305 -442l451 442h61l-485 -479l348 -504h-55l-326 469z" />
<glyph unicode="&#x446;" horiz-adv-x="1206" d="M1004 -283h-50l45 283h-921l155 983h50l-148 -936h731l148 936h49l-148 -936h140z" />
<glyph unicode="&#x447;" horiz-adv-x="1050" d="M784 0h-49l60 379q-169 -66 -351 -66q-179 0 -275.5 89.5t-68.5 263.5l50 317h49l-49 -317q-25 -155 57.5 -230.5t247.5 -75.5q176 0 348 66l88 557h49z" />
<glyph unicode="&#x448;" horiz-adv-x="1650" d="M1384 0h-1306l155 983h50l-148 -936h580l147 936h49l-147 -936h579l148 936h49z" />
<glyph unicode="&#x449;" horiz-adv-x="1683" d="M1481 -283h-49l45 283h-1399l155 983h50l-148 -936h580l147 936h49l-147 -936h579l148 936h49l-147 -936h139z" />
<glyph unicode="&#x44a;" horiz-adv-x="1167" d="M639 0h-428l149 938h-282l6 45h332l-60 -377h381q159 0 247.5 -86.5t66.5 -220.5q-21 -132 -132.5 -215.5t-279.5 -83.5zM350 561l-82 -516h373q149 0 245.5 72.5t114.5 189.5q19 112 -56 183t-218 71h-377z" />
<glyph unicode="&#x44b;" horiz-adv-x="1386" d="M504 0h-426l155 983h50l-60 -377h379q161 0 249.5 -86.5t66.5 -220.5q-21 -132 -132.5 -215.5t-281.5 -83.5zM217 561l-82 -516h373q149 0 245.5 72.5t114.5 189.5q19 112 -56 183t-218 71h-377zM1120 0h-49l156 983h49z" />
<glyph unicode="&#x44c;" horiz-adv-x="1034" d="M504 0h-426l155 983h50l-60 -377h379q161 0 249.5 -86.5t66.5 -220.5q-21 -132 -132.5 -215.5t-281.5 -83.5zM217 561l-82 -516h373q149 0 245.5 72.5t114.5 189.5q19 112 -56 183t-218 71h-377z" />
<glyph unicode="&#x44d;" horiz-adv-x="1030" d="M913 477q-21 -129 -78 -227.5t-137 -156t-171 -85.5t-189 -28q-186 0 -328 88l8 47q141 -90 312 -90q93 0 177.5 25t158 76.5t125.5 139.5t71 203h-596l8 45l594 2q13 111 -17.5 198.5t-92 139t-138 78t-161.5 26.5q-175 0 -322 -90l8 47q147 89 318 89q75 0 145.5 -19 t133.5 -61t107 -102.5t62 -149.5t2 -195z" />
<glyph unicode="&#x44e;" horiz-adv-x="1636" d="M1520 479q-19 -118 -76 -214.5t-137.5 -157.5t-175.5 -94t-195 -33q-93 0 -176 33.5t-145 94.5t-93 155t-20 206h-301l-74 -467h-49l155 983h50l-74 -469h301q39 218 204.5 353t377.5 135q96 0 181 -36.5t147 -101.5t90 -166t10 -221zM557 496q-17 -106 7 -196t78.5 -149 t130.5 -91.5t163 -32.5q126 0 237.5 51.5t193 158t103.5 250.5q17 106 -7 196t-78 149t-130 91.5t-163 32.5q-93 0 -181 -30.5t-161.5 -87t-125 -145t-67.5 -197.5z" />
<glyph unicode="&#x44f;" horiz-adv-x="1099" d="M43 0h-59l368 403q-121 23 -180.5 99.5t-40.5 189.5q21 129 131.5 210t276.5 81h450l-155 -983h-50l62 393h-385q-40 0 -58 2zM180 684q-19 -111 56.5 -178.5t222.5 -67.5h395l80 500h-393q-148 0 -246 -69.5t-115 -184.5z" />
<glyph unicode="&#x451;" horiz-adv-x="1105" d="M934 1257q-3 -19 -17.5 -32t-33.5 -13q-21 0 -33.5 15.5t-7.5 36.5q1 17 16.5 30t32.5 13q23 0 34.5 -14.5t8.5 -35.5zM524 1257q-3 -19 -17.5 -32t-33.5 -13q-21 0 -33.5 15.5t-7.5 36.5q1 17 16.5 30t32.5 13q23 0 34.5 -14.5t8.5 -35.5zM84 494q19 119 72.5 217.5 t128.5 161.5t164.5 97t183.5 34q102 0 180 -34.5t122 -90.5t66 -127t19.5 -145.5t-25.5 -145.5h-866q-12 -90 6 -164t57.5 -123.5t97 -83.5t122 -49.5t135.5 -15.5q184 0 336 79l-11 -51q-134 -73 -329 -73q-80 0 -153 18.5t-137 59t-107.5 99t-61 145.5t-0.5 192zM958 506 q14 49 15.5 100.5t-8 102.5t-35 95.5t-64 79t-98 54.5t-133.5 20q-116 0 -218.5 -51t-179 -155t-102.5 -246h823z" />
<glyph unicode="&#x2000;" horiz-adv-x="944" />
<glyph unicode="&#x2001;" horiz-adv-x="1888" />
<glyph unicode="&#x2002;" horiz-adv-x="944" />
<glyph unicode="&#x2003;" horiz-adv-x="1888" />
<glyph unicode="&#x2004;" horiz-adv-x="629" />
<glyph unicode="&#x2005;" horiz-adv-x="472" />
<glyph unicode="&#x2006;" horiz-adv-x="314" />
<glyph unicode="&#x2007;" horiz-adv-x="314" />
<glyph unicode="&#x2008;" horiz-adv-x="236" />
<glyph unicode="&#x2009;" horiz-adv-x="377" />
<glyph unicode="&#x200a;" horiz-adv-x="104" />
<glyph unicode="&#x2010;" horiz-adv-x="997" d="M135 520h705l-9 -47h-702z" />
<glyph unicode="&#x2011;" horiz-adv-x="997" d="M135 520h705l-9 -47h-702z" />
<glyph unicode="&#x2012;" horiz-adv-x="997" d="M135 520h705l-9 -47h-702z" />
<glyph unicode="&#x2013;" horiz-adv-x="1165" d="M999 473h-870l6 47h871z" />
<glyph unicode="&#x2014;" horiz-adv-x="1538" d="M1372 473h-1243l6 47h1243z" />
<glyph unicode="&#x2018;" horiz-adv-x="376" d="M236 995h-52l181 439h43z" />
<glyph unicode="&#x2019;" horiz-adv-x="374" d="M227 995h-43l172 439h52z" />
<glyph unicode="&#x201a;" horiz-adv-x="342" d="M-23 -291h-43l172 438h52z" />
<glyph unicode="&#x201c;" horiz-adv-x="630" d="M489 995h-51l180 439h44zM236 995h-52l181 439h43z" />
<glyph unicode="&#x201d;" horiz-adv-x="628" d="M481 995h-43l172 439h52zM227 995h-43l172 439h52z" />
<glyph unicode="&#x201e;" horiz-adv-x="595" d="M231 -291h-43l172 438h52zM-23 -291h-43l172 438h52z" />
<glyph unicode="&#x2026;" horiz-adv-x="886" d="M684 31q-3 -18 -17 -30.5t-32 -12.5q-21 0 -33 14t-8 35q1 18 16 29.5t33 11.5q22 0 33 -12.5t8 -34.5zM139 31q-3 -18 -17 -30.5t-32 -12.5q-21 0 -33 14t-8 35q1 18 16 29.5t33 11.5q22 0 33 -12.5t8 -34.5zM412 31q-3 -18 -17.5 -30.5t-32.5 -12.5q-21 0 -32.5 14 t-7.5 35q1 18 16 29.5t33 11.5q22 0 33 -12.5t8 -34.5z" />
<glyph unicode="&#x202f;" horiz-adv-x="377" />
<glyph unicode="&#x2039;" horiz-adv-x="544" d="M332 141h-51l-191 342l2 19l295 340h57l-305 -353z" />
<glyph unicode="&#x203a;" horiz-adv-x="544" d="M125 141h-57l305 353l-193 348h53l189 -342l-2 -19z" />
<glyph unicode="&#x205f;" horiz-adv-x="472" />
<glyph unicode="&#x20ac;" horiz-adv-x="1507" d="M1458 1264q-156 100 -375 100q-83 0 -167.5 -18t-169 -57.5t-157.5 -96.5t-134 -140.5t-97 -183.5h826l-8 -45h-832q-11 -37 -22 -100q-14 -90 -11 -154h826l-9 -45h-813q23 -230 184 -362.5t386 -132.5q248 0 413 100l-8 -51q-162 -98 -409 -98q-159 0 -292.5 62.5 t-222 187.5t-104.5 294h-178l8 45h168q-3 70 10 158q9 49 21 96h-160l8 45h166q36 109 101 200.5t143.5 154t170 106.5t182.5 64t179 20q230 0 385 -100z" />
<glyph unicode="&#x2122;" horiz-adv-x="1331" d="M700 920h-36l81 514h41l179 -326l284 326h41l-82 -514h-34l73 460l-276 -311h-23l-174 311zM362 920h-36l75 479h-190l6 35h418l-6 -35h-191z" />
<glyph unicode="&#x25fc;" horiz-adv-x="983" d="M0 983h983v-983h-983v983z" />
</font>
</defs>
</svg>
