<?xml version="1.0" standalone="no"?>
<!DOCTYPE svg PUBLIC "-//W3C//DTD SVG 1.1//EN" "http://www.w3.org/Graphics/SVG/1.1/DTD/svg11.dtd" >
<svg xmlns="http://www.w3.org/2000/svg" xmlns:xlink="http://www.w3.org/1999/xlink" version="1.1">
<metadata></metadata>
<defs>
<font id="mullermedium_italic" horiz-adv-x="1269" >
<font-face units-per-em="2048" ascent="1597" descent="-451" />
<missing-glyph horiz-adv-x="487" />
<glyph horiz-adv-x="0" />
<glyph horiz-adv-x="682" />
<glyph unicode=" "  horiz-adv-x="487" />
<glyph unicode="&#x09;" horiz-adv-x="487" />
<glyph unicode="&#xa0;" horiz-adv-x="487" />
<glyph unicode="!" horiz-adv-x="509" d="M332 451h-199l139 983h232zM313 94q-9 -58 -48.5 -88.5t-94.5 -30.5q-62 0 -98.5 39.5t-26.5 108.5q10 58 50 88.5t93 30.5q62 0 98.5 -39.5t26.5 -108.5z" />
<glyph unicode="&#x22;" horiz-adv-x="733" d="M659 1028h-153l65 406h201zM338 1028h-154l66 406h201z" />
<glyph unicode="#" horiz-adv-x="1374" d="M268 0h-213l129 332h-151l26 174h195l152 383h-181l27 174h221l131 330h213l-127 -330h320l129 330h215l-131 -330h149l-29 -174h-190l-152 -383h179l-27 -174h-219l-131 -332h-215l131 332h-320zM618 889l-151 -383h319l152 383h-320z" />
<glyph unicode="$" horiz-adv-x="1224" d="M569 -266h-180l39 246q-237 22 -403 122l34 222q189 -138 476 -138q92 0 162 16t121.5 57t62.5 106q7 48 -15 86.5t-65 66t-101 52t-122.5 48.5t-128.5 50.5t-120 63t-97 81.5t-58.5 110.5t-5.5 145.5q18 105 91.5 183t174 117t219.5 46l39 244h180l-38 -246 q199 -26 327 -106l-33 -213q-161 112 -417 112q-80 0 -144 -14.5t-109.5 -50.5t-54.5 -90q-8 -49 13.5 -89t64.5 -68.5t101 -54t122.5 -49.5t128.5 -50.5t120.5 -62t97.5 -79.5t59 -107.5t6 -140.5t-46 -139t-82 -104t-111 -71t-129 -43t-140 -18z" />
<glyph unicode="%" horiz-adv-x="1861" d="M492 -123h-187l1104 1679h186zM850 1110q-24 -151 -136 -236.5t-255 -85.5q-70 0 -131 23.5t-105.5 67t-65 111t-7.5 149.5q17 102 77 176t141.5 109.5t174.5 35.5q69 0 129.5 -23.5t105 -66.5t65 -110.5t7.5 -149.5zM334 1118q-8 -65 25 -110t108 -45q82 0 134 47.5 t63 119.5q7 65 -26.5 110.5t-105.5 45.5q-84 0 -136.5 -47.5t-61.5 -120.5zM1749 295q-24 -151 -136 -236.5t-255 -85.5q-69 0 -130 23.5t-106 67t-65.5 111.5t-7.5 149q25 151 138 236t257 85q68 0 128.5 -23.5t104.5 -66.5t64.5 -111t7.5 -149zM1235 303q-8 -65 25 -110.5 t108 -45.5q82 0 134 48t61 120q8 65 -24.5 110.5t-104.5 45.5q-84 0 -137 -47.5t-62 -120.5z" />
<glyph unicode="&#x26;" horiz-adv-x="1447" d="M1137 248l227 -248h-248l-117 125q-216 -152 -489 -152q-229 0 -355 114.5t-98 285.5q10 69 45.5 129.5t89.5 108t106.5 81t117.5 66.5q-144 179 -115 350q25 154 164.5 253t329.5 99q111 0 203 -45t140.5 -126.5t32.5 -178.5q-7 -43 -27 -84t-44 -73t-63.5 -65.5 t-70.5 -55.5t-81.5 -50t-79.5 -42.5t-80 -39.5l279 -305q99 136 116 289h219q-31 -244 -202 -436zM782 1272q-121 0 -191 -55.5t-81 -143.5q-15 -100 88 -231q52 21 91.5 39.5t90 46.5t84 55.5t60 63.5t32.5 73q12 64 -41.5 108t-132.5 44zM283 365q-15 -88 57.5 -143.5 t206.5 -55.5q179 0 321 102l-323 348q-69 -31 -118 -61.5t-92.5 -81t-51.5 -108.5z" />
<glyph unicode="'" horiz-adv-x="411" d="M338 1028h-154l66 406h201z" />
<glyph unicode="(" horiz-adv-x="616" d="M551 1659h194q-156 -206 -265 -452.5t-146 -491.5q-40 -238 -11 -493.5t119 -446.5h-184q-108 204 -151 455.5t-5 500.5q40 242 159.5 488.5t289.5 439.5z" />
<glyph unicode=")" horiz-adv-x="616" d="M213 1659h184q108 -204 150.5 -459t3.5 -504q-38 -239 -157.5 -482t-289.5 -439h-196q156 203 265.5 452.5t148.5 497.5q38 239 9 490.5t-118 443.5z" />
<glyph unicode="*" horiz-adv-x="935" d="M532 965l-182 -248l-155 117l206 200l-247 60l98 190l229 -106l19 256h202l-65 -256l260 106l41 -190l-272 -60l149 -200l-180 -117z" />
<glyph unicode="+" horiz-adv-x="1095" d="M680 815h369l-31 -197h-371l-57 -368h-195l58 368h-369l31 197h370l58 369h194z" />
<glyph unicode="," horiz-adv-x="489" d="M66 -303h-181l203 508h234z" />
<glyph unicode="-" horiz-adv-x="993" d="M125 602h745l-30 -196h-746z" />
<glyph unicode="." horiz-adv-x="468" d="M299 98q-9 -60 -49 -90.5t-96 -30.5q-62 0 -99 39.5t-26 108.5q8 59 49 89t96 30q63 0 99.5 -38.5t25.5 -107.5z" />
<glyph unicode="/" horiz-adv-x="901" d="M111 -121h-166l882 1675h166z" />
<glyph unicode="0" horiz-adv-x="1439" d="M115 711q24 153 80.5 280t145 224t216 150.5t283.5 53.5q123 0 221 -37t161 -103.5t102.5 -158.5t45 -202.5t-11.5 -235.5q-19 -122 -58.5 -227.5t-102 -194.5t-143.5 -152.5t-189 -99t-234 -35.5q-122 0 -219.5 37t-160.5 103.5t-102.5 159t-45 203t11.5 235.5z M1128 696q38 244 -35.5 377t-265.5 133q-401 0 -483 -510q-38 -244 35.5 -377t263.5 -133q403 0 485 510z" />
<glyph unicode="1" horiz-adv-x="907" d="M573 1393h172l-188 -1182h248l-35 -211h-758l35 211h279l149 942l-295 -104l35 215z" />
<glyph unicode="2" horiz-adv-x="1198" d="M246 1280q222 139 475 139q101 0 186.5 -26.5t147 -76t90 -127.5t12.5 -175q-11 -67 -39.5 -125t-64 -101.5t-94 -88.5t-110 -77t-130.5 -75q-26 -14 -76.5 -41.5t-75 -41t-66 -38t-63.5 -40t-51 -39t-44 -43t-28 -44t-18 -49.5h743l-34 -211h-1010l18 115 q9 55 25.5 105.5t36 91t49.5 79.5t57 68.5t67.5 61t71 52.5t79 48t80 43.5t83.5 42.5q165 85 220 124q126 90 145 203q12 85 -51 129.5t-189 44.5q-232 0 -479 -161z" />
<glyph unicode="3" horiz-adv-x="1212" d="M1128 1024q-17 -104 -85 -183t-171 -112q38 -12 71.5 -31.5t64 -50t49 -71t27 -93t-2.5 -116.5q-16 -99 -71 -176.5t-135.5 -124t-176.5 -70t-202 -23.5q-262 0 -473 97l32 213q183 -102 434 -99q95 0 172.5 22.5t133.5 75.5t69 132q16 108 -51.5 153t-202.5 45h-231 l35 207h188q128 0 207.5 53.5t93.5 143.5q14 92 -52 142t-204 50q-215 0 -444 -116l35 227q205 100 454 100q136 0 241 -47t159 -138t36 -210z" />
<glyph unicode="4" horiz-adv-x="1327" d="M918 1393h243l-145 -906h237l-30 -202h-238l-45 -285h-227l45 285h-756l31 198zM791 487l94 598l-582 -598h488z" />
<glyph unicode="5" horiz-adv-x="1193" d="M311 1393h856l-32 -209h-646l-75 -334q96 22 209 22q78 0 149 -16t134.5 -51.5t107 -88t62 -132t3.5 -176.5q-17 -107 -74 -191.5t-142 -137t-188 -79.5t-218 -27q-251 0 -437 97l33 209q74 -45 178.5 -70t210.5 -25q168 0 278 63t128 187q22 127 -66 186.5t-254 59.5 q-189 0 -381 -66z" />
<glyph unicode="6" horiz-adv-x="1292" d="M365 778q199 107 409 107q86 0 167 -30t144.5 -85.5t94.5 -145.5t14 -198q-23 -145 -108 -249t-205.5 -154t-262.5 -50q-298 0 -428 193t-75 532q29 184 100.5 324.5t172 226t220.5 128t256 42.5q194 0 353 -86l-33 -203q-133 82 -312 82q-83 0 -157 -23t-142.5 -72 t-122.5 -135.5t-85 -203.5zM614 174q65 0 121 14.5t103.5 44.5t79.5 82.5t43 122.5q20 127 -55.5 184.5t-207.5 57.5q-194 0 -370 -123q-25 -383 286 -383z" />
<glyph unicode="7" horiz-adv-x="1130" d="M176 1393h1034l-28 -185l-768 -1208h-256l753 1184h-770z" />
<glyph unicode="8" horiz-adv-x="1335" d="M1202 340q-12 -75 -54 -139.5t-114.5 -116t-185 -81.5t-252.5 -30q-141 0 -251.5 36t-175.5 96.5t-92.5 138t-13.5 162.5q14 97 87 190t196 160q-161 124 -129 305q11 68 49.5 130t104.5 114t170 83t233 31q117 0 214.5 -35.5t158.5 -94t90.5 -132.5t19.5 -151 q-24 -186 -235 -320q215 -121 180 -346zM295 412q-15 -109 70.5 -174.5t255.5 -65.5q140 0 237.5 53t110.5 137q6 43 -5 77t-33 57t-60 42.5t-75 33t-89 29.5q-5 1 -9 2.5t-8 2.5q-105 29 -182 60q-188 -105 -213 -254zM692 807q63 -15 156 -47q158 111 180 246 q13 89 -59 152t-211 63q-131 0 -217.5 -50t-98.5 -129q-8 -52 8.5 -90.5t61.5 -66.5t79.5 -42t100.5 -36z" />
<glyph unicode="9" horiz-adv-x="1290" d="M129 967q24 145 109.5 249t206 153.5t262.5 49.5q297 0 426.5 -193t74.5 -532q-23 -148 -74 -268t-121 -203.5t-159 -140.5t-187.5 -83t-207.5 -26q-195 0 -353 84l31 205q131 -82 314 -82q86 0 161 23t143 72t121.5 135t84.5 204q-201 -104 -406 -104q-89 0 -171 29.5 t-146.5 84.5t-95.5 144.5t-13 198.5zM702 1217q-133 0 -225.5 -64t-114.5 -195q-10 -68 6.5 -117t56 -76t89.5 -39.5t113 -12.5q192 0 368 123q22 381 -293 381z" />
<glyph unicode=":" horiz-adv-x="518" d="M424 768q-10 -60 -50 -89.5t-98 -29.5q-61 0 -97 39t-25 109q8 59 48.5 88.5t94.5 29.5q65 0 101.5 -38.5t25.5 -108.5zM317 98q-9 -60 -49 -90.5t-96 -30.5q-62 0 -99 39.5t-26 108.5q8 59 49.5 89t96.5 30q63 0 99.5 -38.5t24.5 -107.5z" />
<glyph unicode=";" horiz-adv-x="581" d="M109 -303h-181l203 508h234zM463 836q-9 -61 -49 -91t-97 -30q-62 0 -99.5 38.5t-27.5 108.5q10 59 51.5 89t96.5 30q64 0 100 -38t25 -107z" />
<glyph unicode="&#x3c;" horiz-adv-x="1032" d="M862 506l-31 -205l-743 307l35 219l840 306l-33 -207l-619 -211z" />
<glyph unicode="=" horiz-adv-x="1163" d="M1067 813h-901l31 197h901zM1006 426h-902l31 195h901z" />
<glyph unicode="&#x3e;" horiz-adv-x="1032" d="M946 608l-840 -307l33 205l621 215l-553 207l31 205l743 -306z" />
<glyph unicode="?" horiz-adv-x="1011" d="M549 446h-213q10 67 45.5 132.5t82 114.5t100.5 101.5t100 95.5t80 94t42 99q14 90 -48.5 127t-192.5 37q-179 0 -387 -112l35 219q193 106 403 106q75 0 142.5 -13.5t125 -43t97.5 -71.5t57 -103.5t4 -134.5q-9 -57 -38 -112.5t-69.5 -101.5t-87.5 -91t-93.5 -87 t-85.5 -82.5t-66 -85.5t-33 -88zM526 98q-9 -60 -49 -90.5t-96 -30.5q-62 0 -99 39.5t-26 108.5q8 59 49 89t96 30q63 0 99.5 -38.5t25.5 -107.5z" />
<glyph unicode="@" horiz-adv-x="2152" d="M72 520q30 185 123.5 353.5t238 299.5t349 209t438.5 78q182 0 333 -55t250 -146.5t163.5 -209t85 -243t1.5 -247.5q-43 -271 -175 -408t-327 -137q-124 0 -204 57t-97 154q-117 -164 -317 -164q-113 0 -197.5 60.5t-121 161t-17.5 217.5q27 175 152 294t301 119 q92 0 163.5 -46t104.5 -113l22 139h187l-84 -531q-13 -87 15 -130.5t108 -43.5q111 0 180.5 107t97.5 285q15 95 -0.5 191t-64.5 184.5t-125 156.5t-191 109t-254 41q-188 0 -352.5 -61.5t-282 -166.5t-194.5 -243t-102 -293q-28 -182 19.5 -331.5t152 -245.5t249.5 -148 t314 -52q226 0 465 76l-29 -205q-206 -69 -453 -69q-167 0 -318.5 41.5t-275.5 125t-208.5 201t-118.5 279.5t-4 350zM1280 569q-10 72 -62.5 121t-138.5 49q-106 0 -185.5 -71t-98.5 -185q-15 -104 36 -174.5t148 -70.5q93 0 168.5 53t107.5 125z" />
<glyph unicode="A" horiz-adv-x="1490" d="M1384 0h-239l-78 309h-721l-176 -309h-254l834 1434h258zM809 1120l-348 -606h557l-154 608q-8 31 -14 88q-17 -49 -41 -90z" />
<glyph unicode="B" horiz-adv-x="1413" d="M307 1434h594q139 0 245 -41.5t162.5 -129t37.5 -208.5q-21 -120 -94.5 -195.5t-178.5 -105.5q48 -15 89.5 -42t78.5 -70.5t52 -110t3 -148.5q-15 -91 -59.5 -161t-104 -111t-137.5 -67t-149.5 -35t-151.5 -9h-614zM1067 428q9 54 -3 94t-37.5 62.5t-65 35.5t-74.5 17 t-78 4h-393l-70 -436h350q43 0 79 3t78 10.5t74.5 23.5t62.5 39.5t49.5 61t27.5 85.5zM1110 1038q18 102 -47 147.5t-197 45.5h-356l-61 -391l378 -2q113 0 189.5 50t93.5 150z" />
<glyph unicode="C" horiz-adv-x="1325" d="M106 752q22 136 85 253t150.5 199.5t193.5 141t216.5 86.5t217.5 28q228 0 391 -100l-33 -217q-123 102 -330 102q-107 0 -211.5 -32t-197.5 -93t-159 -163t-87 -230q-22 -134 11.5 -241t105.5 -170t162.5 -95.5t189.5 -32.5q218 0 391 111l-37 -242q-172 -84 -409 -84 q-90 0 -177 21.5t-167.5 64.5t-145 107.5t-108 151.5t-58 195.5t5.5 238.5z" />
<glyph unicode="D" horiz-adv-x="1515" d="M307 1434h496q238 0 397 -95.5t220.5 -260t27.5 -376.5q-25 -156 -89.5 -282.5t-168.5 -221t-256.5 -146.5t-341.5 -52h-512zM1212 731q39 238 -70.5 364t-361.5 126h-272l-160 -1008h262q252 0 408 135.5t194 382.5z" />
<glyph unicode="E" d="M307 1434h987l-34 -213h-754l-62 -392h693l-33 -213h-692l-64 -403h764l-33 -213h-999z" />
<glyph unicode="F" horiz-adv-x="1241" d="M307 1434h989l-34 -215h-756l-66 -420h697l-35 -217h-696l-93 -582h-233z" />
<glyph unicode="G" horiz-adv-x="1441" d="M104 745q19 121 67 226t115.5 182t150 136.5t174 96.5t184 55.5t184.5 18.5q243 0 424 -96l-33 -219q-129 100 -371 100q-85 0 -167.5 -17.5t-164.5 -58.5t-148 -100.5t-114 -150t-65 -201.5q-14 -100 -5 -178.5t43 -137.5t79.5 -100t105.5 -66.5t119.5 -37t122.5 -11.5 q138 0 231 43l86 541h232l-111 -702q-226 -95 -465 -95q-116 0 -223 27.5t-201 89t-158 149.5t-90.5 218.5t-1.5 287.5z" />
<glyph unicode="H" horiz-adv-x="1570" d="M1296 1434h234l-227 -1434h-234l96 610h-755l-97 -610h-233l227 1434h234l-97 -609h756z" />
<glyph unicode="I" horiz-adv-x="581" d="M307 1434h234l-228 -1434h-233z" />
<glyph unicode="J" horiz-adv-x="1044" d="M379 1434h637l-160 -1010q-19 -121 -69 -209.5t-125 -140t-163 -75.5t-192 -24q-226 0 -362 86l35 218q116 -82 294 -82q310 0 353 262l118 760h-401z" />
<glyph unicode="K" horiz-adv-x="1382" d="M1223 1434h262l-582 -713l385 -721h-248l-333 621h-295l-99 -621h-233l227 1434h234l-95 -598h285z" />
<glyph unicode="L" horiz-adv-x="1181" d="M307 1434h234l-193 -1217h754l-35 -217h-987z" />
<glyph unicode="M" horiz-adv-x="1857" d="M1577 1434h240l-228 -1434h-233l162 1018l-551 -686h-154l-336 688l-164 -1020h-233l227 1434h211l402 -822z" />
<glyph unicode="N" horiz-adv-x="1570" d="M313 0h-233l227 1434h197l631 -1057q10 102 20 170l141 887h234l-227 -1434h-197l-631 1057q-6 -88 -18 -164z" />
<glyph unicode="O" horiz-adv-x="1673" d="M1610 702q-19 -114 -63.5 -219t-119 -198.5t-171.5 -162.5t-228 -109t-280 -40q-173 0 -309 64t-215.5 170t-112 242t-9.5 282q18 113 64 219t122 199t174 162t227 109t274 40q115 0 215 -29.5t174.5 -81t132.5 -123t88.5 -156t42.5 -178t-6 -190.5zM338 713 q-13 -63 -6.5 -126.5t23 -121t53 -107.5t84.5 -86.5t117.5 -57.5t152.5 -21q128 0 237 42.5t185 115.5t124.5 167.5t65.5 202.5q16 98 -2 189t-67 166t-141.5 120t-215.5 45q-128 0 -236.5 -42.5t-184 -115.5t-124 -167.5t-65.5 -202.5z" />
<glyph unicode="P" horiz-adv-x="1361" d="M307 1434h522q95 0 176.5 -14.5t155.5 -50t122 -89.5t69 -139t4 -193q-13 -87 -45 -157t-79.5 -119.5t-106 -85t-131.5 -56t-149.5 -29.5t-164.5 -9h-289l-78 -492h-233zM1122 971q10 60 -3.5 106t-41.5 72.5t-72 43.5t-89 22.5t-99 5.5h-309l-82 -516h289q83 0 148 12.5 t120.5 41.5t91 82.5t47.5 129.5z" />
<glyph unicode="Q" horiz-adv-x="1673" d="M1501 20l-170 -139l-162 193q-191 -101 -421 -101q-173 0 -309 64t-215.5 170t-112 242t-9.5 282q18 113 64 219t122 199t174 162t227 109t274 40q115 0 215 -29.5t174.5 -81t132.5 -123t88.5 -156t42.5 -178t-6 -190.5q-51 -304 -262 -501zM338 713q-13 -63 -6.5 -126.5 t23 -121t53 -107.5t84.5 -86.5t117.5 -57.5t152.5 -21q145 0 256 57l-180 213l166 141l196 -231q142 139 174 348q16 98 -2 189t-67 166t-141.5 120t-215.5 45q-128 0 -236.5 -42.5t-184 -115.5t-124 -167.5t-65.5 -202.5z" />
<glyph unicode="R" horiz-adv-x="1435" d="M313 0h-233l227 1434h570q82 0 156.5 -14t142.5 -48.5t113.5 -86t66 -132.5t4.5 -182q-51 -328 -412 -410l363 -561h-262l-342 537h-308zM510 1221l-76 -478h346q85 0 154.5 22.5t123 79.5t68.5 144q10 66 -7 113.5t-57 72t-89 35.5t-111 11h-352z" />
<glyph unicode="S" horiz-adv-x="1208" d="M176 1090q15 93 68 166t130.5 116.5t168 65.5t188.5 22q124 0 239.5 -32t194.5 -87l-32 -215q-77 61 -182.5 92t-215.5 29q-298 0 -323 -176q-7 -48 15 -87t64.5 -67t99.5 -53t120.5 -49.5t126.5 -51.5t117.5 -64.5t94 -83.5t56.5 -112t4 -147q-14 -86 -53.5 -153 t-94 -109.5t-127 -70.5t-147 -39t-158.5 -11q-296 0 -507 129l34 220q196 -136 469 -136q319 0 346 179q8 53 -12.5 95.5t-62.5 72.5t-98.5 56.5t-120 51.5t-126 52t-118 63.5t-95.5 80.5t-57.5 109t-5.5 144z" />
<glyph unicode="T" horiz-adv-x="1232" d="M158 1434h1181l-34 -215h-474l-192 -1219h-233l192 1219h-475z" />
<glyph unicode="U" horiz-adv-x="1542" d="M1282 1434h234l-144 -910q-20 -122 -67 -217.5t-110.5 -157.5t-146.5 -102t-170 -57t-186 -17t-186 18.5t-162.5 61.5t-125.5 107t-70 161t-1 218l144 895h233l-141 -897q-16 -96 -0.5 -164.5t60 -107.5t106.5 -57t147 -18q388 0 447 361z" />
<glyph unicode="V" horiz-adv-x="1429" d="M741 0h-241l-350 1434h243l260 -1164l633 1164h260z" />
<glyph unicode="W" horiz-adv-x="2107" d="M1962 1434h254l-666 -1434h-264l-156 1051l-491 -1051h-266l-219 1434h241l154 -1153l536 1153h199l168 -1139z" />
<glyph unicode="X" horiz-adv-x="1347" d="M182 0h-286l665 743l-395 691h260l293 -514l457 514h286l-628 -703l419 -731h-260l-315 555z" />
<glyph unicode="Y" horiz-adv-x="1384" d="M713 0h-234l86 526l-418 908h250l310 -689l528 689h270l-706 -908z" />
<glyph unicode="Z" horiz-adv-x="1226" d="M1065 0h-1090l27 184l920 1035h-727l32 215h1037l-29 -187l-918 -1030h783z" />
<glyph unicode="[" horiz-adv-x="628" d="M440 -225h-434l299 1884h432l-30 -207h-209l-236 -1470h209z" />
<glyph unicode="\" horiz-adv-x="888" d="M719 -121h-158l-352 1675h158z" />
<glyph unicode="]" horiz-adv-x="628" d="M365 -225h-435l31 207h211l234 1470h-209l30 207h435z" />
<glyph unicode="^" horiz-adv-x="1140" d="M356 754h-247l501 680h193l289 -680h-230l-180 450z" />
<glyph unicode="_" horiz-adv-x="958" d="M813 -328h-958l30 195h959z" />
<glyph unicode="`" horiz-adv-x="444" d="M627 1571h-224l-170 303h256z" />
<glyph unicode="a" d="M870 158q-160 -185 -397 -185q-145 0 -248 73t-145.5 194.5t-20.5 265.5q17 103 65.5 195t120 160.5t168 108.5t203.5 40q129 0 218 -54.5t141 -138.5l24 166h197l-156 -983h-196zM276 489q-22 -140 48.5 -231.5t199.5 -91.5q112 0 206.5 61t148.5 150l39 239 q-22 85 -94 143t-177 58q-138 0 -242.5 -90.5t-128.5 -237.5z" />
<glyph unicode="b" horiz-adv-x="1267" d="M268 1434h219l-94 -582q158 158 371 158q143 0 246.5 -73t146 -194.5t19.5 -265.5q-15 -104 -61.5 -195.5t-116.5 -160t-168 -108.5t-209 -40q-88 0 -161 28.5t-117.5 68.5t-76.5 92l-30 -162h-195zM961 492q22 141 -48 233t-198 92q-114 0 -207.5 -60t-149.5 -151 l-41 -239q26 -87 97 -144t174 -57q147 0 247.5 88t125.5 238z" />
<glyph unicode="c" horiz-adv-x="1013" d="M61 506q17 106 62 192.5t106.5 143t138 95.5t153.5 56t155 17q174 0 307 -86l-33 -193q-100 84 -254 84q-71 0 -136.5 -18.5t-124 -56t-100 -102.5t-54.5 -151q-13 -80 5.5 -142.5t61 -100.5t101 -57t129.5 -19q143 0 307 82l-33 -209q-151 -68 -326 -68 q-84 0 -159.5 20.5t-139 63.5t-106.5 104.5t-60 150.5t0 194z" />
<glyph unicode="d" d="M1049 1434h219l-228 -1434h-194l24 162q-146 -189 -397 -189q-145 0 -248 73t-145.5 194.5t-20.5 265.5q23 139 97.5 253t193 182.5t258.5 68.5q123 0 210.5 -48t133.5 -122zM920 618q-23 84 -96 141.5t-177 57.5q-138 0 -242.5 -90.5t-128.5 -239.5 q-22 -138 48.5 -229.5t199.5 -91.5q112 0 206.5 61t148.5 150z" />
<glyph unicode="e" horiz-adv-x="1116" d="M59 504q15 100 57 185t99 143t127 99t142 60t143 19q112 0 197.5 -35.5t134 -95.5t71.5 -137.5t16.5 -163.5t-38.5 -172h-742q-1 -65 27.5 -114t76.5 -77t105 -41.5t121 -13.5q192 0 338 76l-33 -197q-145 -66 -352 -66q-84 0 -162 21t-145 65.5t-113 106t-65.5 149 t-4.5 189.5zM838 569q6 30 8.5 64t-11 68.5t-36.5 62.5t-68.5 45.5t-105.5 17.5q-119 0 -213.5 -70.5t-120.5 -187.5h547z" />
<glyph unicode="f" horiz-adv-x="800" d="M305 1114q12 78 43.5 139.5t72 99.5t93 62.5t104 34.5t107.5 10q131 0 233 -45l-30 -184q-76 37 -168 37q-97 0 -160.5 -39t-79.5 -139l-16 -107h336l-31 -192h-336l-125 -791h-219l125 791h-178l30 192h179z" />
<glyph unicode="g" horiz-adv-x="1271" d="M1042 4q-19 -126 -76.5 -221t-140.5 -150.5t-179.5 -82.5t-203.5 -27q-252 0 -413 100l30 195q145 -103 365 -103q75 0 140 17t119.5 51.5t91 93.5t48.5 137l21 117q-61 -68 -154.5 -113t-216.5 -45q-145 0 -248 73t-145.5 194.5t-20.5 265.5q23 138 99 252.5t196.5 183 t261.5 68.5q239 0 355 -195l28 168h199zM276 487q-22 -138 48.5 -229.5t199.5 -91.5q111 0 206 59t149 144l43 252q-25 83 -97.5 139.5t-177.5 56.5q-138 0 -242.5 -90.5t-128.5 -239.5z" />
<glyph unicode="h" horiz-adv-x="1202" d="M268 1434h219l-90 -568q70 64 160.5 104t181.5 40q182 0 275 -116t65 -294l-94 -600h-221l92 586q19 115 -31.5 172t-150.5 57q-86 0 -170 -50t-144 -122l-100 -643h-219z" />
<glyph unicode="i" horiz-adv-x="501" d="M266 0h-219l156 983h219zM496 1288q-10 -58 -49.5 -87.5t-94.5 -29.5q-62 0 -97.5 38t-25.5 106q9 59 49.5 89t96.5 30q60 0 95.5 -39t25.5 -107z" />
<glyph unicode="j" horiz-adv-x="499" d="M238 -176q-13 -85 -47.5 -146t-84 -93.5t-102.5 -47t-115 -14.5q-89 0 -172 33l31 186q44 -23 102 -23q153 0 177 160l176 1104h219zM494 1288q-10 -58 -49.5 -87.5t-94.5 -29.5q-62 0 -97.5 38t-25.5 106q9 59 49.5 89t96.5 30q60 0 95.5 -39t25.5 -107z" />
<glyph unicode="k" horiz-adv-x="1085" d="M858 983h256l-436 -485l309 -498h-235l-260 422h-164l-68 -422h-219l227 1434h219l-131 -826h168z" />
<glyph unicode="l" horiz-adv-x="501" d="M285 1495h219l-238 -1495h-219z" />
<glyph unicode="m" horiz-adv-x="1806" d="M999 856q183 154 367 154q93 0 162 -34t105.5 -91.5t49 -128.5t0.5 -150l-96 -606h-219l98 618q13 93 -28.5 145t-128.5 52q-78 0 -149 -42t-124 -99q0 -34 -6 -68l-96 -606h-219l98 618q13 93 -29 145t-129 52q-84 0 -159 -47.5t-131 -112.5l-105 -655h-219l156 983h194 l-22 -129q61 63 153.5 109.5t196.5 46.5t174.5 -41t105.5 -113z" />
<glyph unicode="n" horiz-adv-x="1202" d="M369 842q78 76 175.5 122t200.5 46q179 0 270.5 -116t63.5 -292l-96 -602h-219l92 586q19 116 -31 172.5t-151 56.5q-85 0 -169.5 -50t-144.5 -120l-100 -645h-219l156 983h194z" />
<glyph unicode="o" horiz-adv-x="1210" d="M1118 475q-18 -121 -78 -218.5t-144 -158.5t-182 -93t-200 -32q-103 0 -193.5 35.5t-156.5 101.5t-95.5 169.5t-9.5 228.5q19 121 78.5 218.5t143 158.5t182 93t201.5 32q102 0 192 -35.5t156.5 -101.5t96.5 -169.5t9 -228.5zM276 483q-22 -138 49 -223.5t207 -85.5 q141 0 243.5 89t127.5 237q22 139 -48.5 224t-207.5 85q-140 0 -243.5 -89t-127.5 -237z" />
<glyph unicode="p" horiz-adv-x="1267" d="M367 823q154 187 397 187q143 0 246.5 -73t146 -194.5t19.5 -265.5q-32 -212 -187 -358t-368 -146q-231 0 -338 177l-95 -601h-219l228 1434h194zM961 496q22 138 -48.5 229.5t-199.5 91.5q-112 0 -206.5 -61.5t-150.5 -151.5l-39 -239q25 -85 96.5 -142t176.5 -57 q138 0 242.5 91t128.5 239z" />
<glyph unicode="q" d="M59 506q17 103 65.5 195t120 160.5t168 108.5t203.5 40q127 0 217.5 -56t139.5 -143l26 172h197l-227 -1434h-219l92 582q-143 -158 -369 -158q-145 0 -248 73t-145.5 194.5t-20.5 265.5zM920 621q-23 83 -96 139.5t-177 56.5q-139 0 -242.5 -91t-128.5 -239 q-22 -138 48.5 -229.5t199.5 -91.5q112 0 208 61.5t147 149.5z" />
<glyph unicode="r" horiz-adv-x="776" d="M367 825q146 204 442 179l-35 -220q-131 26 -244.5 -29t-175.5 -165l-94 -590h-219l156 983h194z" />
<glyph unicode="s" horiz-adv-x="964" d="M100 733q11 75 54 131t105.5 86.5t131 45t141.5 14.5q197 0 351 -86l-29 -189q-63 42 -149 68t-173 26q-83 0 -142 -26.5t-66 -81.5q-5 -37 24.5 -65t79.5 -47t111 -37.5t121 -44t107.5 -59t72 -89.5t12.5 -129q-13 -78 -56 -133.5t-108 -86t-137.5 -44t-157.5 -13.5 q-229 0 -377 99l31 194q68 -51 162 -79.5t190 -28.5q214 0 232 106q5 37 -23.5 64.5t-78.5 46.5t-111 38t-121 44.5t-108 59t-73.5 89t-15.5 127.5z" />
<glyph unicode="t" horiz-adv-x="841" d="M311 1276l226 59l-56 -352h357l-31 -192h-356l-74 -459q-14 -94 22.5 -130t130.5 -36q109 0 211 47l-30 -193q-106 -47 -258 -47q-71 0 -129.5 20t-101 59.5t-61 104.5t-5.5 148l77 486h-176l31 192h176z" />
<glyph unicode="u" horiz-adv-x="1200" d="M905 983h219l-155 -983h-193l23 141q-66 -75 -161.5 -121.5t-199.5 -46.5q-185 0 -281.5 116.5t-68.5 295.5l94 598h219l-92 -586q-18 -117 31.5 -173t153.5 -56q94 0 173 48t136 122z" />
<glyph unicode="v" horiz-adv-x="1124" d="M920 983h245l-583 -983h-232l-264 983h227l183 -743z" />
<glyph unicode="w" horiz-adv-x="1644" d="M1438 983h239l-485 -983h-234l-118 702l-351 -702h-231l-172 983h219l115 -719l354 719h205l123 -719z" />
<glyph unicode="x" horiz-adv-x="1038" d="M176 0h-258l465 510l-283 473h240l186 -326l287 326h258l-444 -485l303 -498h-240l-205 350z" />
<glyph unicode="y" horiz-adv-x="1122" d="M514 238l397 745h248l-637 -1122q-104 -182 -212.5 -259t-229.5 -77q-71 0 -139 22l28 181q47 -15 90 -15q83 0 149.5 58.5t135.5 181.5l37 55l-307 975h225z" />
<glyph unicode="z" horiz-adv-x="966" d="M156 983h778l-27 -164l-624 -633h553l-29 -186h-834l27 164l625 633h-498z" />
<glyph unicode="{" horiz-adv-x="673" d="M492 -33l-31 -194q-183 -40 -271.5 37.5t-64.5 232.5l70 436q3 31 3.5 53t-9.5 37.5t-20 25t-29 14.5t-37.5 7t-43.5 2l33 197q77 -2 121.5 33.5t58.5 124.5l70 438q25 158 132 222t286 24l-31 -191q-83 13 -124 -28t-56 -144l-60 -376q-27 -177 -176 -203q59 -5 93 -58 t18 -157l-62 -377q-14 -94 13.5 -131.5t116.5 -24.5z" />
<glyph unicode="|" horiz-adv-x="495" d="M233 -205h-225l295 1864h225z" />
<glyph unicode="}" horiz-adv-x="673" d="M371 27q-25 -161 -130 -227t-288 -23l31 196q82 -18 123 17.5t55 132.5l65 405q14 92 64.5 141.5t124.5 55.5q-64 6 -101.5 63t-23.5 150l61 379q16 96 -11.5 132t-119.5 21l31 191q182 40 271 -38t65 -232l-68 -435q-7 -45 1 -75t29 -44.5t45 -20t56 -5.5l-30 -195 q-155 7 -181 -155z" />
<glyph unicode="~" horiz-adv-x="1226" d="M1126 813q-3 -139 -78.5 -213t-191.5 -74q-65 0 -149.5 28t-161.5 56t-125 27q-41 0 -67.5 -25t-26.5 -69h-195q4 141 80.5 213.5t187.5 72.5q69 0 152 -27t158.5 -54t128.5 -27q43 0 68.5 22.5t25.5 69.5h194z" />
<glyph unicode="&#xa1;" horiz-adv-x="485" d="M193 -449h-232l172 984h199zM418 862q-10 -58 -50 -87.5t-94 -29.5q-62 0 -97.5 38.5t-24.5 107.5q8 59 48.5 89t94.5 30q62 0 98 -39.5t25 -108.5z" />
<glyph unicode="&#xa2;" horiz-adv-x="1048" d="M993 924l-32 -193q-84 72 -211 82l-103 -641q123 14 248 78l-33 -209q-116 -52 -246 -64l-34 -223h-162l35 223q-93 13 -169 51.5t-131.5 102.5t-78 160.5t-4.5 214.5q15 96 54.5 176.5t92.5 136.5t120 96.5t136.5 62t142.5 28.5l35 223h162l-35 -225q118 -18 213 -80z M586 801q-113 -27 -193.5 -105.5t-101.5 -208.5q-21 -127 34 -205t162 -104z" />
<glyph unicode="&#xa3;" horiz-adv-x="1236" d="M1067 0h-1079l32 205h60q66 0 114.5 51t59.5 127l33 207h-168l28 192h170l25 160q21 127 74.5 222t130 149t163 80t183.5 26q172 0 313 -80l-28 -194q-119 82 -277 82q-127 0 -218.5 -74.5t-117.5 -230.5l-22 -140h426l-29 -192h-428l-35 -221q-11 -68 -34.5 -107.5 t-71.5 -60.5l729 4z" />
<glyph unicode="&#xa4;" horiz-adv-x="1177" d="M344 375l-154 -133l-112 131l145 127q-53 98 -33 231q22 129 101 217l-101 117l142 125l108 -127q99 51 219 51q118 0 213 -55l154 133l113 -129l-148 -129q51 -97 31 -232q-22 -128 -100 -217l102 -116l-141 -125l-111 127q-96 -52 -217 -52q-123 0 -211 56zM389 702 q-12 -90 35 -143t143 -53q104 0 174 62.5t82 162.5q15 90 -32.5 144.5t-143.5 54.5q-104 0 -174 -63.5t-84 -164.5z" />
<glyph unicode="&#xa5;" horiz-adv-x="1421" d="M1219 1393h260l-549 -705h246l-27 -168h-338l-18 -110h337l-26 -168h-338l-39 -242h-233l38 242h-337l26 168h338l19 110h-338l26 168h246l-326 705h246l287 -664z" />
<glyph unicode="&#xa6;" horiz-adv-x="524" d="M426 913h-225l116 746h226zM248 -205h-225l118 746h226z" />
<glyph unicode="&#xa7;" horiz-adv-x="1046" d="M860 205q-12 -76 -54.5 -131.5t-107 -85.5t-136.5 -44t-156 -14q-97 0 -193 26t-166 71l29 182q67 -46 157 -73t166 -27q107 0 170 24.5t74 87.5q2 15 -0.5 28t-11.5 24.5t-18.5 20.5t-29 19t-34 16.5t-41.5 16t-45 15.5t-51 16q-56 18 -94.5 32.5t-83.5 41.5t-70 57.5 t-38 77.5t-5 104q21 147 196 260q-122 77 -98 232q12 74 54.5 130t105 87t131 46t143.5 15q176 0 334 -88l-26 -180q-54 40 -135.5 65t-163.5 25q-54 0 -100.5 -11t-81 -38.5t-40.5 -67.5q-4 -28 7.5 -50t50 -41.5t62.5 -28.5t89 -30l9 -3l7.5 -2.5t8.5 -3t8 -2.5 q57 -18 94.5 -33t82.5 -41.5t69 -57t37 -76.5t4 -102q-22 -144 -195 -258q112 -79 86 -231zM492 555q16 -5 56.5 -15.5t59.5 -17.5q60 27 100 72.5t46 89.5q3 26 -4.5 47t-19 34t-38 27.5t-44.5 21.5t-54 20q-21 8 -61 18.5t-54 15.5q-62 -25 -102.5 -70.5t-46.5 -90.5 q-4 -26 3.5 -47t19.5 -35t38 -28t46 -22t55 -20z" />
<glyph unicode="&#xa8;" horiz-adv-x="659" d="M901 1696q-8 -48 -48.5 -82.5t-90.5 -34.5q-57 0 -92.5 43.5t-26.5 101.5q9 48 49 82.5t90 34.5q58 0 93 -43t26 -102zM475 1696q-8 -48 -48.5 -82.5t-90.5 -34.5q-57 0 -92.5 43.5t-26.5 101.5q9 48 49 82.5t90 34.5q58 0 93 -43t26 -102z" />
<glyph unicode="&#xa9;" horiz-adv-x="1738" d="M1665 702q-23 -142 -85.5 -262.5t-150.5 -205t-196 -144.5t-222 -88.5t-229 -28.5q-93 0 -183 21.5t-172 63.5t-147.5 105.5t-110 148t-60 189.5t3.5 230q23 142 85.5 262.5t150 205t196 144.5t223 88.5t229.5 28.5q112 0 218 -30t198 -93t156.5 -151t91.5 -213t4 -271z M1149 367q-135 -66 -289 -66q-58 0 -114.5 15t-107.5 48.5t-87.5 80.5t-52 117t-2.5 153q17 107 69 190.5t123.5 131.5t149.5 72t157 24q152 0 256 -74l-16 -144q-94 62 -211 62q-58 0 -111.5 -14.5t-103 -45t-84.5 -86t-47 -129.5q-11 -68 4 -117.5t50.5 -76t79.5 -39 t97 -12.5q127 0 258 67zM190 717q-19 -127 4 -236.5t78.5 -187t135.5 -133t174.5 -82.5t195.5 -27q106 0 210.5 25.5t204 79.5t180 131t137.5 188t77 242q19 127 -4 236t-78.5 187t-135.5 133t-175 82t-197 27q-105 0 -209.5 -25.5t-204 -79.5t-180 -130.5t-137.5 -187.5 t-76 -242z" />
<glyph unicode="&#xab;" horiz-adv-x="1071" d="M901 109h-223l-199 362l8 47l308 356h233l-334 -382zM479 109h-223l-199 362l9 47l307 356h233l-336 -382z" />
<glyph unicode="&#xac;" horiz-adv-x="1177" d="M1026 524h-201l41 264h-733l31 195h934z" />
<glyph unicode="&#xad;" horiz-adv-x="993" d="M125 602h745l-30 -196h-746z" />
<glyph unicode="&#xae;" horiz-adv-x="1738" d="M1665 702q-23 -142 -85.5 -262.5t-150.5 -205t-196 -144.5t-222 -88.5t-229 -28.5q-93 0 -183 21.5t-172 63.5t-147.5 105.5t-110 148t-60 189.5t3.5 230q23 142 85.5 262.5t150 205t196 144.5t223 88.5t229.5 28.5q112 0 218 -30t198 -93t156.5 -151t91.5 -213t4 -271z M190 717q-19 -127 4 -236.5t78.5 -187t135.5 -133t174.5 -82.5t195.5 -27q106 0 210.5 25.5t204 79.5t180 131t137.5 188t77 242q19 127 -4 236t-78.5 187t-135.5 133t-175 82t-197 27q-105 0 -209.5 -25.5t-204 -79.5t-180 -130.5t-137.5 -187.5t-76 -242zM680 319h-158 l127 805h352q44 0 86 -8.5t82.5 -29t69 -51t41 -79.5t2.5 -110q-27 -172 -209 -225l172 -302h-174l-156 285h-22h-170zM782 977l-37 -234h185q27 0 46 1.5t46.5 8.5t46.5 19.5t35 37t22 58.5q5 30 -3 51t-21.5 32t-37.5 17.5t-41.5 7.5t-43.5 1h-197z" />
<glyph unicode="&#xaf;" horiz-adv-x="737" d="M289 1780h639l-31 -185h-639z" />
<glyph unicode="&#xb0;" horiz-adv-x="825" d="M831 1122q-24 -148 -130.5 -230.5t-245.5 -82.5q-66 0 -124.5 23t-101.5 65.5t-62.5 108.5t-6.5 145q24 142 133 225.5t244 83.5q67 0 126 -23.5t101 -66t61 -107t6 -141.5zM317 1130q-9 -75 31 -120t115 -45q84 0 141.5 47.5t67.5 130.5q9 74 -30 118t-114 44 q-83 0 -141 -47t-70 -128z" />
<glyph unicode="&#xb1;" horiz-adv-x="1179" d="M799 1282l-58 -371h369l-31 -194h-368l-60 -369h-194l59 369h-371l31 194h371l57 371h195zM967 0h-934l30 195h934z" />
<glyph unicode="&#xb4;" horiz-adv-x="432" d="M473 1571h-233l233 303h264z" />
<glyph unicode="&#xb6;" horiz-adv-x="1396" d="M588 -451h-226l160 1012q-215 0 -321 120.5t-72 330.5q32 200 170 311t354 111h715l-299 -1885h-227l264 1670h-254z" />
<glyph unicode="&#xb7;" horiz-adv-x="509" d="M373 475q-10 -60 -50 -89.5t-96 -29.5q-62 0 -99 39t-26 109q8 59 49.5 89t96.5 30q64 0 100 -39t25 -109z" />
<glyph unicode="&#xb8;" horiz-adv-x="446" d="M82 0h166l-47 -111q95 -2 143.5 -50t36.5 -132q-13 -92 -95.5 -138t-197.5 -46q-116 0 -219 39l27 153q76 -39 172 -39q136 0 145 62q7 42 -57.5 56.5t-149.5 -1.5z" />
<glyph unicode="&#xbb;" horiz-adv-x="1073" d="M664 109h-232l334 383l-207 382h221l201 -362l-6 -47zM242 109h-232l334 383l-207 382h221l201 -362l-6 -47z" />
<glyph unicode="&#xbc;" horiz-adv-x="1923" d="M1585 836h174l-84 -527h135l-24 -147h-133l-25 -162h-162l25 162h-442l22 145zM1516 309l49 305l-297 -305h248zM416 -29h-84l1173 1489h86zM449 1393h122l-108 -684h147l-22 -152h-492l25 152h178l80 514l-182 -66l26 158z" />
<glyph unicode="&#xbd;" horiz-adv-x="1841" d="M406 -29h-84l1173 1489h86zM1208 770q131 82 287 82q80 0 145 -28t101.5 -88t21.5 -140q-16 -88 -83.5 -153t-182.5 -126q-54 -29 -81 -44t-61.5 -38t-51.5 -43t-21 -40h414l-25 -152h-614l12 84q5 37 15.5 69.5t28 60.5t33 49.5t43.5 44.5t45 36.5t52 34t51 29t54 28.5 q98 49 147.5 90t58.5 90q8 43 -24.5 63.5t-89.5 20.5q-149 0 -301 -100zM438 1393h123l-108 -684h147l-22 -152h-492l25 152h178l80 514l-183 -66l27 158z" />
<glyph unicode="&#xbe;" horiz-adv-x="2031" d="M539 -29h-84l1173 1489h86zM1694 836h174l-84 -527h135l-25 -147h-133l-24 -162h-162l24 162h-442l23 145zM1624 309l49 305l-297 -305h248zM766 1176q-18 -123 -148 -172q59 -20 96 -75.5t23 -144.5q-18 -118 -115.5 -175.5t-238.5 -57.5q-166 0 -287 59l27 158 q108 -63 250 -63q193 0 211 116q9 55 -26.5 78t-106.5 23h-144l25 151h110q70 0 113.5 26.5t52.5 78.5q7 44 -31.5 66t-105.5 22q-137 0 -268 -70l24 164q124 59 267 59q126 0 208 -67.5t64 -175.5z" />
<glyph unicode="&#xbf;" horiz-adv-x="1003" d="M782 -375q-199 -102 -401 -102q-76 0 -144 13.5t-125.5 43t-97.5 71.5t-57 103.5t-6 134.5q13 78 63.5 154.5t115 138.5t128 120t111.5 119t57 116h211q-10 -64 -46 -127.5t-82.5 -113t-100 -102.5t-99 -97.5t-79.5 -96.5t-42 -100q-13 -90 50 -127t192 -37 q198 0 389 114zM719 862q-10 -60 -51 -89.5t-97 -29.5q-62 0 -98 39t-24 107q9 61 48.5 91t96.5 30q62 0 99 -39.5t26 -108.5z" />
<glyph unicode="&#xc0;" horiz-adv-x="1490" d="M1384 0h-239l-78 309h-721l-176 -309h-254l834 1434h258zM809 1120l-348 -606h557l-154 608q-8 31 -14 88q-17 -49 -41 -90zM1053 1571h-224l-170 303h256z" />
<glyph unicode="&#xc1;" horiz-adv-x="1490" d="M1384 0h-239l-78 309h-721l-176 -309h-254l834 1434h258zM809 1120l-348 -606h557l-154 608q-8 31 -14 88q-17 -49 -41 -90zM989 1571h-233l233 303h264z" />
<glyph unicode="&#xc2;" horiz-adv-x="1490" d="M1384 0h-239l-78 309h-721l-176 -309h-254l834 1434h258zM809 1120l-348 -606h557l-154 608q-8 31 -14 88q-17 -49 -41 -90zM846 1874h194l215 -307h-215l-110 155l-162 -155h-233z" />
<glyph unicode="&#xc3;" horiz-adv-x="1490" d="M1384 0h-239l-78 309h-721l-176 -309h-254l834 1434h258zM809 1120l-348 -606h557l-154 608q-8 31 -14 88q-17 -49 -41 -90zM1270 1802q4 -118 -56 -184t-149 -66q-54 0 -112 21.5t-105.5 43t-75.5 21.5q-34 0 -51.5 -22t-15.5 -51h-170q-3 118 56.5 184t147.5 66 q54 0 112 -21.5t105.5 -43t75.5 -21.5q37 0 54 21.5t14 51.5h170z" />
<glyph unicode="&#xc4;" horiz-adv-x="1490" d="M1384 0h-239l-78 309h-721l-176 -309h-254l834 1434h258zM809 1120l-348 -606h557l-154 608q-8 31 -14 88q-17 -49 -41 -90zM1257 1696q-8 -48 -48.5 -82.5t-90.5 -34.5q-57 0 -92.5 43.5t-26.5 101.5q9 48 49.5 82.5t90.5 34.5q58 0 92.5 -43t25.5 -102zM831 1696 q-8 -48 -48.5 -82.5t-90.5 -34.5q-57 0 -92.5 43.5t-26.5 101.5q9 48 49.5 82.5t90.5 34.5q58 0 92.5 -43t25.5 -102z" />
<glyph unicode="&#xc5;" horiz-adv-x="1490" d="M1384 0h-239l-78 309h-721l-176 -309h-254l834 1434h258zM809 1120l-348 -606h557l-154 608q-8 31 -14 88q-17 -49 -41 -90zM1178 1739q-18 -103 -95.5 -163t-175.5 -60q-100 0 -167.5 69t-49.5 180q17 99 95 159.5t176 60.5q47 0 90 -17.5t74 -49t46 -78.5t7 -101z M831 1751q-7 -44 17.5 -73t64.5 -29q44 0 79 25.5t42 72.5q7 44 -17.5 73t-64.5 29q-44 0 -79 -25.5t-42 -72.5z" />
<glyph unicode="&#xc6;" horiz-adv-x="2082" d="M2107 1434l-32 -213h-695l-63 -392h635l-35 -213h-633l-65 -403h708l-33 -213h-944l51 315h-585l-262 -315h-263l1194 1434h1022zM575 514h455l109 680z" />
<glyph unicode="&#xc7;" horiz-adv-x="1325" d="M1325 1143q-123 102 -330 102q-106 0 -210.5 -32t-197.5 -93t-159.5 -163t-87.5 -230q-17 -109 2 -200t64.5 -152.5t111.5 -104.5t140 -62.5t153 -19.5q218 0 391 111l-39 -242q-148 -74 -362 -84l-37 -84q95 -2 143.5 -50t36.5 -132q-13 -92 -95.5 -138t-197.5 -46 q-116 0 -219 39l27 153q76 -39 172 -39q136 0 145 62q7 42 -57.5 56.5t-149.5 -1.5l70 191q-97 15 -184 54t-162 103.5t-123 153.5t-68 203.5t4 253.5q22 136 85 253t150.5 199.5t193.5 141t216.5 86.5t217.5 28q228 0 391 -100z" />
<glyph unicode="&#xc8;" d="M307 1434h987l-34 -213h-754l-62 -392h693l-33 -213h-692l-64 -403h764l-33 -213h-999zM975 1571h-223l-170 303h256z" />
<glyph unicode="&#xc9;" d="M307 1434h987l-34 -213h-754l-62 -392h693l-33 -213h-692l-64 -403h764l-33 -213h-999zM911 1571h-233l233 303h265z" />
<glyph unicode="&#xca;" d="M307 1434h987l-34 -213h-754l-62 -392h693l-33 -213h-692l-64 -403h764l-33 -213h-999zM768 1874h195l215 -307h-215l-111 155l-162 -155h-233z" />
<glyph unicode="&#xcb;" d="M307 1434h987l-34 -213h-754l-62 -392h693l-33 -213h-692l-64 -403h764l-33 -213h-999zM1180 1696q-8 -48 -48.5 -82.5t-91.5 -34.5q-57 0 -92 43t-26 102q9 48 49 82.5t90 34.5q58 0 93 -43t26 -102zM754 1696q-8 -48 -48.5 -82.5t-91.5 -34.5q-57 0 -92 43t-26 102 q9 48 49 82.5t90 34.5q58 0 93 -43t26 -102z" />
<glyph unicode="&#xcc;" horiz-adv-x="581" d="M307 1434h234l-228 -1434h-233zM598 1571h-223l-170 303h256z" />
<glyph unicode="&#xcd;" horiz-adv-x="581" d="M307 1434h234l-228 -1434h-233zM535 1571h-234l234 303h264z" />
<glyph unicode="&#xce;" horiz-adv-x="581" d="M307 1434h234l-228 -1434h-233zM391 1874h195l215 -307h-215l-111 155l-162 -155h-233z" />
<glyph unicode="&#xcf;" horiz-adv-x="581" d="M307 1434h234l-228 -1434h-233zM803 1696q-8 -48 -48.5 -82.5t-90.5 -34.5q-57 0 -92.5 43.5t-26.5 101.5q9 48 49 82.5t90 34.5q58 0 93 -43t26 -102zM377 1696q-8 -48 -48.5 -82.5t-90.5 -34.5q-57 0 -92.5 43.5t-26.5 101.5q9 48 49 82.5t90 34.5q58 0 93 -43t26 -102 z" />
<glyph unicode="&#xd0;" horiz-adv-x="1527" d="M319 1434h496q179 0 315 -55t215.5 -153t109.5 -231.5t5 -292.5q-25 -156 -89.5 -282.5t-168.5 -221t-256.5 -146.5t-341.5 -52h-512l96 621h-157l30 188h158zM621 213q252 0 408 135.5t194 382.5q39 238 -70.5 364t-361.5 126h-273l-65 -412h381l-31 -188h-381l-64 -408 h263z" />
<glyph unicode="&#xd1;" horiz-adv-x="1570" d="M313 0h-233l227 1434h197l631 -1057q10 102 20 170l141 887h234l-227 -1434h-197l-631 1057q-6 -88 -18 -164zM1305 1802q4 -118 -56 -184t-149 -66q-54 0 -112 21.5t-105.5 43t-75.5 21.5q-34 0 -52 -22t-16 -51h-170q-3 117 57 183.5t148 66.5q54 0 112 -21.5 t105.5 -43t75.5 -21.5q37 0 54 21.5t14 51.5h170z" />
<glyph unicode="&#xd2;" horiz-adv-x="1673" d="M1610 702q-19 -114 -63.5 -219t-119 -198.5t-171.5 -162.5t-228 -109t-280 -40q-173 0 -309 64t-215.5 170t-112 242t-9.5 282q18 113 64 219t122 199t174 162t227 109t274 40q115 0 215 -29.5t174.5 -81t132.5 -123t88.5 -156t42.5 -178t-6 -190.5zM338 713 q-13 -63 -6.5 -126.5t23 -121t53 -107.5t84.5 -86.5t117.5 -57.5t152.5 -21q128 0 237 42.5t185 115.5t124.5 167.5t65.5 202.5q16 98 -2 189t-67 166t-141.5 120t-215.5 45q-128 0 -236.5 -42.5t-184 -115.5t-124 -167.5t-65.5 -202.5zM1137 1571h-224l-170 303h256z" />
<glyph unicode="&#xd3;" horiz-adv-x="1673" d="M1610 702q-19 -114 -63.5 -219t-119 -198.5t-171.5 -162.5t-228 -109t-280 -40q-173 0 -309 64t-215.5 170t-112 242t-9.5 282q18 113 64 219t122 199t174 162t227 109t274 40q115 0 215 -29.5t174.5 -81t132.5 -123t88.5 -156t42.5 -178t-6 -190.5zM338 713 q-13 -63 -6.5 -126.5t23 -121t53 -107.5t84.5 -86.5t117.5 -57.5t152.5 -21q128 0 237 42.5t185 115.5t124.5 167.5t65.5 202.5q16 98 -2 189t-67 166t-141.5 120t-215.5 45q-128 0 -236.5 -42.5t-184 -115.5t-124 -167.5t-65.5 -202.5zM1073 1571h-233l233 303h264z" />
<glyph unicode="&#xd4;" horiz-adv-x="1673" d="M1610 702q-19 -114 -63.5 -219t-119 -198.5t-171.5 -162.5t-228 -109t-280 -40q-173 0 -309 64t-215.5 170t-112 242t-9.5 282q18 113 64 219t122 199t174 162t227 109t274 40q115 0 215 -29.5t174.5 -81t132.5 -123t88.5 -156t42.5 -178t-6 -190.5zM338 713 q-13 -63 -6.5 -126.5t23 -121t53 -107.5t84.5 -86.5t117.5 -57.5t152.5 -21q128 0 237 42.5t185 115.5t124.5 167.5t65.5 202.5q16 98 -2 189t-67 166t-141.5 120t-215.5 45q-128 0 -236.5 -42.5t-184 -115.5t-124 -167.5t-65.5 -202.5zM930 1874h194l215 -307h-215 l-110 155l-162 -155h-234z" />
<glyph unicode="&#xd5;" horiz-adv-x="1673" d="M1610 702q-19 -114 -63.5 -219t-119 -198.5t-171.5 -162.5t-228 -109t-280 -40q-173 0 -309 64t-215.5 170t-112 242t-9.5 282q18 113 64 219t122 199t174 162t227 109t274 40q115 0 215 -29.5t174.5 -81t132.5 -123t88.5 -156t42.5 -178t-6 -190.5zM338 713 q-13 -63 -6.5 -126.5t23 -121t53 -107.5t84.5 -86.5t117.5 -57.5t152.5 -21q128 0 237 42.5t185 115.5t124.5 167.5t65.5 202.5q16 98 -2 189t-67 166t-141.5 120t-215.5 45q-128 0 -236.5 -42.5t-184 -115.5t-124 -167.5t-65.5 -202.5zM1354 1802q4 -118 -56 -184t-149 -66 q-54 0 -112 21.5t-105.5 43t-75.5 21.5q-34 0 -52 -22t-16 -51h-170q-3 117 57 183.5t148 66.5q54 0 112 -21.5t105.5 -43t75.5 -21.5q37 0 54 21.5t14 51.5h170z" />
<glyph unicode="&#xd6;" horiz-adv-x="1673" d="M1610 702q-19 -114 -63.5 -219t-119 -198.5t-171.5 -162.5t-228 -109t-280 -40q-173 0 -309 64t-215.5 170t-112 242t-9.5 282q18 113 64 219t122 199t174 162t227 109t274 40q115 0 215 -29.5t174.5 -81t132.5 -123t88.5 -156t42.5 -178t-6 -190.5zM338 713 q-13 -63 -6.5 -126.5t23 -121t53 -107.5t84.5 -86.5t117.5 -57.5t152.5 -21q128 0 237 42.5t185 115.5t124.5 167.5t65.5 202.5q16 98 -2 189t-67 166t-141.5 120t-215.5 45q-128 0 -236.5 -42.5t-184 -115.5t-124 -167.5t-65.5 -202.5zM1341 1696q-8 -48 -48.5 -82.5 t-90.5 -34.5q-57 0 -92.5 43.5t-26.5 101.5q9 48 49.5 82.5t90.5 34.5q58 0 92.5 -43t25.5 -102zM915 1696q-8 -48 -48.5 -82.5t-90.5 -34.5q-57 0 -92.5 43.5t-26.5 101.5q9 48 49.5 82.5t90.5 34.5q58 0 92.5 -43t25.5 -102z" />
<glyph unicode="&#xd7;" horiz-adv-x="1011" d="M510 590l-301 -260l-113 131l301 258l-219 260l148 129l217 -258l299 258l112 -129l-299 -260l219 -258l-147 -131z" />
<glyph unicode="&#xd8;" horiz-adv-x="1673" d="M231 -98h-188l225 256q-105 107 -148.5 258.5t-17.5 314.5q18 113 64 219t122 199t174 162t227 109t274 40q209 0 368 -96l150 168h188l-227 -256q105 -108 149 -259t19 -315q-19 -114 -63.5 -219t-119 -198.5t-171.5 -162.5t-227 -109t-279 -40q-207 0 -371 97zM338 713 q-18 -104 4.5 -204t83.5 -173l752 852q-98 53 -230 53q-128 0 -236.5 -42.5t-184 -115.5t-124 -167.5t-65.5 -202.5zM532 246q98 -53 230 -53q128 0 237 42.5t184.5 115.5t124 167.5t64.5 202.5q18 104 -4 204t-82 173z" />
<glyph unicode="&#xd9;" horiz-adv-x="1542" d="M1282 1434h234l-144 -910q-20 -122 -67 -217.5t-110.5 -157.5t-146.5 -102t-170 -57t-186 -17t-186 18.5t-162.5 61.5t-125.5 107t-70 161t-1 218l144 895h233l-141 -897q-16 -96 -0.5 -164.5t60 -107.5t106.5 -57t147 -18q388 0 447 361zM1057 1571h-223l-170 303h256z " />
<glyph unicode="&#xda;" horiz-adv-x="1542" d="M1282 1434h234l-144 -910q-20 -122 -67 -217.5t-110.5 -157.5t-146.5 -102t-170 -57t-186 -17t-186 18.5t-162.5 61.5t-125.5 107t-70 161t-1 218l144 895h233l-141 -897q-16 -96 -0.5 -164.5t60 -107.5t106.5 -57t147 -18q388 0 447 361zM993 1571h-233l233 303h264z " />
<glyph unicode="&#xdb;" horiz-adv-x="1542" d="M1282 1434h234l-144 -910q-20 -122 -67 -217.5t-110.5 -157.5t-146.5 -102t-170 -57t-186 -17t-186 18.5t-162.5 61.5t-125.5 107t-70 161t-1 218l144 895h233l-141 -897q-16 -96 -0.5 -164.5t60 -107.5t106.5 -57t147 -18q388 0 447 361zM850 1874h194l216 -307h-216 l-110 155l-162 -155h-233z" />
<glyph unicode="&#xdc;" horiz-adv-x="1542" d="M1282 1434h234l-144 -910q-20 -122 -67 -217.5t-110.5 -157.5t-146.5 -102t-170 -57t-186 -17t-186 18.5t-162.5 61.5t-125.5 107t-70 161t-1 218l144 895h233l-141 -897q-16 -96 -0.5 -164.5t60 -107.5t106.5 -57t147 -18q388 0 447 361zM1262 1696q-8 -48 -48.5 -82.5 t-91.5 -34.5q-57 0 -92 43t-26 102q9 48 49 82.5t90 34.5q58 0 93 -43t26 -102zM836 1696q-8 -48 -48.5 -82.5t-91.5 -34.5q-57 0 -92 43t-26 102q9 48 49 82.5t90 34.5q58 0 93 -43t26 -102z" />
<glyph unicode="&#xdd;" horiz-adv-x="1384" d="M713 0h-234l86 526l-418 908h250l310 -689l528 689h270l-706 -908zM918 1571h-234l234 303h264z" />
<glyph unicode="&#xde;" horiz-adv-x="1353" d="M502 1188h280q96 0 179 -14.5t158 -50t124 -89.5t71 -139t5 -193q-17 -104 -60 -184t-104.5 -131t-145 -83t-173.5 -45t-199 -13h-283l-41 -246h-233l227 1434h234zM387 459h285q83 0 148 12.5t121.5 41.5t92.5 83t49 131q10 59 -3 103.5t-41 71.5t-71.5 44t-89.5 23 t-102 6h-307z" />
<glyph unicode="&#xdf;" horiz-adv-x="1210" d="M1104 276q-13 -77 -56 -137t-104.5 -95t-132.5 -53t-147 -18q-137 0 -254 52l28 176q83 -47 187 -47q101 0 175 42.5t87 125.5q7 45 -16.5 92.5t-61 89l-75 83t-61 89t-16.5 92.5q8 46 38 93t63 81.5t64 85t40 102.5q12 69 -33 109.5t-133 40.5q-107 0 -179 -61t-89 -168 l-168 -1051h-219l162 1018q34 214 161.5 327t335.5 115q84 1 152.5 -18.5t112.5 -52t72.5 -75t37.5 -87t2 -88.5q-10 -57 -43.5 -113.5t-68 -93t-65.5 -80.5t-36 -80q-6 -34 20 -73.5t66.5 -80t80 -87.5t62 -114t11.5 -141z" />
<glyph unicode="&#xe0;" d="M870 158q-160 -185 -397 -185q-145 0 -248 73t-145.5 194.5t-20.5 265.5q17 103 65.5 195t120 160.5t168 108.5t203.5 40q129 0 218 -54.5t141 -138.5l24 166h197l-156 -983h-196zM276 489q-22 -140 48.5 -231.5t199.5 -91.5q112 0 206.5 61t148.5 150l39 239 q-22 85 -94 143t-177 58q-138 0 -242.5 -90.5t-128.5 -237.5zM848 1126h-223l-170 304h256z" />
<glyph unicode="&#xe1;" d="M870 158q-160 -185 -397 -185q-145 0 -248 73t-145.5 194.5t-20.5 265.5q17 103 65.5 195t120 160.5t168 108.5t203.5 40q129 0 218 -54.5t141 -138.5l24 166h197l-156 -983h-196zM276 489q-22 -140 48.5 -231.5t199.5 -91.5q112 0 206.5 61t148.5 150l39 239 q-22 85 -94 143t-177 58q-138 0 -242.5 -90.5t-128.5 -237.5zM784 1126h-233l233 304h265z" />
<glyph unicode="&#xe2;" d="M870 158q-160 -185 -397 -185q-145 0 -248 73t-145.5 194.5t-20.5 265.5q17 103 65.5 195t120 160.5t168 108.5t203.5 40q129 0 218 -54.5t141 -138.5l24 166h197l-156 -983h-196zM276 489q-22 -140 48.5 -231.5t199.5 -91.5q112 0 206.5 61t148.5 150l39 239 q-22 85 -94 143t-177 58q-138 0 -242.5 -90.5t-128.5 -237.5zM641 1430h195l215 -308h-215l-111 156l-162 -156h-233z" />
<glyph unicode="&#xe3;" d="M870 158q-160 -185 -397 -185q-145 0 -248 73t-145.5 194.5t-20.5 265.5q17 103 65.5 195t120 160.5t168 108.5t203.5 40q129 0 218 -54.5t141 -138.5l24 166h197l-156 -983h-196zM276 489q-22 -140 48.5 -231.5t199.5 -91.5q112 0 206.5 61t148.5 150l39 239 q-22 85 -94 143t-177 58q-138 0 -242.5 -90.5t-128.5 -237.5zM1065 1358q4 -118 -56 -184t-149 -66q-54 0 -112 21.5t-105.5 43t-75.5 21.5q-34 0 -51.5 -22.5t-15.5 -51.5h-170q-3 117 57 183.5t148 66.5q54 0 112 -21.5t105 -43t75 -21.5q37 0 54 21.5t14 52.5h170z" />
<glyph unicode="&#xe4;" d="M870 158q-160 -185 -397 -185q-145 0 -248 73t-145.5 194.5t-20.5 265.5q17 103 65.5 195t120 160.5t168 108.5t203.5 40q129 0 218 -54.5t141 -138.5l24 166h197l-156 -983h-196zM276 489q-22 -140 48.5 -231.5t199.5 -91.5q112 0 206.5 61t148.5 150l39 239 q-22 85 -94 143t-177 58q-138 0 -242.5 -90.5t-128.5 -237.5zM1053 1251q-8 -48 -48.5 -82t-91.5 -34q-57 0 -92 43t-26 102q9 48 49 82.5t90 34.5q58 0 93 -43.5t26 -102.5zM627 1251q-8 -48 -48.5 -82t-91.5 -34q-57 0 -92 43t-26 102q9 48 49 82.5t90 34.5q58 0 93 -43.5 t26 -102.5z" />
<glyph unicode="&#xe5;" d="M870 158q-160 -185 -397 -185q-145 0 -248 73t-145.5 194.5t-20.5 265.5q17 103 65.5 195t120 160.5t168 108.5t203.5 40q129 0 218 -54.5t141 -138.5l24 166h197l-156 -983h-196zM276 489q-22 -140 48.5 -231.5t199.5 -91.5q112 0 206.5 61t148.5 150l39 239 q-22 85 -94 143t-177 58q-138 0 -242.5 -90.5t-128.5 -237.5zM973 1294q-18 -103 -95.5 -163t-175.5 -60q-100 0 -167.5 69.5t-49.5 180.5q17 99 95 159t176 60q47 0 90 -17.5t74 -49t46 -78.5t7 -101zM627 1307q-7 -44 17.5 -73.5t64.5 -29.5q44 0 78.5 26t41.5 73 q7 44 -17 73t-64 29q-44 0 -79 -25.5t-42 -72.5z" />
<glyph unicode="&#xe6;" horiz-adv-x="1984" d="M870 158q-160 -185 -397 -185q-145 0 -248 73t-145.5 194.5t-20.5 265.5q17 103 65.5 195t120 160.5t168 108.5t203.5 40q129 0 218 -54.5t141 -138.5l24 166h191l-27 -160q69 93 167.5 140t205.5 47q89 0 159.5 -25t115.5 -68t72 -101t33.5 -125.5t-3.5 -140t-37 -144.5 h-750q0 -64 28.5 -113t77 -77t106.5 -42t124 -14q182 0 324 76l-31 -195q-142 -68 -323 -68q-119 0 -221 52.5t-150 148.5l-27 -174h-190zM274 489q-22 -140 48.5 -231.5t199.5 -91.5q112 0 206.5 61t148.5 150l38 239q-22 85 -93.5 143t-176.5 58q-138 0 -242.5 -90.5 t-128.5 -237.5zM1491 827q-122 0 -215 -70t-119 -188h547q6 30 8.5 64t-11 68.5t-36.5 62.5t-68.5 45.5t-105.5 17.5z" />
<glyph unicode="&#xe7;" horiz-adv-x="1011" d="M948 731q-97 84 -254 84q-71 0 -136 -18.5t-123.5 -56t-100 -102.5t-55.5 -151q-23 -157 63 -238t236 -81q141 0 305 82l-33 -209q-123 -57 -272 -66l-35 -86q95 -2 143.5 -50t36.5 -132q-10 -63 -54 -105.5t-104.5 -60.5t-134.5 -18q-116 0 -219 39l25 153 q76 -39 172 -39q64 0 103.5 16t43.5 46q7 42 -57.5 56.5t-149.5 -1.5l70 191q-87 15 -159 54.5t-123.5 103t-72 157t-2.5 207.5q16 106 61 192.5t106 143t137.5 95.5t153.5 56t155 17q174 0 307 -86z" />
<glyph unicode="&#xe8;" horiz-adv-x="1116" d="M59 504q15 100 57 185t99 143t127 99t142 60t143 19q112 0 197.5 -35.5t134 -95.5t71.5 -137.5t16.5 -163.5t-38.5 -172h-742q-1 -65 27.5 -114t76.5 -77t105 -41.5t121 -13.5q192 0 338 76l-33 -197q-145 -66 -352 -66q-84 0 -162 21t-145 65.5t-113 106t-65.5 149 t-4.5 189.5zM838 569q6 30 8.5 64t-11 68.5t-36.5 62.5t-68.5 45.5t-105.5 17.5q-119 0 -213.5 -70.5t-120.5 -187.5h547zM797 1120h-224l-170 303h256z" />
<glyph unicode="&#xe9;" horiz-adv-x="1116" d="M59 504q15 100 57 185t99 143t127 99t142 60t143 19q112 0 197.5 -35.5t134 -95.5t71.5 -137.5t16.5 -163.5t-38.5 -172h-742q-1 -65 27.5 -114t76.5 -77t105 -41.5t121 -13.5q192 0 338 76l-33 -197q-145 -66 -352 -66q-84 0 -162 21t-145 65.5t-113 106t-65.5 149 t-4.5 189.5zM838 569q6 30 8.5 64t-11 68.5t-36.5 62.5t-68.5 45.5t-105.5 17.5q-119 0 -213.5 -70.5t-120.5 -187.5h547zM733 1120h-233l233 303h264z" />
<glyph unicode="&#xea;" horiz-adv-x="1116" d="M59 504q15 100 57 185t99 143t127 99t142 60t143 19q112 0 197.5 -35.5t134 -95.5t71.5 -137.5t16.5 -163.5t-38.5 -172h-742q-1 -65 27.5 -114t76.5 -77t105 -41.5t121 -13.5q192 0 338 76l-33 -197q-145 -66 -352 -66q-84 0 -162 21t-145 65.5t-113 106t-65.5 149 t-4.5 189.5zM838 569q6 30 8.5 64t-11 68.5t-36.5 62.5t-68.5 45.5t-105.5 17.5q-119 0 -213.5 -70.5t-120.5 -187.5h547zM590 1423h194l215 -307h-215l-110 156l-162 -156h-233z" />
<glyph unicode="&#xeb;" horiz-adv-x="1116" d="M59 504q15 100 57 185t99 143t127 99t142 60t143 19q112 0 197.5 -35.5t134 -95.5t71.5 -137.5t16.5 -163.5t-38.5 -172h-742q-1 -65 27.5 -114t76.5 -77t105 -41.5t121 -13.5q192 0 338 76l-33 -197q-145 -66 -352 -66q-84 0 -162 21t-145 65.5t-113 106t-65.5 149 t-4.5 189.5zM838 569q6 30 8.5 64t-11 68.5t-36.5 62.5t-68.5 45.5t-105.5 17.5q-119 0 -213.5 -70.5t-120.5 -187.5h547zM1001 1245q-8 -48 -48.5 -82.5t-90.5 -34.5q-57 0 -92.5 43.5t-26.5 102.5q9 48 49.5 82.5t90.5 34.5q58 0 92.5 -43.5t25.5 -102.5zM575 1245 q-8 -48 -48.5 -82.5t-90.5 -34.5q-57 0 -92.5 43.5t-26.5 102.5q9 48 49.5 82.5t90.5 34.5q58 0 92.5 -43.5t25.5 -102.5z" />
<glyph unicode="&#xec;" horiz-adv-x="501" d="M463 1120h-217l-115 303h256zM266 0h-219l156 983h219z" />
<glyph unicode="&#xed;" horiz-adv-x="501" d="M266 0h-219l156 983h219zM424 1120h-234l234 303h264z" />
<glyph unicode="&#xee;" horiz-adv-x="501" d="M266 0h-219l156 983h219zM236 1116h-228l271 307h194l174 -307h-215l-74 156z" />
<glyph unicode="&#xef;" horiz-adv-x="501" d="M266 0h-219l156 983h219zM291 1247q-6 -44 -44 -76t-85 -32q-53 0 -85.5 40t-23.5 95q8 43 45 74.5t84 31.5q54 0 86 -39.5t23 -93.5zM645 1247q-6 -44 -44 -76t-85 -32q-53 0 -85 40t-23 95q9 44 46 75t83 31q54 0 85.5 -39.5t22.5 -93.5z" />
<glyph unicode="&#xf0;" horiz-adv-x="1202" d="M1106 547q-23 -145 -78.5 -256.5t-135.5 -180t-176.5 -103t-207.5 -34.5q-109 0 -199.5 35t-152 97.5t-89 155t-10.5 202.5q30 196 176.5 318t331.5 122q127 0 226 -53.5t137 -142.5q4 25 4 69q-6 141 -67 242.5t-163 159.5l-208 -183l-97 111l154 131q-92 23 -232 23 l19 184q201 0 367 -68l196 168l96 -110l-153 -131q159 -104 233 -292.5t29 -463.5zM276 442q-19 -126 48 -200t200 -74q131 0 215.5 71.5t118.5 194.5q17 126 -52.5 205.5t-199.5 79.5q-128 0 -219 -76.5t-111 -200.5z" />
<glyph unicode="&#xf1;" horiz-adv-x="1202" d="M369 842q78 76 175.5 122t200.5 46q179 0 270.5 -116t63.5 -292l-96 -602h-219l92 586q19 116 -31 172.5t-151 56.5q-85 0 -169.5 -50t-144.5 -120l-100 -645h-219l156 983h194zM1067 1352q4 -118 -56 -184t-149 -66q-54 0 -112 21.5t-105.5 43t-75.5 21.5 q-34 0 -51.5 -22.5t-15.5 -51.5h-170q-3 117 57 183.5t148 66.5q54 0 112 -21.5t105 -43t75 -21.5q37 0 54 21.5t14 52.5h170z" />
<glyph unicode="&#xf2;" horiz-adv-x="1210" d="M1118 475q-18 -121 -78 -218.5t-144 -158.5t-182 -93t-200 -32q-103 0 -193.5 35.5t-156.5 101.5t-95.5 169.5t-9.5 228.5q19 121 78.5 218.5t143 158.5t182 93t201.5 32q102 0 192 -35.5t156.5 -101.5t96.5 -169.5t9 -228.5zM276 483q-22 -138 49 -223.5t207 -85.5 q141 0 243.5 89t127.5 237q22 139 -48.5 224t-207.5 85q-140 0 -243.5 -89t-127.5 -237zM827 1114h-223l-170 303h256z" />
<glyph unicode="&#xf3;" horiz-adv-x="1210" d="M1118 475q-18 -121 -78 -218.5t-144 -158.5t-182 -93t-200 -32q-103 0 -193.5 35.5t-156.5 101.5t-95.5 169.5t-9.5 228.5q19 121 78.5 218.5t143 158.5t182 93t201.5 32q102 0 192 -35.5t156.5 -101.5t96.5 -169.5t9 -228.5zM276 483q-22 -138 49 -223.5t207 -85.5 q141 0 243.5 89t127.5 237q22 139 -48.5 224t-207.5 85q-140 0 -243.5 -89t-127.5 -237zM764 1114h-234l234 303h264z" />
<glyph unicode="&#xf4;" horiz-adv-x="1210" d="M1118 475q-18 -121 -78 -218.5t-144 -158.5t-182 -93t-200 -32q-103 0 -193.5 35.5t-156.5 101.5t-95.5 169.5t-9.5 228.5q19 121 78.5 218.5t143 158.5t182 93t201.5 32q102 0 192 -35.5t156.5 -101.5t96.5 -169.5t9 -228.5zM276 483q-22 -138 49 -223.5t207 -85.5 q141 0 243.5 89t127.5 237q22 139 -48.5 224t-207.5 85q-140 0 -243.5 -89t-127.5 -237zM621 1417h194l215 -307h-215l-110 156l-162 -156h-234z" />
<glyph unicode="&#xf5;" horiz-adv-x="1210" d="M1118 475q-18 -121 -78 -218.5t-144 -158.5t-182 -93t-200 -32q-103 0 -193.5 35.5t-156.5 101.5t-95.5 169.5t-9.5 228.5q19 121 78.5 218.5t143 158.5t182 93t201.5 32q102 0 192 -35.5t156.5 -101.5t96.5 -169.5t9 -228.5zM276 483q-22 -138 49 -223.5t207 -85.5 q141 0 243.5 89t127.5 237q22 139 -48.5 224t-207.5 85q-140 0 -243.5 -89t-127.5 -237zM1044 1346q4 -118 -55.5 -184t-148.5 -66q-54 0 -112 21.5t-105.5 43t-75.5 21.5q-34 0 -52 -22.5t-16 -51.5h-170q-3 117 57 183.5t148 66.5q54 0 112 -21.5t105.5 -43t75.5 -21.5 q37 0 53.5 21.5t13.5 52.5h170z" />
<glyph unicode="&#xf6;" horiz-adv-x="1210" d="M1118 475q-18 -121 -78 -218.5t-144 -158.5t-182 -93t-200 -32q-103 0 -193.5 35.5t-156.5 101.5t-95.5 169.5t-9.5 228.5q19 121 78.5 218.5t143 158.5t182 93t201.5 32q102 0 192 -35.5t156.5 -101.5t96.5 -169.5t9 -228.5zM276 483q-22 -138 49 -223.5t207 -85.5 q141 0 243.5 89t127.5 237q22 139 -48.5 224t-207.5 85q-140 0 -243.5 -89t-127.5 -237zM1032 1239q-8 -48 -48.5 -82.5t-90.5 -34.5q-57 0 -92.5 43.5t-26.5 102.5q9 48 49 82t90 34q58 0 93 -43t26 -102zM606 1239q-8 -48 -48.5 -82.5t-90.5 -34.5q-57 0 -92.5 43.5 t-26.5 102.5q9 48 49 82t90 34q58 0 93 -43t26 -102z" />
<glyph unicode="&#xf7;" horiz-adv-x="1196" d="M1094 618h-983l30 197h983zM682 246q-10 -61 -49.5 -91t-95.5 -30q-64 0 -100 38.5t-25 108.5q8 59 49 89t96 30q63 0 99 -38t26 -107zM825 1161q-9 -61 -48 -91t-97 -30q-62 0 -98 39t-25 109q8 59 49 89t96 30q63 0 99 -38.5t24 -107.5z" />
<glyph unicode="&#xf8;" horiz-adv-x="1210" d="M1161 1112l-174 -215q81 -71 117.5 -178t15.5 -244q-19 -121 -79 -218.5t-144.5 -158.5t-182.5 -93t-200 -32q-126 0 -235 56l-121 -154h-140l172 213q-81 69 -117 176.5t-14 243.5q19 121 78.5 218.5t143 158.5t182 93t201.5 32q125 0 233 -54l125 156h139zM647 809 q-141 0 -244.5 -89t-126.5 -237q-24 -140 52 -225l434 530q-61 21 -115 21zM532 174q141 0 243.5 89t127.5 237q24 144 -53 227l-434 -532q61 -21 116 -21z" />
<glyph unicode="&#xf9;" horiz-adv-x="1200" d="M905 983h219l-155 -983h-193l23 141q-66 -75 -161.5 -121.5t-199.5 -46.5q-185 0 -281.5 116.5t-68.5 295.5l94 598h219l-92 -586q-18 -117 31.5 -173t153.5 -56q94 0 173 48t136 122zM819 1120h-223l-170 303h256z" />
<glyph unicode="&#xfa;" horiz-adv-x="1200" d="M905 983h219l-155 -983h-193l23 141q-66 -75 -161.5 -121.5t-199.5 -46.5q-185 0 -281.5 116.5t-68.5 295.5l94 598h219l-92 -586q-18 -117 31.5 -173t153.5 -56q94 0 173 48t136 122zM756 1120h-234l234 303h264z" />
<glyph unicode="&#xfb;" horiz-adv-x="1200" d="M905 983h219l-155 -983h-193l23 141q-66 -75 -161.5 -121.5t-199.5 -46.5q-185 0 -281.5 116.5t-68.5 295.5l94 598h219l-92 -586q-18 -117 31.5 -173t153.5 -56q94 0 173 48t136 122zM612 1423h195l215 -307h-215l-111 156l-161 -156h-234z" />
<glyph unicode="&#xfc;" horiz-adv-x="1200" d="M905 983h219l-155 -983h-193l23 141q-66 -75 -161.5 -121.5t-199.5 -46.5q-185 0 -281.5 116.5t-68.5 295.5l94 598h219l-92 -586q-18 -117 31.5 -173t153.5 -56q94 0 173 48t136 122zM1024 1245q-8 -48 -48.5 -82.5t-90.5 -34.5q-57 0 -92.5 43.5t-26.5 102.5 q9 48 49 82.5t90 34.5q58 0 93 -43.5t26 -102.5zM598 1245q-8 -48 -48.5 -82.5t-90.5 -34.5q-57 0 -92.5 43.5t-26.5 102.5q9 48 49 82.5t90 34.5q58 0 93 -43.5t26 -102.5z" />
<glyph unicode="&#xfd;" horiz-adv-x="1122" d="M514 238l397 745h248l-637 -1122q-104 -182 -212.5 -259t-229.5 -77q-71 0 -139 22l28 181q47 -15 90 -15q83 0 149.5 58.5t135.5 181.5l37 55l-307 975h225zM702 1120h-233l233 303h265z" />
<glyph unicode="&#xfe;" horiz-adv-x="1267" d="M188 -451h-219l299 1885h219l-94 -584q153 160 371 160q143 0 246.5 -73t146 -194.5t19.5 -265.5q-32 -212 -187 -358t-368 -146q-231 0 -338 177zM317 365q25 -85 96.5 -142t176.5 -57q138 0 242.5 91t128.5 239q22 138 -48.5 229.5t-199.5 91.5q-112 0 -206.5 -61.5 t-150.5 -151.5z" />
<glyph unicode="&#xff;" horiz-adv-x="1122" d="M514 238l397 745h248l-637 -1122q-104 -182 -212.5 -259t-229.5 -77q-71 0 -139 22l28 181q47 -15 90 -15q83 0 149.5 58.5t135.5 181.5l37 55l-307 975h225zM971 1245q-8 -48 -48.5 -82.5t-91.5 -34.5q-57 0 -92 43.5t-26 102.5q9 48 49 82.5t90 34.5q58 0 93 -43.5 t26 -102.5zM545 1245q-8 -48 -48.5 -82.5t-90.5 -34.5q-57 0 -92.5 43.5t-26.5 102.5q9 48 49 82.5t90 34.5q58 0 93 -43.5t26 -102.5z" />
<glyph unicode="&#x100;" horiz-adv-x="1490" d="M1384 0h-239l-78 309h-721l-176 -309h-254l834 1434h258zM809 1120l-348 -606h557l-154 608q-8 31 -14 88q-17 -49 -41 -90zM623 1780h639l-31 -185h-639z" />
<glyph unicode="&#x101;" d="M870 158q-160 -185 -397 -185q-145 0 -248 73t-145.5 194.5t-20.5 265.5q17 103 65.5 195t120 160.5t168 108.5t203.5 40q129 0 218 -54.5t141 -138.5l24 166h197l-156 -983h-196zM276 489q-22 -140 48.5 -231.5t199.5 -91.5q112 0 206.5 61t148.5 150l39 239 q-22 85 -94 143t-177 58q-138 0 -242.5 -90.5t-128.5 -237.5zM418 1335h639l-31 -184h-639z" />
<glyph unicode="&#x102;" horiz-adv-x="1490" d="M1384 0h-239l-78 309h-721l-176 -309h-254l834 1434h258zM809 1120l-348 -606h557l-154 608q-8 31 -14 88q-17 -49 -41 -90zM1217 1649q-140 -88 -310 -88q-180 0 -295 88l29 190q70 -50 136 -70t147 -20q169 0 321 90z" />
<glyph unicode="&#x103;" d="M870 158q-160 -185 -397 -185q-145 0 -248 73t-145.5 194.5t-20.5 265.5q17 103 65.5 195t120 160.5t168 108.5t203.5 40q129 0 218 -54.5t141 -138.5l24 166h197l-156 -983h-196zM276 489q-22 -140 48.5 -231.5t199.5 -91.5q112 0 206.5 61t148.5 150l39 239 q-22 85 -94 143t-177 58q-138 0 -242.5 -90.5t-128.5 -237.5zM1012 1204q-140 -88 -310 -88q-179 0 -294 88l28 191q70 -50 136 -70t147 -20q169 0 321 90z" />
<glyph unicode="&#x104;" horiz-adv-x="1490" d="M1384 0q-87 -52 -145 -120.5t-63 -121.5q-5 -30 11.5 -46.5t53.5 -16.5q42 0 98 29l-26 -168q-63 -31 -148 -31q-108 0 -158 58.5t-36 148.5q19 125 174 268l-78 309h-721l-176 -309h-254l834 1434h258zM809 1120l-348 -606h557l-154 608q-8 31 -14 88q-17 -49 -41 -90z " />
<glyph unicode="&#x105;" d="M1196 983l-156 -983q-86 -52 -145 -121t-64 -121q-5 -31 11.5 -48t54.5 -17q46 0 98 20l-26 -166q-61 -24 -146 -24q-107 0 -158.5 58.5t-37.5 148.5q11 70 67 149.5t156 153.5l20 125q-160 -185 -397 -185q-145 0 -248 73t-145.5 194.5t-20.5 265.5q17 103 65.5 195 t120 160.5t168 108.5t203.5 40q129 0 218 -54.5t141 -138.5l24 166h197zM276 489q-22 -140 48.5 -231.5t199.5 -91.5q112 0 206.5 61t148.5 150l39 239q-22 85 -94 143t-177 58q-138 0 -242.5 -90.5t-128.5 -237.5z" />
<glyph unicode="&#x106;" horiz-adv-x="1325" d="M106 752q22 136 85 253t150.5 199.5t193.5 141t216.5 86.5t217.5 28q228 0 391 -100l-33 -217q-123 102 -330 102q-107 0 -211.5 -32t-197.5 -93t-159 -163t-87 -230q-22 -134 11.5 -241t105.5 -170t162.5 -95.5t189.5 -32.5q218 0 391 111l-37 -242q-172 -84 -409 -84 q-90 0 -177 21.5t-167.5 64.5t-145 107.5t-108 151.5t-58 195.5t5.5 238.5zM1081 1571h-233l233 303h265z" />
<glyph unicode="&#x107;" horiz-adv-x="1013" d="M61 506q17 106 62 192.5t106.5 143t138 95.5t153.5 56t155 17q174 0 307 -86l-33 -193q-100 84 -254 84q-71 0 -136.5 -18.5t-124 -56t-100 -102.5t-54.5 -151q-13 -80 5.5 -142.5t61 -100.5t101 -57t129.5 -19q143 0 307 82l-33 -209q-151 -68 -326 -68 q-84 0 -159.5 20.5t-139 63.5t-106.5 104.5t-60 150.5t0 194zM756 1120h-234l234 303h264z" />
<glyph unicode="&#x10a;" horiz-adv-x="1325" d="M106 752q22 136 85 253t150.5 199.5t193.5 141t216.5 86.5t217.5 28q228 0 391 -100l-33 -217q-123 102 -330 102q-107 0 -211.5 -32t-197.5 -93t-159 -163t-87 -230q-22 -134 11.5 -241t105.5 -170t162.5 -95.5t189.5 -32.5q218 0 391 111l-37 -242q-172 -84 -409 -84 q-90 0 -177 21.5t-167.5 64.5t-145 107.5t-108 151.5t-58 195.5t5.5 238.5zM1141 1692q-10 -63 -52 -95t-100 -32q-65 0 -103.5 41t-27.5 114q10 61 52.5 92t99.5 31q66 0 104.5 -40t26.5 -111z" />
<glyph unicode="&#x10b;" horiz-adv-x="1013" d="M61 506q17 106 62 192.5t106.5 143t138 95.5t153.5 56t155 17q174 0 307 -86l-33 -193q-100 84 -254 84q-71 0 -136.5 -18.5t-124 -56t-100 -102.5t-54.5 -151q-13 -80 5.5 -142.5t61 -100.5t101 -57t129.5 -19q143 0 307 82l-33 -209q-151 -68 -326 -68 q-84 0 -159.5 20.5t-139 63.5t-106.5 104.5t-60 150.5t0 194zM815 1241q-10 -63 -51.5 -95t-99.5 -32q-65 0 -104 41.5t-28 114.5q10 61 52.5 92t99.5 31q66 0 104.5 -40.5t26.5 -111.5z" />
<glyph unicode="&#x10c;" horiz-adv-x="1325" d="M106 752q22 136 85 253t150.5 199.5t193.5 141t216.5 86.5t217.5 28q228 0 391 -100l-33 -217q-123 102 -330 102q-107 0 -211.5 -32t-197.5 -93t-159 -163t-87 -230q-22 -134 11.5 -241t105.5 -170t162.5 -95.5t189.5 -32.5q218 0 391 111l-37 -242q-172 -84 -409 -84 q-90 0 -177 21.5t-167.5 64.5t-145 107.5t-108 151.5t-58 195.5t5.5 238.5zM1401 1866l-318 -307h-194l-221 307h219l112 -164l166 164h236z" />
<glyph unicode="&#x10d;" horiz-adv-x="1013" d="M61 506q17 106 62 192.5t106.5 143t138 95.5t153.5 56t155 17q174 0 307 -86l-33 -193q-100 84 -254 84q-71 0 -136.5 -18.5t-124 -56t-100 -102.5t-54.5 -151q-13 -80 5.5 -142.5t61 -100.5t101 -57t129.5 -19q143 0 307 82l-33 -209q-151 -68 -326 -68 q-84 0 -159.5 20.5t-139 63.5t-106.5 104.5t-60 150.5t0 194zM1075 1415l-317 -307h-195l-221 307h219l113 -164l166 164h235z" />
<glyph unicode="&#x10e;" horiz-adv-x="1515" d="M307 1434h496q238 0 397 -95.5t220.5 -260t27.5 -376.5q-25 -156 -89.5 -282.5t-168.5 -221t-256.5 -146.5t-341.5 -52h-512zM1212 731q39 238 -70.5 364t-361.5 126h-272l-160 -1008h262q252 0 408 135.5t194 382.5zM1239 1866l-317 -307h-195l-221 307h219l113 -164 l166 164h235z" />
<glyph unicode="&#x10f;" d="M1409 1434h209l-125 -394h-180zM1049 1434h219l-228 -1434h-194l24 162q-146 -189 -397 -189q-145 0 -248 73t-145.5 194.5t-20.5 265.5q23 139 97.5 253t193 182.5t258.5 68.5q123 0 210.5 -48t133.5 -122zM920 618q-23 84 -96 141.5t-177 57.5q-138 0 -242.5 -90.5 t-128.5 -239.5q-22 -138 48.5 -229.5t199.5 -91.5q112 0 206.5 61t148.5 150z" />
<glyph unicode="&#x110;" horiz-adv-x="1527" d="M319 1434h496q179 0 315 -55t215.5 -153t109.5 -231.5t5 -292.5q-25 -156 -89.5 -282.5t-168.5 -221t-256.5 -146.5t-341.5 -52h-512l96 621h-157l30 188h158zM621 213q252 0 408 135.5t194 382.5q39 238 -70.5 364t-361.5 126h-273l-65 -412h381l-31 -188h-381l-64 -408 h263z" />
<glyph unicode="&#x111;" horiz-adv-x="1271" d="M1243 1282h123l-23 -147h-122l-181 -1135h-194l24 162q-146 -189 -397 -189q-145 0 -248 73t-145.5 194.5t-20.5 265.5q23 139 97.5 253t193 182.5t258.5 68.5q123 0 210.5 -48t133.5 -122l49 295h-323l22 147h324l25 152h219zM524 166q112 0 206.5 61t148.5 150l41 241 q-23 84 -96 141.5t-177 57.5q-138 0 -242.5 -90.5t-128.5 -239.5q-22 -139 48 -230t200 -91z" />
<glyph unicode="&#x112;" d="M307 1434h987l-34 -213h-754l-62 -392h693l-33 -213h-692l-64 -403h764l-33 -213h-999zM545 1780h639l-31 -185h-639z" />
<glyph unicode="&#x113;" horiz-adv-x="1116" d="M59 504q15 100 57 185t99 143t127 99t142 60t143 19q112 0 197.5 -35.5t134 -95.5t71.5 -137.5t16.5 -163.5t-38.5 -172h-742q-1 -65 27.5 -114t76.5 -77t105 -41.5t121 -13.5q192 0 338 76l-33 -197q-145 -66 -352 -66q-84 0 -162 21t-145 65.5t-113 106t-65.5 149 t-4.5 189.5zM838 569q6 30 8.5 64t-11 68.5t-36.5 62.5t-68.5 45.5t-105.5 17.5q-119 0 -213.5 -70.5t-120.5 -187.5h547zM367 1329h639l-31 -184h-639z" />
<glyph unicode="&#x116;" d="M307 1434h987l-34 -213h-754l-62 -392h693l-33 -213h-692l-64 -403h764l-33 -213h-999zM971 1692q-10 -63 -52 -95t-100 -32q-65 0 -103.5 41t-27.5 114q10 61 52.5 92t99.5 31q66 0 104.5 -40t26.5 -111z" />
<glyph unicode="&#x117;" horiz-adv-x="1116" d="M59 504q15 100 57 185t99 143t127 99t142 60t143 19q112 0 197.5 -35.5t134 -95.5t71.5 -137.5t16.5 -163.5t-38.5 -172h-742q-1 -65 27.5 -114t76.5 -77t105 -41.5t121 -13.5q192 0 338 76l-33 -197q-145 -66 -352 -66q-84 0 -162 21t-145 65.5t-113 106t-65.5 149 t-4.5 189.5zM838 569q6 30 8.5 64t-11 68.5t-36.5 62.5t-68.5 45.5t-105.5 17.5q-119 0 -213.5 -70.5t-120.5 -187.5h547zM793 1241q-10 -63 -52 -95t-100 -32q-65 0 -103.5 41.5t-27.5 114.5q10 61 52.5 92t99.5 31q66 0 104.5 -40.5t26.5 -111.5z" />
<glyph unicode="&#x118;" d="M1038 -285l-28 -168q-65 -26 -152 -26q-106 0 -156.5 59t-37.5 148q11 68 61.5 140.5t134.5 131.5h-780l227 1434h987l-34 -213h-754l-62 -392h693l-33 -213h-692l-64 -403h764l-33 -213q-87 -54 -146 -120.5t-65 -117.5q-3 -32 14 -51.5t54 -19.5q45 0 102 24z" />
<glyph unicode="&#x119;" horiz-adv-x="1118" d="M803 -436q-75 -41 -168 -41q-108 -1 -158.5 57.5t-36.5 147.5q9 60 54.5 125t121.5 122q-12 0 -34 -1t-33 -1q-84 0 -162 21t-145 65.5t-113 106t-65.5 149t-4.5 189.5q15 100 57 185t99 143t127 99t142 60t143 19q112 0 197.5 -35.5t134 -95.5t71.5 -137.5t16.5 -163.5 t-38.5 -172h-742q-1 -65 27.5 -114t76.5 -77t105 -41.5t121 -13.5q192 0 338 76l-33 -197q-121 -81 -185.5 -154t-72.5 -127q-3 -31 14 -48.5t54 -16.5q64 3 118 41zM625 827q-119 0 -213.5 -70.5t-120.5 -187.5h547q6 30 8.5 64t-11 68.5t-36.5 62.5t-68.5 45.5 t-105.5 17.5z" />
<glyph unicode="&#x11a;" d="M307 1434h987l-34 -213h-754l-62 -392h693l-33 -213h-692l-64 -403h764l-33 -213h-999zM1231 1866l-318 -307h-194l-221 307h219l112 -164l166 164h236z" />
<glyph unicode="&#x11b;" horiz-adv-x="1116" d="M59 504q15 100 57 185t99 143t127 99t142 60t143 19q112 0 197.5 -35.5t134 -95.5t71.5 -137.5t16.5 -163.5t-38.5 -172h-742q-1 -65 27.5 -114t76.5 -77t105 -41.5t121 -13.5q192 0 338 76l-33 -197q-145 -66 -352 -66q-84 0 -162 21t-145 65.5t-113 106t-65.5 149 t-4.5 189.5zM838 569q6 30 8.5 64t-11 68.5t-36.5 62.5t-68.5 45.5t-105.5 17.5q-119 0 -213.5 -70.5t-120.5 -187.5h547zM1053 1415l-318 -307h-194l-222 307h220l112 -164l166 164h236z" />
<glyph unicode="&#x11e;" horiz-adv-x="1441" d="M104 745q19 121 67 226t115.5 182t150 136.5t174 96.5t184 55.5t184.5 18.5q243 0 424 -96l-33 -219q-129 100 -371 100q-85 0 -167.5 -17.5t-164.5 -58.5t-148 -100.5t-114 -150t-65 -201.5q-14 -100 -5 -178.5t43 -137.5t79.5 -100t105.5 -66.5t119.5 -37t122.5 -11.5 q138 0 231 43l86 541h232l-111 -702q-226 -95 -465 -95q-116 0 -223 27.5t-201 89t-158 149.5t-90.5 218.5t-1.5 287.5zM1284 1649q-140 -88 -309 -88q-180 0 -295 88l29 190q70 -50 135.5 -70t146.5 -20q170 0 322 90z" />
<glyph unicode="&#x11f;" horiz-adv-x="1271" d="M1042 4q-19 -126 -76.5 -221t-140.5 -150.5t-179.5 -82.5t-203.5 -27q-252 0 -413 100l30 195q145 -103 365 -103q75 0 140 17t119.5 51.5t91 93.5t48.5 137l21 117q-61 -68 -154.5 -113t-216.5 -45q-145 0 -248 73t-145.5 194.5t-20.5 265.5q23 138 99 252.5t196.5 183 t261.5 68.5q239 0 355 -195l28 168h199zM276 487q-22 -138 48.5 -229.5t199.5 -91.5q111 0 206 59t149 144l43 252q-25 83 -97.5 139.5t-177.5 56.5q-138 0 -242.5 -90.5t-128.5 -239.5zM971 1198q-140 -88 -309 -88q-180 0 -295 88l28 191q70 -50 136.5 -70.5t146.5 -20.5 q167 0 321 91z" />
<glyph unicode="&#x120;" horiz-adv-x="1441" d="M104 745q19 121 67 226t115.5 182t150 136.5t174 96.5t184 55.5t184.5 18.5q243 0 424 -96l-33 -219q-129 100 -371 100q-85 0 -167.5 -17.5t-164.5 -58.5t-148 -100.5t-114 -150t-65 -201.5q-14 -100 -5 -178.5t43 -137.5t79.5 -100t105.5 -66.5t119.5 -37t122.5 -11.5 q138 0 231 43l86 541h232l-111 -702q-226 -95 -465 -95q-116 0 -223 27.5t-201 89t-158 149.5t-90.5 218.5t-1.5 287.5zM1116 1692q-10 -63 -51.5 -95t-99.5 -32q-65 0 -103.5 41t-27.5 114q10 61 52 92t99 31q66 0 104.5 -40t26.5 -111z" />
<glyph unicode="&#x121;" horiz-adv-x="1271" d="M1042 4q-19 -126 -76.5 -221t-140.5 -150.5t-179.5 -82.5t-203.5 -27q-252 0 -413 100l30 195q145 -103 365 -103q75 0 140 17t119.5 51.5t91 93.5t48.5 137l21 117q-61 -68 -154.5 -113t-216.5 -45q-145 0 -248 73t-145.5 194.5t-20.5 265.5q23 138 99 252.5t196.5 183 t261.5 68.5q239 0 355 -195l28 168h199zM276 487q-22 -138 48.5 -229.5t199.5 -91.5q111 0 206 59t149 144l43 252q-25 83 -97.5 139.5t-177.5 56.5q-138 0 -242.5 -90.5t-128.5 -239.5zM803 1241q-10 -63 -52 -95t-100 -32q-65 0 -103.5 41.5t-27.5 114.5q10 61 52.5 92 t99.5 31q66 0 104.5 -40.5t26.5 -111.5z" />
<glyph unicode="&#x122;" horiz-adv-x="1441" d="M104 745q19 121 67 226t115.5 182t150 136.5t174 96.5t184 55.5t184.5 18.5q243 0 424 -96l-33 -219q-129 100 -371 100q-85 0 -167.5 -17.5t-164.5 -58.5t-148 -100.5t-114 -150t-65 -201.5q-14 -100 -5 -178.5t43 -137.5t79.5 -100t105.5 -66.5t119.5 -37t122.5 -11.5 q138 0 231 43l86 541h232l-111 -702q-226 -95 -465 -95q-116 0 -223 27.5t-201 89t-158 149.5t-90.5 218.5t-1.5 287.5zM745 -512h-184l115 395h211z" />
<glyph unicode="&#x123;" horiz-adv-x="1271" d="M748 1112h-203l139 365h174zM1042 4q-19 -126 -76.5 -221t-140.5 -150.5t-179.5 -82.5t-203.5 -27q-252 0 -413 100l30 195q145 -103 365 -103q75 0 140 17t119.5 51.5t91 93.5t48.5 137l21 117q-61 -68 -154.5 -113t-216.5 -45q-145 0 -248 73t-145.5 194.5t-20.5 265.5 q23 138 99 252.5t196.5 183t261.5 68.5q239 0 355 -195l28 168h199zM276 487q-22 -138 48.5 -229.5t199.5 -91.5q111 0 206 59t149 144l43 252q-25 83 -97.5 139.5t-177.5 56.5q-138 0 -242.5 -90.5t-128.5 -239.5z" />
<glyph unicode="&#x126;" horiz-adv-x="1585" d="M319 0h-233l164 1024h-148l27 168h147l37 242h234l-37 -242h754l39 242h233l-37 -242h146l-27 -168h-145l-164 -1024h-234l96 616h-753zM483 1024l-32 -205h753l35 205h-756z" />
<glyph unicode="&#x127;" horiz-adv-x="1202" d="M397 866q70 64 160.5 104t181.5 40q182 0 275 -116t65 -294l-94 -600h-221l92 586q19 115 -31.5 172t-150.5 57q-86 0 -170 -50t-144 -122l-100 -643h-219l180 1135h-123l23 147h123l24 152h219l-24 -152h321l-22 -147h-322z" />
<glyph unicode="&#x12a;" horiz-adv-x="581" d="M307 1434h234l-228 -1434h-233zM168 1780h639l-31 -185h-639z" />
<glyph unicode="&#x12b;" horiz-adv-x="501" d="M580 1165h-476l29 176h475zM266 0h-219l156 983h219z" />
<glyph unicode="&#x12e;" horiz-adv-x="583" d="M315 0q-74 -62 -121 -127.5t-53 -112.5q-5 -30 14 -49.5t52 -19.5q59 0 119 26l-27 -166q-62 -28 -168 -28q-103 0 -154.5 58.5t-39.5 146.5q18 130 143 272l227 1434h236z" />
<glyph unicode="&#x12f;" horiz-adv-x="501" d="M229 1315q9 59 49.5 89t96.5 30q60 0 95.5 -39t25.5 -107q-10 -58 -49.5 -87.5t-94.5 -29.5q-62 0 -97.5 38t-25.5 106zM266 0h-2q-148 -144 -160 -236q-5 -32 12.5 -51.5t53.5 -19.5q56 0 109 33l-27 -170q-65 -33 -156 -33q-106 0 -155.5 63.5t-36.5 149.5 q16 111 143 264l156 983h219z" />
<glyph unicode="&#x130;" horiz-adv-x="581" d="M307 1434h234l-228 -1434h-233zM594 1692q-10 -63 -52 -95t-100 -32q-65 0 -103.5 41t-27.5 114q10 61 52.5 92t99.5 31q66 0 104.5 -40t26.5 -111z" />
<glyph unicode="&#x131;" horiz-adv-x="501" d="M266 0h-219l156 983h219z" />
<glyph unicode="&#x132;" horiz-adv-x="1626" d="M307 1434h234l-228 -1434h-233zM961 1434h636l-159 -1010q-19 -121 -69 -209.5t-125 -140t-163 -75.5t-192 -24q-227 0 -363 86l35 218q116 -82 295 -82q309 0 352 262l119 760h-401z" />
<glyph unicode="&#x133;" horiz-adv-x="1001" d="M266 0h-219l156 983h219zM496 1288q-10 -58 -49.5 -87.5t-94.5 -29.5q-62 0 -97.5 38t-25.5 106q9 59 49.5 89t96.5 30q60 0 95.5 -39t25.5 -107zM739 -176q-13 -85 -47.5 -146t-83.5 -93.5t-102 -47t-115 -14.5q-89 0 -172 33l31 186q44 -23 102 -23q152 0 176 160 l177 1104h219zM995 1288q-10 -59 -49 -88t-94 -29q-62 0 -97.5 38t-25.5 106q9 59 49 89t96 30q60 0 95.5 -39t25.5 -107z" />
<glyph unicode="&#x136;" horiz-adv-x="1382" d="M1223 1434h262l-582 -713l385 -721h-248l-333 621h-295l-99 -621h-233l227 1434h234l-95 -598h285zM631 -492h-185l115 396h211z" />
<glyph unicode="&#x137;" horiz-adv-x="1085" d="M858 983h256l-436 -485l309 -498h-235l-260 422h-164l-68 -422h-219l227 1434h219l-131 -826h168zM467 -492h-184l114 396h211z" />
<glyph unicode="&#x139;" horiz-adv-x="1181" d="M307 1434h234l-193 -1217h754l-35 -217h-987zM565 1571h-233l233 303h264z" />
<glyph unicode="&#x13a;" horiz-adv-x="501" d="M285 1495h219l-238 -1495h-219zM522 1583h-233l233 303h264z" />
<glyph unicode="&#x13b;" horiz-adv-x="1181" d="M307 1434h234l-193 -1217h754l-35 -217h-987zM561 -492h-184l115 396h210z" />
<glyph unicode="&#x13c;" horiz-adv-x="501" d="M285 1495h219l-238 -1495h-219zM109 -492h-185l115 396h211z" />
<glyph unicode="&#x13d;" horiz-adv-x="1183" d="M901 1434h209l-131 -394h-174zM307 1434h234l-193 -1217h754l-35 -217h-987z" />
<glyph unicode="&#x13e;" horiz-adv-x="501" d="M647 1495h207l-125 -393h-180zM285 1495h219l-238 -1495h-219z" />
<glyph unicode="&#x13f;" horiz-adv-x="1191" d="M928 739q-8 -58 -47 -86t-93 -28q-60 0 -95 37t-25 104q9 57 48.5 86t92.5 29q60 0 95.5 -38t23.5 -104zM307 1434h234l-193 -1217h754l-35 -217h-987z" />
<glyph unicode="&#x140;" horiz-adv-x="733" d="M285 1495h219l-238 -1495h-219zM772 702q-10 -60 -49.5 -89t-95.5 -29q-63 0 -99.5 38.5t-25.5 108.5q8 59 49 89t96 30q64 0 100 -39t25 -109z" />
<glyph unicode="&#x141;" horiz-adv-x="1202" d="M1087 0h-985l84 532l-174 -67l31 192l174 68l113 709h233l-98 -623l422 162l-31 -193l-422 -162l-63 -401h751z" />
<glyph unicode="&#x142;" horiz-adv-x="681" d="M383 1495h219l-96 -608l178 67l-29 -180l-178 -69l-112 -705h-220l99 618l-176 -67l28 180l178 70z" />
<glyph unicode="&#x143;" horiz-adv-x="1570" d="M313 0h-233l227 1434h197l631 -1057q10 102 20 170l141 887h234l-227 -1434h-197l-631 1057q-6 -88 -18 -164zM1024 1571h-233l233 303h264z" />
<glyph unicode="&#x144;" horiz-adv-x="1202" d="M369 842q78 76 175.5 122t200.5 46q179 0 270.5 -116t63.5 -292l-96 -602h-219l92 586q19 116 -31 172.5t-151 56.5q-85 0 -169.5 -50t-144.5 -120l-100 -645h-219l156 983h194zM786 1120h-233l233 303h265z" />
<glyph unicode="&#x145;" horiz-adv-x="1570" d="M313 0h-233l227 1434h197l631 -1057q10 102 20 170l141 887h234l-227 -1434h-197l-631 1057q-6 -88 -18 -164zM682 -492h-184l114 396h211z" />
<glyph unicode="&#x146;" horiz-adv-x="1202" d="M369 842q78 76 175.5 122t200.5 46q179 0 270.5 -116t63.5 -292l-96 -602h-219l92 586q19 116 -31 172.5t-151 56.5q-85 0 -169.5 -50t-144.5 -120l-100 -645h-219l156 983h194zM483 -492h-184l115 396h211z" />
<glyph unicode="&#x147;" horiz-adv-x="1570" d="M313 0h-233l227 1434h197l631 -1057q10 102 20 170l141 887h234l-227 -1434h-197l-631 1057q-6 -88 -18 -164zM1343 1866l-317 -307h-195l-221 307h219l113 -164l166 164h235z" />
<glyph unicode="&#x148;" horiz-adv-x="1202" d="M369 842q78 76 175.5 122t200.5 46q179 0 270.5 -116t63.5 -292l-96 -602h-219l92 586q19 116 -31 172.5t-151 56.5q-85 0 -169.5 -50t-144.5 -120l-100 -645h-219l156 983h194zM1106 1415l-318 -307h-194l-221 307h219l113 -164l165 164h236z" />
<glyph unicode="&#x14a;" horiz-adv-x="1570" d="M1282 -139q-28 -167 -124.5 -251.5t-237.5 -84.5q-75 0 -164 26l30 201q41 -14 91 -14q148 0 176 162l24 147l-602 1010q-5 -83 -18 -164l-144 -893h-233l227 1434h197l631 -1055q11 108 20 170l141 885h234z" />
<glyph unicode="&#x14b;" horiz-adv-x="1202" d="M956 -176q-48 -301 -344 -301q-86 0 -161 33l30 184q51 -21 105 -21q132 0 157 160l113 707q19 116 -31 172.5t-151 56.5q-85 0 -169.5 -50t-144.5 -120l-100 -645h-219l156 983h194l-22 -141q78 76 175.5 122t200.5 46q179 0 270.5 -116t63.5 -292z" />
<glyph unicode="&#x14c;" horiz-adv-x="1673" d="M1610 702q-19 -114 -63.5 -219t-119 -198.5t-171.5 -162.5t-228 -109t-280 -40q-173 0 -309 64t-215.5 170t-112 242t-9.5 282q18 113 64 219t122 199t174 162t227 109t274 40q115 0 215 -29.5t174.5 -81t132.5 -123t88.5 -156t42.5 -178t-6 -190.5zM338 713 q-13 -63 -6.5 -126.5t23 -121t53 -107.5t84.5 -86.5t117.5 -57.5t152.5 -21q128 0 237 42.5t185 115.5t124.5 167.5t65.5 202.5q16 98 -2 189t-67 166t-141.5 120t-215.5 45q-128 0 -236.5 -42.5t-184 -115.5t-124 -167.5t-65.5 -202.5zM707 1780h639l-31 -185h-639z" />
<glyph unicode="&#x14d;" horiz-adv-x="1210" d="M1118 475q-18 -121 -78 -218.5t-144 -158.5t-182 -93t-200 -32q-103 0 -193.5 35.5t-156.5 101.5t-95.5 169.5t-9.5 228.5q19 121 78.5 218.5t143 158.5t182 93t201.5 32q102 0 192 -35.5t156.5 -101.5t96.5 -169.5t9 -228.5zM276 483q-22 -138 49 -223.5t207 -85.5 q141 0 243.5 89t127.5 237q22 139 -48.5 224t-207.5 85q-140 0 -243.5 -89t-127.5 -237zM397 1323h639l-30 -184h-639z" />
<glyph unicode="&#x150;" horiz-adv-x="1673" d="M1610 702q-19 -114 -63.5 -219t-119 -198.5t-171.5 -162.5t-228 -109t-280 -40q-173 0 -309 64t-215.5 170t-112 242t-9.5 282q18 113 64 219t122 199t174 162t227 109t274 40q115 0 215 -29.5t174.5 -81t132.5 -123t88.5 -156t42.5 -178t-6 -190.5zM338 713 q-13 -63 -6.5 -126.5t23 -121t53 -107.5t84.5 -86.5t117.5 -57.5t152.5 -21q128 0 237 42.5t185 115.5t124.5 167.5t65.5 202.5q16 98 -2 189t-67 166t-141.5 120t-215.5 45q-128 0 -236.5 -42.5t-184 -115.5t-124 -167.5t-65.5 -202.5zM1268 1591h-219l192 307h232z M924 1591h-217l192 307h231z" />
<glyph unicode="&#x151;" horiz-adv-x="1210" d="M1118 475q-18 -121 -78 -218.5t-144 -158.5t-182 -93t-200 -32q-103 0 -193.5 35.5t-156.5 101.5t-95.5 169.5t-9.5 228.5q19 121 78.5 218.5t143 158.5t182 93t201.5 32q102 0 192 -35.5t156.5 -101.5t96.5 -169.5t9 -228.5zM276 483q-22 -138 49 -223.5t207 -85.5 q141 0 243.5 89t127.5 237q22 139 -48.5 224t-207.5 85q-140 0 -243.5 -89t-127.5 -237zM958 1135h-219l193 307h231zM614 1135h-217l193 307h231z" />
<glyph unicode="&#x152;" horiz-adv-x="2113" d="M989 -2q-106 -25 -215 -25q-103 0 -195.5 22t-164.5 62.5t-131 97t-97 125.5t-62.5 148t-26 164t11.5 174q23 136 91 259.5t172.5 221t253 155.5t318.5 58q142 0 242 -28l954 2l-35 -213h-696l-61 -392h637l-35 -213h-637l-64 -403h709l-33 -213zM342 743 q-27 -154 17.5 -279t157.5 -199.5t276 -74.5q119 0 223 37l153 981q-74 35 -231 35q-230 0 -394 -143.5t-202 -356.5z" />
<glyph unicode="&#x153;" horiz-adv-x="1959" d="M969 199q-80 -111 -200.5 -168.5t-260.5 -57.5q-101 0 -190 36t-154.5 102t-95 170t-9.5 229q15 97 57 179t100.5 140.5t131 99.5t151 61t158.5 20q131 0 234 -57t153 -162q75 106 189 162.5t240 56.5q112 0 197 -35.5t133.5 -95.5t70.5 -137.5t15 -163.5t-40 -172h-741 q-1 -65 27.5 -114t76.5 -77t105 -41.5t121 -13.5q186 0 338 76l-31 -197q-151 -66 -361 -66q-141 0 -252 57.5t-163 168.5zM276 483q-22 -138 48 -223.5t204 -85.5q144 0 247 89t128 237q22 139 -48 224t-204 85q-142 0 -246 -89t-129 -237zM1468 827q-119 0 -213 -70.5 t-120 -187.5h546q6 30 8.5 64t-11 68.5t-36.5 62.5t-68.5 45.5t-105.5 17.5z" />
<glyph unicode="&#x154;" horiz-adv-x="1435" d="M313 0h-233l227 1434h570q82 0 156.5 -14t142.5 -48.5t113.5 -86t66 -132.5t4.5 -182q-51 -328 -412 -410l363 -561h-262l-342 537h-308zM510 1221l-76 -478h346q85 0 154.5 22.5t123 79.5t68.5 144q10 66 -7 113.5t-57 72t-89 35.5t-111 11h-352zM915 1571h-233l233 303 h265z" />
<glyph unicode="&#x155;" horiz-adv-x="776" d="M367 825q146 204 442 179l-35 -220q-131 26 -244.5 -29t-175.5 -165l-94 -590h-219l156 983h194zM623 1120h-234l234 303h264z" />
<glyph unicode="&#x156;" horiz-adv-x="1435" d="M313 0h-233l227 1434h570q82 0 156.5 -14t142.5 -48.5t113.5 -86t66 -132.5t4.5 -182q-51 -328 -412 -410l363 -561h-262l-342 537h-308zM510 1221l-76 -478h346q85 0 154.5 22.5t123 79.5t68.5 144q10 66 -7 113.5t-57 72t-89 35.5t-111 11h-352zM649 -492h-184l115 396 h211z" />
<glyph unicode="&#x157;" horiz-adv-x="776" d="M367 825q146 204 442 179l-35 -220q-131 26 -244.5 -29t-175.5 -165l-94 -590h-219l156 983h194zM102 -492h-184l115 396h211z" />
<glyph unicode="&#x158;" horiz-adv-x="1435" d="M313 0h-233l227 1434h570q82 0 156.5 -14t142.5 -48.5t113.5 -86t66 -132.5t4.5 -182q-51 -328 -412 -410l363 -561h-262l-342 537h-308zM510 1221l-76 -478h346q85 0 154.5 22.5t123 79.5t68.5 144q10 66 -7 113.5t-57 72t-89 35.5t-111 11h-352zM1235 1866l-317 -307 h-195l-221 307h219l113 -164l165 164h236z" />
<glyph unicode="&#x159;" horiz-adv-x="776" d="M367 825q146 204 442 179l-35 -220q-131 26 -244.5 -29t-175.5 -165l-94 -590h-219l156 983h194zM942 1415l-317 -307h-195l-221 307h219l113 -164l166 164h235z" />
<glyph unicode="&#x15a;" horiz-adv-x="1208" d="M176 1090q15 93 68 166t130.5 116.5t168 65.5t188.5 22q124 0 239.5 -32t194.5 -87l-32 -215q-77 61 -182.5 92t-215.5 29q-298 0 -323 -176q-7 -48 15 -87t64.5 -67t99.5 -53t120.5 -49.5t126.5 -51.5t117.5 -64.5t94 -83.5t56.5 -112t4 -147q-14 -86 -53.5 -153 t-94 -109.5t-127 -70.5t-147 -39t-158.5 -11q-296 0 -507 129l34 220q196 -136 469 -136q319 0 346 179q8 53 -12.5 95.5t-62.5 72.5t-98.5 56.5t-120 51.5t-126 52t-118 63.5t-95.5 80.5t-57.5 109t-5.5 144zM823 1571h-233l233 303h264z" />
<glyph unicode="&#x15b;" horiz-adv-x="964" d="M100 733q11 75 54 131t105.5 86.5t131 45t141.5 14.5q197 0 351 -86l-29 -189q-63 42 -149 68t-173 26q-83 0 -142 -26.5t-66 -81.5q-5 -37 24.5 -65t79.5 -47t111 -37.5t121 -44t107.5 -59t72 -89.5t12.5 -129q-13 -78 -56 -133.5t-108 -86t-137.5 -44t-157.5 -13.5 q-229 0 -377 99l31 194q68 -51 162 -79.5t190 -28.5q214 0 232 106q5 37 -23.5 64.5t-78.5 46.5t-111 38t-121 44.5t-108 59t-73.5 89t-15.5 127.5zM627 1120h-234l234 303h264z" />
<glyph unicode="&#x15e;" horiz-adv-x="1208" d="M756 -293q-14 -93 -96.5 -138.5t-198.5 -45.5q-119 0 -217 39l24 153q76 -39 172 -39q64 0 104 16t44 46q4 28 -25.5 44.5t-77.5 17.5t-106 -7l67 184q-254 19 -423 125l34 220q196 -136 469 -136q319 0 346 179q8 53 -12.5 95.5t-62.5 72.5t-98.5 56.5t-120 51.5 t-126 52t-118 63.5t-95.5 80.5t-57.5 109t-5.5 144q15 93 68 166t130.5 116.5t168 65.5t188.5 22q124 0 239.5 -32t194.5 -87l-32 -215q-77 61 -182.5 92t-215.5 29q-298 0 -323 -176q-7 -48 15 -87t64.5 -67t99.5 -53t120.5 -49.5t126.5 -51.5t117.5 -64.5t94 -83.5 t56.5 -112t4 -147q-13 -77 -46 -139t-79.5 -104t-108 -72t-126 -45t-138.5 -21l-37 -86q94 -2 142.5 -50t38.5 -132z" />
<glyph unicode="&#x15f;" horiz-adv-x="964" d="M627 -293q-13 -92 -95.5 -138t-197.5 -46q-116 0 -219 39l26 153q76 -39 172 -39q137 0 146 62q7 42 -57.5 56.5t-149.5 -1.5l67 182q-178 15 -303 97l31 194q68 -51 162 -79.5t190 -28.5q214 0 232 106q5 37 -23.5 64.5t-78.5 46.5t-111 38t-121 44.5t-108 59t-73.5 89 t-15.5 127.5q11 75 54 131t105.5 86.5t131 45t141.5 14.5q197 0 351 -86l-29 -189q-63 42 -149 68t-173 26q-84 0 -142.5 -26t-65.5 -82q-5 -37 24.5 -65t79.5 -47t111 -37.5t121 -44t107.5 -59t72 -89.5t12.5 -129q-22 -128 -121.5 -194t-245.5 -79l-39 -88q95 -2 144 -50 t37 -132z" />
<glyph unicode="&#x160;" horiz-adv-x="1208" d="M176 1090q15 93 68 166t130.5 116.5t168 65.5t188.5 22q124 0 239.5 -32t194.5 -87l-32 -215q-77 61 -182.5 92t-215.5 29q-298 0 -323 -176q-7 -48 15 -87t64.5 -67t99.5 -53t120.5 -49.5t126.5 -51.5t117.5 -64.5t94 -83.5t56.5 -112t4 -147q-14 -86 -53.5 -153 t-94 -109.5t-127 -70.5t-147 -39t-158.5 -11q-296 0 -507 129l34 220q196 -136 469 -136q319 0 346 179q8 53 -12.5 95.5t-62.5 72.5t-98.5 56.5t-120 51.5t-126 52t-118 63.5t-95.5 80.5t-57.5 109t-5.5 144zM1143 1866l-318 -307h-194l-221 307h219l112 -164l166 164h236z " />
<glyph unicode="&#x161;" horiz-adv-x="964" d="M100 733q11 75 54 131t105.5 86.5t131 45t141.5 14.5q197 0 351 -86l-29 -189q-63 42 -149 68t-173 26q-83 0 -142 -26.5t-66 -81.5q-5 -37 24.5 -65t79.5 -47t111 -37.5t121 -44t107.5 -59t72 -89.5t12.5 -129q-13 -78 -56 -133.5t-108 -86t-137.5 -44t-157.5 -13.5 q-229 0 -377 99l31 194q68 -51 162 -79.5t190 -28.5q214 0 232 106q5 37 -23.5 64.5t-78.5 46.5t-111 38t-121 44.5t-108 59t-73.5 89t-15.5 127.5zM946 1415l-317 -307h-195l-221 307h219l113 -164l166 164h235z" />
<glyph unicode="&#x162;" horiz-adv-x="1232" d="M158 1434h1181l-34 -215h-474l-192 -1219h-233l192 1219h-475zM473 -492h-184l114 396h211z" />
<glyph unicode="&#x163;" horiz-adv-x="841" d="M311 1276l226 59l-56 -352h357l-31 -192h-356l-74 -459q-14 -94 22.5 -130t130.5 -36q109 0 211 47l-30 -193q-106 -47 -258 -47q-71 0 -129.5 20t-101 59.5t-61 104.5t-5.5 148l77 486h-176l31 192h176zM422 -492h-184l114 396h211z" />
<glyph unicode="&#x164;" horiz-adv-x="1232" d="M158 1434h1181l-34 -215h-474l-192 -1219h-233l192 1219h-475zM1182 1866l-318 -307h-194l-221 307h219l112 -164l166 164h236z" />
<glyph unicode="&#x165;" horiz-adv-x="841" d="M743 1491h207l-123 -381h-180zM311 1276l226 59l-56 -352h357l-31 -192h-356l-74 -459q-14 -94 22.5 -130t130.5 -36q109 0 211 47l-30 -193q-106 -47 -258 -47q-71 0 -129.5 20t-101 59.5t-61 104.5t-5.5 148l77 486h-176l31 192h176z" />
<glyph unicode="&#x166;" horiz-adv-x="1253" d="M649 0h-233l96 612h-244l29 174h244l67 433h-475l35 215h1182l-35 -215h-473l-68 -433h242l-27 -174h-244z" />
<glyph unicode="&#x167;" horiz-adv-x="841" d="M840 983l-31 -186h-356l-29 -176h297l-25 -156h-297l-20 -133q-14 -95 22 -130.5t129 -35.5q109 0 211 47l-30 -193q-106 -47 -256 -47q-149 0 -236 85t-61 247l24 160h-94l25 156h94l29 176h-177l29 186h176l47 293l228 59l-56 -352h357z" />
<glyph unicode="&#x16a;" horiz-adv-x="1542" d="M1282 1434h234l-144 -910q-20 -122 -67 -217.5t-110.5 -157.5t-146.5 -102t-170 -57t-186 -17t-186 18.5t-162.5 61.5t-125.5 107t-70 161t-1 218l144 895h233l-141 -897q-16 -96 -0.5 -164.5t60 -107.5t106.5 -57t147 -18q388 0 447 361zM627 1780h639l-31 -185h-639z " />
<glyph unicode="&#x16b;" horiz-adv-x="1200" d="M905 983h219l-155 -983h-193l23 141q-66 -75 -161.5 -121.5t-199.5 -46.5q-185 0 -281.5 116.5t-68.5 295.5l94 598h219l-92 -586q-18 -117 31.5 -173t153.5 -56q94 0 173 48t136 122zM389 1329h639l-31 -184h-639z" />
<glyph unicode="&#x16e;" horiz-adv-x="1542" d="M1282 1434h234l-144 -910q-20 -122 -67 -217.5t-110.5 -157.5t-146.5 -102t-170 -57t-186 -17t-186 18.5t-162.5 61.5t-125.5 107t-70 161t-1 218l144 895h233l-141 -897q-16 -96 -0.5 -164.5t60 -107.5t106.5 -57t147 -18q388 0 447 361zM1182 1739q-18 -103 -95.5 -163 t-175.5 -60q-100 0 -167.5 69t-49.5 180q17 99 95 159.5t176 60.5q47 0 90 -17.5t74 -49t46 -78.5t7 -101zM836 1751q-7 -44 17.5 -73t64.5 -29q44 0 78.5 25.5t41.5 72.5q7 44 -17.5 73t-64.5 29q-44 0 -78.5 -25.5t-41.5 -72.5z" />
<glyph unicode="&#x16f;" horiz-adv-x="1200" d="M905 983h219l-155 -983h-193l23 141q-66 -75 -161.5 -121.5t-199.5 -46.5q-185 0 -281.5 116.5t-68.5 295.5l94 598h219l-92 -586q-18 -117 31.5 -173t153.5 -56q94 0 173 48t136 122zM944 1288q-18 -103 -95 -163t-175 -60q-100 0 -167.5 69.5t-49.5 180.5 q17 99 94.5 159t175.5 60q47 0 90 -17.5t74 -49t46 -78.5t7 -101zM598 1300q-7 -44 17.5 -73t64.5 -29q44 0 79 25.5t42 72.5q7 44 -17.5 73.5t-64.5 29.5q-44 0 -79 -26t-42 -73z" />
<glyph unicode="&#x170;" horiz-adv-x="1542" d="M1282 1434h234l-144 -910q-20 -122 -67 -217.5t-110.5 -157.5t-146.5 -102t-170 -57t-186 -17t-186 18.5t-162.5 61.5t-125.5 107t-70 161t-1 218l144 895h233l-141 -897q-16 -96 -0.5 -164.5t60 -107.5t106.5 -57t147 -18q388 0 447 361zM1188 1591h-219l192 307h232z M844 1591h-217l192 307h232z" />
<glyph unicode="&#x171;" horiz-adv-x="1200" d="M905 983h219l-155 -983h-193l23 141q-66 -75 -161.5 -121.5t-199.5 -46.5q-185 0 -281.5 116.5t-68.5 295.5l94 598h219l-92 -586q-18 -117 31.5 -173t153.5 -56q94 0 173 48t136 122zM950 1141h-219l193 307h231zM606 1141h-217l193 307h231z" />
<glyph unicode="&#x172;" horiz-adv-x="1542" d="M1143 551l139 883h234l-144 -910q-43 -283 -239 -426q-141 -105 -208.5 -193t-72.5 -147q-5 -30 13 -48.5t55 -18.5q65 3 116 39l-26 -168q-77 -39 -172 -39q-107 0 -159 58.5t-38 146.5q19 121 164 254q-52 -9 -113 -9q-99 0 -186 18.5t-162.5 61.5t-125.5 107t-70 161 t-1 218l144 895h233l-141 -897q-16 -96 -0.5 -164.5t60 -107.5t106.5 -57t147 -18q388 0 447 361z" />
<glyph unicode="&#x173;" horiz-adv-x="1200" d="M1124 983l-155 -983q-86 -52 -145 -121t-64 -121q-10 -65 65 -65q47 0 99 20l-27 -166q-62 -24 -145 -24q-107 0 -159 59t-38 148q24 144 225 297l19 114q-66 -75 -161.5 -121.5t-199.5 -46.5q-185 0 -281.5 116.5t-68.5 295.5l94 598h219l-92 -586q-18 -117 31.5 -173 t153.5 -56q94 0 173 48t136 122l102 645h219z" />
<glyph unicode="&#x174;" horiz-adv-x="2109" d="M1962 1434h254l-666 -1434h-264l-156 1051l-491 -1051h-266l-219 1434h241l154 -1153l536 1153h199l168 -1139zM1145 1874h194l215 -307h-215l-110 155l-162 -155h-233z" />
<glyph unicode="&#x175;" horiz-adv-x="1650" d="M1444 983h239l-485 -983h-233l-119 702l-350 -702h-232l-172 983h219l115 -719l354 719h205l123 -719zM852 1423h195l215 -307h-215l-111 156l-162 -156h-233z" />
<glyph unicode="&#x176;" horiz-adv-x="1384" d="M713 0h-234l86 526l-418 908h250l310 -689l528 689h270l-706 -908zM774 1874h195l215 -307h-215l-111 155l-162 -155h-233z" />
<glyph unicode="&#x177;" horiz-adv-x="1122" d="M514 238l397 745h248l-637 -1122q-104 -182 -212.5 -259t-229.5 -77q-71 0 -139 22l28 181q47 -15 90 -15q83 0 149.5 58.5t135.5 181.5l37 55l-307 975h225zM559 1423h195l215 -307h-215l-111 156l-162 -156h-233z" />
<glyph unicode="&#x178;" horiz-adv-x="1384" d="M713 0h-234l86 526l-418 908h250l310 -689l528 689h270l-706 -908zM1186 1696q-8 -48 -48.5 -82.5t-90.5 -34.5q-57 0 -92.5 43.5t-26.5 101.5q9 48 49 82.5t90 34.5q58 0 93 -43t26 -102zM760 1696q-8 -48 -48.5 -82.5t-90.5 -34.5q-57 0 -92.5 43.5t-26.5 101.5 q9 48 49 82.5t90 34.5q58 0 93 -43t26 -102z" />
<glyph unicode="&#x179;" horiz-adv-x="1226" d="M1065 0h-1090l27 184l920 1035h-727l32 215h1037l-29 -187l-918 -1030h783zM864 1571h-233l233 303h264z" />
<glyph unicode="&#x17a;" horiz-adv-x="966" d="M156 983h778l-27 -164l-624 -633h553l-29 -186h-834l27 164l625 633h-498zM659 1120h-233l233 303h265z" />
<glyph unicode="&#x17b;" horiz-adv-x="1226" d="M1065 0h-1090l27 184l920 1035h-727l32 215h1037l-29 -187l-918 -1030h783zM924 1692q-10 -63 -52 -95t-100 -32q-65 0 -103.5 41t-27.5 114q10 61 52.5 92t99.5 31q66 0 104.5 -40t26.5 -111z" />
<glyph unicode="&#x17c;" horiz-adv-x="966" d="M156 983h778l-27 -164l-624 -633h553l-29 -186h-834l27 164l625 633h-498zM719 1241q-10 -63 -52 -95t-100 -32q-65 0 -103.5 41.5t-27.5 114.5q10 61 52.5 92t99.5 31q66 0 104.5 -40.5t26.5 -111.5z" />
<glyph unicode="&#x17d;" horiz-adv-x="1226" d="M1065 0h-1090l27 184l920 1035h-727l32 215h1037l-29 -187l-918 -1030h783zM1184 1866l-318 -307h-194l-221 307h219l112 -164l166 164h236z" />
<glyph unicode="&#x17e;" horiz-adv-x="966" d="M156 983h778l-27 -164l-624 -633h553l-29 -186h-834l27 164l625 633h-498zM979 1415l-317 -307h-195l-221 307h219l113 -164l165 164h236z" />
<glyph unicode="&#x2c6;" horiz-adv-x="710" d="M508 1874h194l216 -307h-216l-110 155l-162 -155h-233z" />
<glyph unicode="&#x2da;" horiz-adv-x="479" d="M719 1739q-18 -103 -95 -163t-175 -60q-100 0 -168 69t-50 180q17 99 95 159.5t176 60.5q47 0 90 -17.5t74 -49t46 -78.5t7 -101zM373 1751q-7 -44 17.5 -73t64.5 -29q44 0 78.5 25.5t41.5 72.5q7 44 -17 73t-64 29q-44 0 -79 -25.5t-42 -72.5z" />
<glyph unicode="&#x2dc;" horiz-adv-x="722" d="M950 1802q4 -118 -56 -184t-149 -66q-54 0 -112 21.5t-105 43t-75 21.5q-34 0 -52 -22t-16 -51h-170q-3 117 57 183.5t148 66.5q54 0 112 -21.5t105.5 -43t75.5 -21.5q37 0 53.5 21t13.5 52h170z" />
<glyph unicode="&#x401;" horiz-adv-x="1267" d="M1180 1696q-8 -48 -48.5 -82.5t-91.5 -34.5q-57 0 -92 43t-26 102q9 48 49 82.5t90 34.5q58 0 93 -43t26 -102zM754 1696q-8 -48 -48.5 -82.5t-91.5 -34.5q-57 0 -92 43t-26 102q9 48 49 82.5t90 34.5q58 0 93 -43t26 -102zM307 1434h987l-34 -213h-754l-62 -392h693 l-33 -213h-692l-64 -403h764l-33 -213h-999z" />
<glyph unicode="&#x410;" horiz-adv-x="1492" d="M1386 0h-239l-78 309h-721l-176 -309h-254l834 1434h258zM811 1120l-348 -606h557l-154 608q-8 31 -14 88q-17 -49 -41 -90z" />
<glyph unicode="&#x411;" horiz-adv-x="1374" d="M453 877h354q81 0 152.5 -12.5t139.5 -44.5t113.5 -81.5t65.5 -130.5t4 -184q-15 -100 -59 -176.5t-102 -122.5t-136 -75t-153 -39.5t-160 -10.5h-592l227 1434h1022l-35 -215h-788zM348 213h350q312 0 351 231q9 57 -3.5 99t-37 64.5t-65.5 36t-77 17t-84 3.5h-362z" />
<glyph unicode="&#x412;" horiz-adv-x="1415" d="M307 1434h594q139 0 245 -41.5t162.5 -129t37.5 -208.5q-21 -120 -94.5 -195.5t-178.5 -105.5q48 -15 89.5 -42t78.5 -70.5t52 -110t3 -148.5q-15 -91 -59.5 -161t-104 -111t-137.5 -67t-149.5 -35t-151.5 -9h-614zM1067 428q9 54 -3 94t-37.5 62.5t-65 35.5t-74.5 17 t-78 4h-393l-70 -436h350q43 0 79 3t78 10.5t74.5 23.5t62.5 39.5t49.5 61t27.5 85.5zM1110 1038q18 102 -47 147.5t-197 45.5h-356l-61 -391l378 -2q113 0 189.5 50t93.5 150z" />
<glyph unicode="&#x413;" horiz-adv-x="1175" d="M313 0h-233l227 1434h971l-35 -215h-737z" />
<glyph unicode="&#x414;" horiz-adv-x="1617" d="M115 -326h-213l84 539h176q160 228 264.5 547.5t159.5 673.5h919l-192 -1221h180l-84 -539h-213l51 326h-1081zM776 1219q-146 -689 -360 -1006h661l160 1006h-461z" />
<glyph unicode="&#x415;" horiz-adv-x="1267" d="M307 1434h987l-34 -213h-754l-62 -392h693l-33 -213h-692l-64 -403h764l-33 -213h-999z" />
<glyph unicode="&#x416;" horiz-adv-x="1966" d="M1790 1434h260l-524 -705l329 -729h-237l-283 621h-229l-98 -621h-236l98 621h-211l-481 -621h-264l571 735l-299 699h244l250 -598h225l94 598h236l-96 -598h215z" />
<glyph unicode="&#x417;" horiz-adv-x="1257" d="M1139 375q-14 -89 -57.5 -159.5t-104.5 -115t-140.5 -74t-160.5 -41.5t-170 -12q-271 0 -510 95l35 217q218 -98 471 -95q73 0 136.5 11.5t122 37t98 74t50.5 115.5q10 60 -9.5 102t-63 64t-94.5 31.5t-115 9.5h-320l35 213h276q138 0 228.5 52.5t105.5 150.5 q16 98 -63 145t-221 47q-251 0 -484 -110l35 227q222 100 481 100q112 0 207 -26t163.5 -75.5t100.5 -126t17 -171.5q-18 -116 -93 -196t-188 -115q52 -13 96 -41t81 -72t52.5 -112t2.5 -150z" />
<glyph unicode="&#x418;" horiz-adv-x="1572" d="M1530 1434l-227 -1434h-234l143 897q8 71 29 152l-942 -1049h-219l227 1434h234l-142 -895q-12 -80 -30 -154l942 1049h219z" />
<glyph unicode="&#x419;" horiz-adv-x="1572" d="M1530 1434l-227 -1434h-234l143 897q8 71 29 152l-942 -1049h-219l227 1434h234l-142 -895q-12 -80 -30 -154l942 1049h219zM1282 1649q-140 -88 -309 -88q-180 0 -295 88l29 190q70 -50 135.5 -70t146.5 -20q170 0 322 90z" />
<glyph unicode="&#x41a;" horiz-adv-x="1384" d="M1223 1434h262l-582 -713l385 -721h-248l-333 621h-295l-99 -621h-233l227 1434h234l-95 -598h285z" />
<glyph unicode="&#x41b;" horiz-adv-x="1538" d="M567 1434h928l-227 -1434h-234l193 1219h-473q-32 -142 -50 -220.5t-49.5 -204t-54.5 -196.5t-58.5 -169.5t-67 -154t-75.5 -120t-89.5 -97t-102 -55t-119.5 -22.5q-93 0 -166 28l35 215q43 -18 102 -18q45 1 87 28.5t79.5 85t69.5 119t64.5 162.5t56.5 182t54 210.5 t49 215t48 226.5z" />
<glyph unicode="&#x41c;" horiz-adv-x="1859" d="M1577 1434h240l-228 -1434h-233l162 1018l-551 -686h-154l-336 688l-164 -1020h-233l227 1434h211l402 -822z" />
<glyph unicode="&#x41d;" horiz-adv-x="1572" d="M1296 1434h234l-227 -1434h-234l96 610h-755l-97 -610h-233l227 1434h234l-97 -609h756z" />
<glyph unicode="&#x41e;" horiz-adv-x="1673" d="M1610 702q-19 -114 -63.5 -219t-119 -198.5t-171.5 -162.5t-228 -109t-280 -40q-173 0 -309 64t-215.5 170t-112 242t-9.5 282q18 113 64 219t122 199t174 162t227 109t274 40q115 0 215 -29.5t174.5 -81t132.5 -123t88.5 -156t42.5 -178t-6 -190.5zM338 713 q-13 -63 -6.5 -126.5t23 -121t53 -107.5t84.5 -86.5t117.5 -57.5t152.5 -21q128 0 237 42.5t185 115.5t124.5 167.5t65.5 202.5q16 98 -2 189t-67 166t-141.5 120t-215.5 45q-128 0 -236.5 -42.5t-184 -115.5t-124 -167.5t-65.5 -202.5z" />
<glyph unicode="&#x41f;" horiz-adv-x="1556" d="M313 0h-233l227 1434h1206l-227 -1434h-235l194 1219h-739z" />
<glyph unicode="&#x420;" horiz-adv-x="1361" d="M307 1434h522q95 0 176.5 -14.5t155.5 -50t122 -89.5t69 -139t4 -193q-13 -87 -45 -157t-79.5 -119.5t-106 -85t-131.5 -56t-149.5 -29.5t-164.5 -9h-289l-78 -492h-233zM1122 971q10 60 -3.5 106t-41.5 72.5t-72 43.5t-89 22.5t-99 5.5h-309l-82 -516h289q83 0 148 12.5 t120.5 41.5t91 82.5t47.5 129.5z" />
<glyph unicode="&#x421;" horiz-adv-x="1335" d="M106 752q22 136 85 253t150.5 199.5t193.5 141t216.5 86.5t217.5 28q228 0 391 -100l-33 -217q-123 102 -330 102q-107 0 -211.5 -32t-197.5 -93t-159 -163t-87 -230q-22 -134 11.5 -241t105.5 -170t162.5 -95.5t189.5 -32.5q218 0 391 111l-37 -242q-172 -84 -409 -84 q-90 0 -177 21.5t-167.5 64.5t-145 107.5t-108 151.5t-58 195.5t5.5 238.5z" />
<glyph unicode="&#x422;" horiz-adv-x="1234" d="M160 1434h1181l-34 -215h-473l-193 -1219h-233l192 1219h-475z" />
<glyph unicode="&#x423;" horiz-adv-x="1320" d="M762 319q-85 -134 -173.5 -213t-164 -106t-164.5 -27q-120 0 -213 37l33 205q76 -29 153 -29q80 0 147.5 35t137.5 129l39 51l-420 1033h246l317 -826l498 826h260z" />
<glyph unicode="&#x424;" horiz-adv-x="1783" d="M899 -78h-227l30 184q-145 7 -268.5 53t-212 124.5t-129.5 196t-20 257.5q44 275 261 428t560 162l31 184h227l-29 -184q109 -5 209.5 -35t184.5 -85t142 -128.5t83 -172t8 -210.5q-42 -274 -258.5 -427.5t-562.5 -162.5zM303 723q-26 -174 83 -287.5t345 -128.5l129 819 q-250 -15 -389.5 -119.5t-167.5 -283.5zM1090 1126l-132 -819q251 17 390.5 121.5t167.5 284.5q28 170 -85 284t-341 129z" />
<glyph unicode="&#x425;" horiz-adv-x="1355" d="M186 0h-286l665 743l-395 691h260l293 -514l457 514h286l-628 -703l419 -731h-260l-315 555z" />
<glyph unicode="&#x426;" horiz-adv-x="1626" d="M1417 -326h-211l51 326h-1177l227 1434h234l-193 -1217h742l192 1217h234l-193 -1217h180z" />
<glyph unicode="&#x427;" horiz-adv-x="1413" d="M1143 0h-236l86 539q-202 -69 -393 -66q-243 2 -369.5 130.5t-89.5 367.5l74 463h236l-76 -478q-23 -142 55.5 -203t241.5 -63q164 0 356 64l107 680h235z" />
<glyph unicode="&#x428;" horiz-adv-x="2168" d="M1898 0h-1818l227 1434h234l-193 -1217h559l193 1217h233l-192 -1217h557l192 1217h236z" />
<glyph unicode="&#x429;" horiz-adv-x="2236" d="M2028 -326h-213l51 326h-1786l227 1434h234l-193 -1217h559l193 1217h233l-192 -1217h557l192 1217h236l-193 -1217h181z" />
<glyph unicode="&#x42a;" horiz-adv-x="1566" d="M805 0h-518l192 1219h-354l35 215h588l-78 -492h280q99 0 183 -14.5t158 -49.5t122 -89.5t68.5 -139t3.5 -192.5q-21 -130 -80 -221t-151.5 -141.5t-201.5 -72.5t-247 -22zM635 729l-82 -516h285q83 0 147.5 12t122 40t93.5 82t48 132q12 72 -8 123t-67.5 77.5t-104.5 38 t-131 11.5h-303z" />
<glyph unicode="&#x42b;" horiz-adv-x="1849" d="M598 0h-518l227 1434h234l-78 -492h282q99 0 183 -14.5t158 -49.5t121.5 -89.5t67.5 -139t3 -192.5q-16 -104 -58.5 -184t-103 -131t-143.5 -83.5t-174 -45.5t-201 -13zM430 729l-82 -516h285q83 0 147.5 12t122 40t93.5 82t48 132q12 72 -8 123t-67.5 77.5t-104.5 38 t-131 11.5h-303zM1579 0h-233l227 1434h233z" />
<glyph unicode="&#x42c;" horiz-adv-x="1361" d="M598 0h-518l227 1434h234l-78 -492h282q99 0 183 -14.5t158 -49.5t121.5 -89.5t67.5 -139t3 -192.5q-16 -104 -58.5 -184t-103 -131t-143.5 -83.5t-174 -45.5t-201 -13zM430 729l-82 -516h285q83 0 147.5 12t122 40t93.5 82t48 132q12 72 -8 123t-67.5 77.5t-104.5 38 t-131 11.5h-303z" />
<glyph unicode="&#x42d;" horiz-adv-x="1335" d="M211 1370q179 90 410 90q110 0 213 -29t193 -92t151.5 -152t86.5 -218.5t1 -282.5q-23 -146 -81 -265.5t-139 -201.5t-184 -138.5t-214.5 -82t-231.5 -25.5q-111 0 -219 26.5t-191 72.5l35 215q68 -45 163 -71t195 -26q108 0 203.5 23.5t179 73t145 134t91.5 197.5 l-703 -4l33 209l701 4q2 88 -24.5 160t-72 118.5t-108 78.5t-129 45.5t-137.5 13.5q-229 3 -404 -104z" />
<glyph unicode="&#x42e;" horiz-adv-x="2248" d="M2185 702q-23 -144 -88.5 -272t-170.5 -231.5t-260.5 -164.5t-340.5 -61q-154 0 -279.5 51.5t-205.5 140t-122.5 202.5t-41.5 241h-266l-97 -608h-233l227 1434h234l-97 -609h263q27 102 77 194.5t124.5 173.5t167 140t212 93t252.5 34q170 0 306 -64t216 -170 t113 -242.5t10 -281.5zM915 713q-13 -63 -6.5 -126.5t23 -121t53 -107.5t84.5 -86.5t117.5 -57.5t152.5 -21q128 0 237 42.5t185 115.5t125 167.5t66 202.5q16 98 -2 189t-67 166t-141.5 120t-215.5 45q-128 0 -237 -42.5t-184.5 -115.5t-124 -167.5t-65.5 -202.5z" />
<glyph unicode="&#x42f;" horiz-adv-x="1423" d="M221 0h-276l514 545q-152 52 -226.5 162.5t-46.5 273.5q15 97 56 174t100.5 128.5t137.5 86t164.5 49.5t184.5 15h551l-227 -1434h-233l79 508h-299zM424 963q-21 -130 57 -189t234 -59h319l80 506h-309q-156 0 -257.5 -63t-123.5 -195z" />
<glyph unicode="&#x430;" d="M870 158q-160 -185 -397 -185q-145 0 -248 73t-145.5 194.5t-20.5 265.5q17 103 65.5 195t120 160.5t168 108.5t203.5 40q129 0 218 -54.5t141 -138.5l24 166h197l-156 -983h-196zM276 489q-22 -140 48.5 -231.5t199.5 -91.5q112 0 206.5 61t148.5 150l39 239 q-22 85 -94 143t-177 58q-138 0 -242.5 -90.5t-128.5 -237.5z" />
<glyph unicode="&#x431;" horiz-adv-x="1196" d="M1096 442q-35 -223 -187 -346t-372 -123q-112 0 -202.5 36.5t-154.5 108t-89 188t-1 265.5q71 467 404 658q103 55 213.5 90t184 46.5t149.5 36t126 64.5l-30 -223q-46 -31 -110 -50.5t-122 -28.5t-140 -33.5t-155 -63.5q-183 -95 -268 -305q62 78 160.5 125t202.5 47 q87 0 165.5 -35t135 -97t82.5 -156t8 -204zM289 455q-16 -126 50.5 -209.5t205.5 -83.5q142 0 227.5 88t104.5 217q16 113 -51.5 197t-190.5 84q-139 0 -233.5 -86.5t-112.5 -206.5z" />
<glyph unicode="&#x432;" horiz-adv-x="1118" d="M608 0h-567l156 983h540q155 0 232.5 -76.5t56.5 -199.5q-12 -74 -57.5 -129.5t-116.5 -83.5q68 -23 105.5 -85.5t23.5 -152.5q-19 -117 -109.5 -186.5t-263.5 -69.5zM326 418l-39 -252h286q176 0 197 133q10 65 -27 92t-102 27h-315zM391 817l-39 -244h287 q66 0 111 30.5t55 98.5q10 63 -26 89t-105 26h-283z" />
<glyph unicode="&#x433;" horiz-adv-x="901" d="M260 0h-219l156 983h733l-31 -192h-514z" />
<glyph unicode="&#x434;" horiz-adv-x="1312" d="M119 -264h-207l70 444h139q114 160 181 351t104 452h761l-127 -803h146l-70 -444h-207l41 264h-788zM580 801q-36 -200 -91 -347t-139 -274h475l99 621h-344z" />
<glyph unicode="&#x435;" horiz-adv-x="1114" d="M59 504q15 100 57 185t99 143t127 99t142 60t143 19q112 0 197.5 -35.5t134 -95.5t71.5 -137.5t16.5 -163.5t-38.5 -172h-742q-1 -65 27.5 -114t76.5 -77t105 -41.5t121 -13.5q192 0 338 76l-33 -197q-145 -66 -352 -66q-84 0 -162 21t-145 65.5t-113 106t-65.5 149 t-4.5 189.5zM838 569q6 30 8.5 64t-11 68.5t-36.5 62.5t-68.5 45.5t-105.5 17.5q-119 0 -213.5 -70.5t-120.5 -187.5h547z" />
<glyph unicode="&#x436;" horiz-adv-x="1576" d="M160 0h-248l455 502l-250 481h221l211 -405h129l63 405h220l-64 -405h131l326 405h241l-409 -506l284 -477h-229l-237 391h-138l-61 -391h-219l63 391h-135z" />
<glyph unicode="&#x437;" horiz-adv-x="999" d="M866 254q-21 -131 -145 -205.5t-361 -75.5q-212 -3 -370 82l28 185q59 -37 146.5 -60.5t175.5 -23.5q141 0 220.5 32.5t92.5 114.5q5 36 -9.5 60.5t-45 35.5t-61 15t-70.5 4h-221l26 164h205q201 0 217 123q10 61 -50 92.5t-165 31.5q-189 0 -362 -81l28 188 q168 76 369 76q216 -3 320.5 -88t83.5 -215q-12 -81 -67 -134.5t-140 -72.5q81 -25 125 -90t30 -158z" />
<glyph unicode="&#x438;" horiz-adv-x="1204" d="M233 0h-192l156 983h219l-99 -631l623 631h190l-155 -983h-219l98 629z" />
<glyph unicode="&#x439;" horiz-adv-x="1204" d="M1004 1208q-136 -88 -310 -88q-177 0 -295 88l27 178q71 -49 137.5 -69.5t145.5 -20.5q167 0 321 90zM233 0h-192l156 983h219l-99 -631l623 631h190l-155 -983h-219l98 629z" />
<glyph unicode="&#x43a;" horiz-adv-x="1089" d="M260 0h-219l156 983h219l-60 -375h168l336 375h256l-438 -485l309 -498h-235l-260 422h-164z" />
<glyph unicode="&#x43b;" horiz-adv-x="1208" d="M555 797q-25 -116 -44 -197t-45.5 -172.5t-52.5 -153t-60.5 -121.5t-72.5 -94.5t-87.5 -55.5t-106.5 -21q-92 0 -152 24l27 180q30 -18 88 -18q31 1 58 15.5t51 45.5t45 69.5t40.5 96.5t36 116.5t34.5 140t32.5 156.5t32.5 175h756l-156 -983h-219l127 797h-332z" />
<glyph unicode="&#x43c;" horiz-adv-x="1392" d="M258 0h-217l156 983h211l260 -518l415 518h236l-156 -983h-217l109 668l-338 -418h-139l-213 418z" />
<glyph unicode="&#x43d;" horiz-adv-x="1200" d="M260 0h-219l156 983h219l-62 -395h490l63 395h219l-155 -983h-219l61 395h-489z" />
<glyph unicode="&#x43e;" horiz-adv-x="1210" d="M1118 475q-18 -121 -78 -218.5t-144 -158.5t-182 -93t-200 -32q-103 0 -193.5 35.5t-156.5 101.5t-95.5 169.5t-9.5 228.5q19 121 78.5 218.5t143 158.5t182 93t201.5 32q102 0 192 -35.5t156.5 -101.5t96.5 -169.5t9 -228.5zM276 483q-22 -138 49 -223.5t207 -85.5 q141 0 243.5 89t127.5 237q22 139 -48.5 224t-207.5 85q-140 0 -243.5 -89t-127.5 -237z" />
<glyph unicode="&#x43f;" horiz-adv-x="1200" d="M260 0h-219l156 983h929l-155 -983h-219l125 791h-492z" />
<glyph unicode="&#x440;" horiz-adv-x="1267" d="M367 823q154 187 397 187q143 0 246.5 -73t146 -194.5t19.5 -265.5q-32 -212 -187 -358t-368 -146q-231 0 -338 177l-95 -601h-219l228 1434h194zM961 496q22 138 -48.5 229.5t-199.5 91.5q-112 0 -206.5 -61.5t-150.5 -151.5l-39 -239q25 -85 96.5 -142t176.5 -57 q138 0 242.5 91t128.5 239z" />
<glyph unicode="&#x441;" horiz-adv-x="1019" d="M61 506q17 106 62 192.5t106.5 143t138 95.5t153.5 56t155 17q174 0 307 -86l-33 -193q-100 84 -254 84q-71 0 -136.5 -18.5t-124 -56t-100 -102.5t-54.5 -151q-13 -80 5.5 -142.5t61 -100.5t101 -57t129.5 -19q143 0 307 82l-33 -209q-151 -68 -326 -68 q-84 0 -159.5 20.5t-139 63.5t-106.5 104.5t-60 150.5t0 194z" />
<glyph unicode="&#x442;" horiz-adv-x="962" d="M498 0h-219l124 791h-340l31 192h897l-30 -192h-338z" />
<glyph unicode="&#x443;" horiz-adv-x="1122" d="M514 238l397 745h248l-637 -1122q-104 -182 -212.5 -259t-229.5 -77q-71 0 -139 22l28 181q47 -15 90 -15q83 0 149.5 58.5t135.5 181.5l37 55l-307 975h225z" />
<glyph unicode="&#x444;" horiz-adv-x="1499" d="M690 -451h-211l68 424q-110 4 -207 43.5t-166.5 106.5t-102 167t-14.5 216q24 150 115 263t230 174.5t309 66.5l67 424h211l-67 -424q111 -4 207.5 -43.5t165.5 -106.5t101 -167t13 -216q-35 -225 -215 -360.5t-438 -143.5zM272 492q-22 -141 58 -233t245 -99l107 663 q-165 -8 -276 -96.5t-134 -234.5zM891 823l-105 -663q166 8 276.5 97t133.5 235q22 141 -58.5 232.5t-246.5 98.5z" />
<glyph unicode="&#x445;" horiz-adv-x="1038" d="M176 0h-258l465 510l-283 473h240l186 -326l287 326h258l-444 -485l303 -498h-240l-205 350z" />
<glyph unicode="&#x446;" horiz-adv-x="1253" d="M1055 -264h-207l41 264h-848l156 983h219l-125 -790h469l125 790h219l-125 -795h147z" />
<glyph unicode="&#x447;" horiz-adv-x="1081" d="M852 0h-219l51 322q-117 -43 -270 -43q-80 0 -146 22t-114 65.5t-68 114t-6 160.5l53 342h219l-53 -334q-14 -101 33.5 -139.5t152.5 -38.5q114 0 230 43l73 469h220z" />
<glyph unicode="&#x448;" horiz-adv-x="1667" d="M1438 0h-1397l156 983h219l-125 -790h371l124 790h220l-125 -790h368l125 790h219z" />
<glyph unicode="&#x449;" horiz-adv-x="1740" d="M1542 -264h-207l41 264h-1335l156 983h219l-125 -790h371l124 790h220l-125 -790h368l125 790h219l-125 -795h146z" />
<glyph unicode="&#x44a;" horiz-adv-x="1222" d="M692 0h-493l127 803h-260l28 180h479l-49 -328h277q168 0 257.5 -97.5t67.5 -244.5q-23 -139 -136 -226t-298 -87zM494 483l-48 -309h222q212 0 239 162q10 70 -35 108.5t-131 38.5h-247z" />
<glyph unicode="&#x44b;" horiz-adv-x="1542" d="M535 0h-494l156 983h219l-51 -328h278q168 0 258 -97.5t66 -244.5q-23 -139 -135.5 -226t-296.5 -87zM336 483l-47 -309h221q213 0 240 162q10 70 -35 108.5t-131 38.5h-248zM1313 0h-219l155 983h219z" />
<glyph unicode="&#x44c;" horiz-adv-x="1062" d="M535 0h-494l156 983h219l-51 -328h278q168 0 258 -97.5t66 -244.5q-23 -139 -135.5 -226t-296.5 -87zM336 483l-47 -309h221q213 0 240 162q10 70 -35 108.5t-131 38.5h-248z" />
<glyph unicode="&#x44d;" horiz-adv-x="1030" d="M936 461q-20 -126 -78 -223t-140 -153t-175.5 -84t-194.5 -28q-111 0 -190 21.5t-158 68.5l29 179q123 -86 282 -86q326 0 398 252l-473 -5l28 181l473 4q0 65 -27.5 113t-73.5 74.5t-98.5 39t-111.5 12.5q-167 0 -320 -90l29 189q150 84 326 84q66 0 129 -14t122.5 -43 t106 -73.5t79 -105.5t42.5 -139t-4 -174z" />
<glyph unicode="&#x44e;" horiz-adv-x="1695" d="M1604 475q-19 -121 -79.5 -218.5t-145 -158.5t-182.5 -93t-200 -32q-121 0 -222 48t-166 146.5t-68 231.5h-217l-64 -399h-219l156 983h219l-64 -399h213q59 202 224 314t358 112q102 0 192.5 -35.5t157 -101.5t97 -169.5t10.5 -228.5zM760 483q-22 -138 49 -223.5 t207 -85.5q141 0 243 89t127 237q22 139 -48.5 224t-207.5 85q-140 0 -243 -89t-127 -237z" />
<glyph unicode="&#x44f;" horiz-adv-x="1114" d="M201 0h-250l332 358q-96 41 -142 120.5t-28 191.5q22 133 134 223t298 90h495l-155 -983h-219l51 322h-217zM332 643q-11 -68 35.5 -107.5t136.5 -39.5h241l50 307h-232q-99 0 -160 -42t-71 -118z" />
<glyph unicode="&#x451;" horiz-adv-x="1114" d="M1001 1245q-8 -48 -48.5 -82.5t-90.5 -34.5q-57 0 -92.5 43.5t-26.5 102.5q9 48 49.5 82.5t90.5 34.5q58 0 92.5 -43.5t25.5 -102.5zM575 1245q-8 -48 -48.5 -82.5t-90.5 -34.5q-57 0 -92.5 43.5t-26.5 102.5q9 48 49.5 82.5t90.5 34.5q58 0 92.5 -43.5t25.5 -102.5z M59 504q15 100 57 185t99 143t127 99t142 60t143 19q112 0 197.5 -35.5t134 -95.5t71.5 -137.5t16.5 -163.5t-38.5 -172h-742q-1 -65 27.5 -114t76.5 -77t105 -41.5t121 -13.5q192 0 338 76l-33 -197q-145 -66 -352 -66q-84 0 -162 21t-145 65.5t-113 106t-65.5 149 t-4.5 189.5zM838 569q6 30 8.5 64t-11 68.5t-36.5 62.5t-68.5 45.5t-105.5 17.5q-119 0 -213.5 -70.5t-120.5 -187.5h547z" />
<glyph unicode="&#x2000;" horiz-adv-x="992" />
<glyph unicode="&#x2001;" horiz-adv-x="1985" />
<glyph unicode="&#x2002;" horiz-adv-x="992" />
<glyph unicode="&#x2003;" horiz-adv-x="1985" />
<glyph unicode="&#x2004;" horiz-adv-x="661" />
<glyph unicode="&#x2005;" horiz-adv-x="496" />
<glyph unicode="&#x2006;" horiz-adv-x="330" />
<glyph unicode="&#x2007;" horiz-adv-x="330" />
<glyph unicode="&#x2008;" horiz-adv-x="248" />
<glyph unicode="&#x2009;" horiz-adv-x="397" />
<glyph unicode="&#x200a;" horiz-adv-x="110" />
<glyph unicode="&#x2010;" horiz-adv-x="993" d="M125 602h745l-30 -196h-746z" />
<glyph unicode="&#x2011;" horiz-adv-x="993" d="M125 602h745l-30 -196h-746z" />
<glyph unicode="&#x2012;" horiz-adv-x="993" d="M125 602h745l-30 -196h-746z" />
<glyph unicode="&#x2013;" horiz-adv-x="1181" d="M1028 406h-934l31 196h936z" />
<glyph unicode="&#x2014;" horiz-adv-x="1574" d="M1421 406h-1327l31 196h1327z" />
<glyph unicode="&#x2018;" horiz-adv-x="497" d="M362 926h-235l256 508h180z" />
<glyph unicode="&#x2019;" horiz-adv-x="489" d="M317 926h-180l201 508h235z" />
<glyph unicode="&#x201a;" horiz-adv-x="489" d="M66 -303h-181l203 508h234z" />
<glyph unicode="&#x201c;" horiz-adv-x="833" d="M698 926h-235l256 508h180zM362 926h-235l256 508h180z" />
<glyph unicode="&#x201d;" horiz-adv-x="825" d="M653 926h-180l201 508h235zM317 926h-180l201 508h235z" />
<glyph unicode="&#x201e;" horiz-adv-x="825" d="M401 -303h-180l203 508h233zM66 -303h-181l203 508h234z" />
<glyph unicode="&#x2026;" horiz-adv-x="1343" d="M1174 98q-9 -60 -49.5 -90.5t-96.5 -30.5q-62 0 -99 39.5t-26 108.5q8 59 49.5 89t96.5 30q63 0 99.5 -38.5t25.5 -107.5zM299 98q-9 -60 -49 -90.5t-96 -30.5q-62 0 -99 39.5t-26 108.5q8 59 49 89t96 30q63 0 99.5 -38.5t25.5 -107.5zM737 98q-9 -60 -49 -90.5 t-96 -30.5q-62 0 -99 39.5t-26 108.5q8 59 49 89t96 30q63 0 99.5 -38.5t25.5 -107.5z" />
<glyph unicode="&#x202f;" horiz-adv-x="397" />
<glyph unicode="&#x2039;" horiz-adv-x="649" d="M479 109h-223l-199 362l9 47l307 356h233l-336 -382z" />
<glyph unicode="&#x203a;" horiz-adv-x="651" d="M242 109h-232l334 383l-207 382h221l201 -362l-6 -47z" />
<glyph unicode="&#x205f;" horiz-adv-x="496" />
<glyph unicode="&#x20ac;" horiz-adv-x="1480" d="M1442 1104q-138 100 -346 100q-177 0 -323 -70.5t-226 -218.5h622l-26 -161h-656q-14 -61 -14 -115h653l-26 -162h-606q42 -136 159 -212.5t269 -76.5q108 0 217 28.5t190 78.5l-37 -238q-187 -84 -411 -84q-156 0 -289.5 58.5t-227 174.5t-120.5 271h-189l27 162h154 q0 51 12 115h-150l27 161h168q50 126 137 224.5t194 158.5t224.5 90.5t238.5 30.5q215 0 390 -102z" />
<glyph unicode="&#x2122;" horiz-adv-x="1382" d="M799 909h-127l84 525h129l131 -265l207 265h145l-84 -525h-125l53 330l-172 -207h-82l-106 207zM422 909h-127l65 410h-165l18 115h459l-19 -115h-166z" />
<glyph unicode="&#x25fc;" horiz-adv-x="983" d="M0 983h983v-983h-983v983z" />
</font>
</defs>
</svg>
