<?xml version="1.0" standalone="no"?>
<!DOCTYPE svg PUBLIC "-//W3C//DTD SVG 1.1//EN" "http://www.w3.org/Graphics/SVG/1.1/DTD/svg11.dtd" >
<svg xmlns="http://www.w3.org/2000/svg" xmlns:xlink="http://www.w3.org/1999/xlink" version="1.1">
<metadata></metadata>
<defs>
<font id="mullerthin" horiz-adv-x="1175" >
<font-face units-per-em="2048" ascent="1597" descent="-451" />
<missing-glyph horiz-adv-x="546" />
<glyph horiz-adv-x="0" />
<glyph horiz-adv-x="682" />
<glyph unicode=" "  horiz-adv-x="546" />
<glyph unicode="&#x09;" horiz-adv-x="546" />
<glyph unicode="&#xa0;" horiz-adv-x="546" />
<glyph unicode="!" horiz-adv-x="397" d="M221 346h-45l-2 1088h51zM244 33q0 -20 -12.5 -32.5t-32.5 -12.5q-19 0 -32 12.5t-13 32.5t13 32.5t32 12.5q20 0 32.5 -12.5t12.5 -32.5z" />
<glyph unicode="&#x22;" horiz-adv-x="507" d="M362 1163h-36v271h51zM178 1163h-37v271h52z" />
<glyph unicode="#" horiz-adv-x="1325" d="M240 0h-50l91 389h-197v45h207l127 527h-232v45h242l92 389h49l-90 -389h512l92 389h52l-93 -389h197v-45h-207l-125 -527h230v-45h-240l-92 -389h-51l92 389h-514zM467 961l-125 -527h514l125 527h-514z" />
<glyph unicode="$" horiz-adv-x="1163" d="M612 -266h-45v246q-259 10 -452 118v52q103 -58 231.5 -89.5t253.5 -31.5q90 0 163.5 15.5t133.5 49t93.5 92.5t33.5 138q0 76 -31 134t-83 94.5t-120 64.5t-143 49t-149.5 42.5t-142.5 50.5t-120 67.5t-83 99.5t-31 141q0 85 36.5 152t99.5 107.5t141 62.5t167 24v246 h45v-246q103 -3 203 -28t176 -68v-51q-82 46 -192 72.5t-211 25.5q-85 0 -157.5 -17t-131 -52t-92 -93.5t-33.5 -134.5q0 -92 50 -156t129.5 -99.5t175.5 -63t192.5 -57.5t176 -71t129.5 -115t50 -179q0 -91 -37 -159t-102 -108t-146.5 -59.5t-177.5 -19.5v-246z" />
<glyph unicode="%" horiz-adv-x="1785" d="M500 -123h-51l837 1679h51zM678 1161q0 -139 -87.5 -216t-213.5 -77q-81 0 -148 31.5t-111 100t-44 161.5t44 161.5t111 100t148 31.5q126 0 213.5 -77t87.5 -216zM121 1161q0 -116 73.5 -182t182.5 -66q108 0 181 66t73 182t-73 182t-181 66q-109 0 -182.5 -66 t-73.5 -182zM1712 272q0 -139 -88 -215.5t-213 -76.5q-127 0 -215 76.5t-88 215.5t88 216t215 77q125 0 213 -77t88 -216zM1155 272q0 -116 73.5 -181.5t182.5 -65.5q108 0 181 66t73 181q0 116 -73 182t-181 66q-109 0 -182.5 -66t-73.5 -182z" />
<glyph unicode="&#x26;" horiz-adv-x="1394" d="M1110 227l256 -227h-61l-222 197q-91 -102 -220.5 -159.5t-293.5 -57.5q-211 0 -332.5 99.5t-121.5 250.5q0 58 19.5 111.5t50 96t77 84t91.5 72.5t102 64q-207 199 -207 360q0 138 110.5 237t294.5 99q154 0 250 -76.5t96 -199.5q0 -36 -12.5 -70t-30 -61.5t-51 -58.5 t-60.5 -52t-74.5 -50t-77 -45.5t-83.5 -46.5t-80 -44q22 -22 54 -50l491 -440q127 171 127 381h51q0 -110 -36.5 -217.5t-106.5 -196.5zM653 1407q-164 0 -260 -86t-96 -205q0 -143 199 -334q28 16 77 42.5t80 44t75 43.5t72 46.5t59.5 48t49 52.5t29.5 55.5t12 61.5 q0 103 -82.5 167t-214.5 64zM166 332q0 -132 108 -218.5t297 -86.5q151 0 272 53.5t204 146.5l-504 449l-56 49q-70 -42 -121 -79.5t-100 -86.5t-74.5 -106.5t-25.5 -120.5z" />
<glyph unicode="'" horiz-adv-x="323" d="M178 1163h-37v271h52z" />
<glyph unicode="(" horiz-adv-x="503" d="M410 1655h51q-140 -196 -221.5 -445.5t-81.5 -492.5t81.5 -492.5t221.5 -445.5h-51q-141 199 -223.5 447t-82.5 491t82.5 491t223.5 447z" />
<glyph unicode=")" horiz-adv-x="503" d="M43 1655h51q141 -199 223 -447t82 -491q0 -242 -82.5 -491t-222.5 -447h-51q141 195 222 444.5t81 493.5t-81 493.5t-222 444.5z" />
<glyph unicode="*" horiz-adv-x="870" d="M436 1098l-174 -242l-39 27l178 235l-278 90l16 45l277 -98l-4 279h47l-4 -279l276 98l17 -45l-279 -90l178 -235l-39 -27z" />
<glyph unicode="+" horiz-adv-x="1099" d="M573 741h412v-49h-412v-411h-47v411h-411v49h411v412h47v-412z" />
<glyph unicode="," horiz-adv-x="348" d="M109 -291h-43l102 438h51z" />
<glyph unicode="-" horiz-adv-x="993" d="M145 520h703v-47h-703v47z" />
<glyph unicode="." horiz-adv-x="346" d="M219 33q0 -20 -13 -32.5t-32 -12.5t-33 12.5t-14 32.5t14 32.5t33 12.5t32 -12.5t13 -32.5z" />
<glyph unicode="/" horiz-adv-x="821" d="M127 -117h-41l608 1667h41z" />
<glyph unicode="0" horiz-adv-x="1437" d="M121 696q0 159 37.5 289.5t110 226.5t187.5 148.5t263 52.5t263 -52.5t187.5 -148.5t110 -226.5t37.5 -289.5t-37.5 -289t-110 -226t-187.5 -148.5t-263 -52.5t-263 52.5t-187.5 148.5t-110 226t-37.5 289zM1266 696q0 202 -58.5 350t-183 233t-305.5 85t-305.5 -85 t-183 -233t-58.5 -350q0 -151 33.5 -272t100 -210t171.5 -137t242 -48t242 48t171.5 137t100 210t33.5 272z" />
<glyph unicode="1" horiz-adv-x="821" d="M451 1393h32v-1344h293v-49h-663v49h321v1286l-321 -121v50z" />
<glyph unicode="2" horiz-adv-x="1142" d="M152 1288q183 125 415 125q198 0 320.5 -91t122.5 -247q0 -50 -12.5 -96t-30.5 -82t-52.5 -74t-62.5 -63t-78 -59t-81 -52.5t-89 -52.5q-165 -96 -219 -135q-159 -116 -207 -259q-23 -70 -24 -153h874v-49h-928v33q0 68 14.5 129t35 107.5t59 92.5t70 76t86 67.5t89 58.5 t95.5 56q6 3 9 5t8 5t9 5q166 98 229 149q144 117 156 262q1 14 1 29q0 133 -109 212t-287 79q-217 0 -413 -129v51z" />
<glyph unicode="3" horiz-adv-x="1202" d="M1024 1047q0 -115 -71 -205.5t-208 -116.5q149 -25 243.5 -114.5t94.5 -243.5q0 -183 -129.5 -285t-337.5 -102q-300 0 -485 90v49q202 -92 483 -92q189 0 304.5 89.5t115.5 250.5q0 86 -34 150.5t-94 103t-135 57t-165 18.5h-200v49h196q95 0 169 25t117 68t65 95 t22 111q0 136 -106.5 229t-290.5 93q-218 0 -422 -92v49q188 90 428 90q201 0 320.5 -105.5t119.5 -260.5z" />
<glyph unicode="4" horiz-adv-x="1302" d="M879 1393h55v-996h299v-49h-299v-348h-51v348h-826v45zM883 397v924l-758 -924h758z" />
<glyph unicode="5" horiz-adv-x="1173" d="M209 1393h788v-50h-741l-39 -600q171 54 342 54q104 0 193.5 -23.5t161.5 -70.5t113.5 -127t41.5 -185q0 -185 -134 -298t-362 -113q-258 0 -444 94v49q194 -96 440 -96q209 0 329 99t120 265q0 93 -37.5 163.5t-104 112.5t-149 62.5t-180.5 20.5q-192 0 -383 -68z" />
<glyph unicode="6" horiz-adv-x="1234" d="M174 604q104 112 236.5 174t273.5 62q90 0 171 -26.5t145.5 -77.5t102.5 -134t38 -188q0 -134 -63.5 -234t-168.5 -150t-235 -50q-269 0 -410 179t-141 494q0 199 43.5 347t125 237.5t191 132.5t248.5 43q161 0 293 -74v-49q-130 74 -293 74q-102 0 -186 -24.5 t-153.5 -78.5t-117 -136t-74 -202t-26.5 -272v-47zM178 547q22 -248 148 -384t344 -136q184 0 302 101.5t118 283.5q0 96 -34 170t-92 119t-131 67.5t-157 22.5q-139 0 -271 -64.5t-227 -179.5z" />
<glyph unicode="7" horiz-adv-x="1052" d="M78 1393h938v-41l-660 -1352h-53l653 1343h-878v50z" />
<glyph unicode="8" horiz-adv-x="1312" d="M170 1079q0 65 29 123.5t85.5 106.5t152 76t218.5 28q114 0 209 -31t155 -82t92.5 -113t33.5 -128q0 -127 -64.5 -228.5t-179.5 -162.5q139 -51 217 -129.5t78 -204.5q0 -69 -34 -131.5t-98 -112.5t-169 -80t-236 -30q-260 0 -400 110.5t-140 280.5q0 131 73.5 238.5 t208.5 168.5q-110 48 -170.5 120t-60.5 181zM657 692q-155 43 -211 66q-131 -54 -204.5 -156.5t-73.5 -226.5q0 -155 125.5 -251.5t363.5 -96.5q230 0 358 89t128 216q0 47 -13 87t-36 70.5t-57 56t-71.5 44t-85.5 36t-93.5 30.5t-99.5 28q-20 5 -30 8zM1094 1053 q0 58 -29 113t-82.5 100t-139.5 72.5t-190 27.5q-211 0 -322.5 -83.5t-111.5 -203.5q0 -63 29 -114.5t59 -81t102 -61t102.5 -41t114.5 -32.5q18 -6 27 -8q143 -39 199 -55q113 57 177.5 152.5t64.5 214.5z" />
<glyph unicode="9" horiz-adv-x="1234" d="M94 979q0 134 63 234t168 150t236 50q269 0 410 -179.5t141 -494.5q0 -199 -43.5 -347t-125 -237t-191 -132t-248.5 -43q-165 0 -295 73v49q128 -73 293 -73q129 0 229 39.5t175 122.5t115 222t40 328v47q-104 -111 -237 -173t-273 -62q-90 0 -171 26.5t-145.5 77.5 t-102.5 134t-38 188zM145 981q0 -96 33.5 -170t91.5 -119t131.5 -67.5t157.5 -22.5q139 0 271 64.5t227 179.5q-22 248 -148.5 384t-345.5 136q-182 0 -300 -102t-118 -283z" />
<glyph unicode=":" horiz-adv-x="382" d="M238 831q0 -20 -13.5 -32.5t-34.5 -12.5q-18 0 -31.5 12.5t-13.5 32.5t13.5 33t31.5 13q20 0 34 -13t14 -33zM238 33q0 -20 -13.5 -32.5t-34.5 -12.5q-18 0 -31.5 12.5t-13.5 32.5t13.5 32.5t31.5 12.5q21 0 34.5 -12.5t13.5 -32.5z" />
<glyph unicode=";" horiz-adv-x="542" d="M207 -291h-43l102 438h51zM315 920q0 -20 -13.5 -33t-33.5 -13q-18 0 -31.5 13t-13.5 33t13.5 32.5t31.5 12.5q20 0 33.5 -12.5t13.5 -32.5z" />
<glyph unicode="&#x3c;" horiz-adv-x="991" d="M827 412v-52l-729 330v53l729 330v-51l-677 -305z" />
<glyph unicode="=" horiz-adv-x="1099" d="M948 879h-796v47h796v-47zM948 508h-796v47h796v-47z" />
<glyph unicode="&#x3e;" horiz-adv-x="991" d="M893 690l-729 -330v52l678 305l-678 305v51l729 -330v-53z" />
<glyph unicode="?" horiz-adv-x="999" d="M502 383h-49q0 76 42 154t101.5 145.5t119.5 135.5t102 148t42 158q0 131 -105 206t-286 75q-204 0 -389 -115v49q174 115 393 115q199 0 318.5 -88t119.5 -240q0 -70 -30.5 -141t-75.5 -127.5t-98.5 -118.5t-98.5 -115t-75.5 -117t-30.5 -124zM522 33q0 -20 -13 -32.5 t-32 -12.5t-33 12.5t-14 32.5t14 32.5t33 12.5t32 -12.5t13 -32.5z" />
<glyph unicode="@" horiz-adv-x="2166" d="M106 492q0 149 41 289.5t124.5 262.5t200.5 213.5t278 144t348 52.5q151 0 286 -38t237.5 -103.5t185 -152.5t135 -185.5t80.5 -201.5t28 -202q0 -268 -100 -409.5t-262 -141.5q-126 0 -199.5 68.5t-79.5 200.5q-51 -100 -146 -160.5t-214 -60.5q-173 0 -286.5 115 t-113.5 304t113.5 304.5t286.5 115.5q120 0 214 -61t142 -158v201h47v-586q0 -112 61.5 -174.5t176.5 -62.5q140 0 224.5 131t84.5 374q0 114 -37 230.5t-113 225t-181 193t-253 135t-317 50.5q-176 0 -329 -49.5t-263.5 -136t-190 -202t-118.5 -249t-39 -276.5 q0 -171 52 -319.5t144 -256t216 -185t269 -115.5t302 -38q254 0 456 74v-49q-202 -74 -458 -74q-163 0 -315 40t-282.5 121t-227.5 194.5t-152.5 269.5t-55.5 338zM1403 606q-35 109 -130.5 181.5t-221.5 72.5q-153 0 -253 -101.5t-100 -271.5t100 -271t253 -101 q126 0 221.5 72.5t130.5 181.5v237z" />
<glyph unicode="A" horiz-adv-x="1441" d="M88 0h-55l659 1434h60l657 -1434h-55l-203 440h-860zM709 1352l-396 -863h820l-396 863q-6 12 -14 32q-8 -20 -14 -32z" />
<glyph unicode="B" horiz-adv-x="1380" d="M215 1434h516q220 0 349.5 -89.5t129.5 -269.5q0 -68 -24 -125.5t-65 -96.5t-91 -64t-106 -35q48 -8 91 -23t90.5 -44t82 -68t57 -99.5t23.5 -134.5q0 -71 -18.5 -128.5t-50 -96.5t-77.5 -69t-93 -47t-105 -27t-106.5 -13.5t-102.5 -3.5h-500v1434zM1217 389 q-1 83 -32.5 146.5t-77 98.5t-108 57t-113.5 29t-104 7h-516v-678h443q54 0 98.5 2.5t98.5 11t96.5 23.5t84.5 40.5t69.5 60.5t44 86.5t16.5 115.5zM1159 1071q0 161 -114 237t-316 76h-463v-608h537q92 0 172 33.5t132 102.5t52 159z" />
<glyph unicode="C" horiz-adv-x="1347" d="M109 698q0 146 42.5 271t114 212.5t166 150t199.5 92.5t213 30q230 0 401 -98v-51q-173 100 -395 100q-102 0 -200.5 -27.5t-187.5 -85.5t-156 -140t-106.5 -199.5t-39.5 -254.5q0 -133 40 -245t107 -189t156.5 -131t188.5 -79t202 -25q238 0 410 102v-51 q-171 -100 -418 -100q-109 0 -213.5 27t-199.5 85.5t-167 141t-114.5 202.5t-42.5 262z" />
<glyph unicode="D" horiz-adv-x="1495" d="M215 1434h408q152 0 277 -35t214 -98.5t150 -153t90.5 -197.5t29.5 -233t-29.5 -233t-90.5 -197.5t-150 -153t-214 -98.5t-277 -35h-408v1434zM1333 717q0 148 -44 269t-130 210.5t-222.5 138.5t-313.5 49h-357v-1335h357q177 0 313.5 49.5t222.5 139t130 210.5t44 269z " />
<glyph unicode="E" horiz-adv-x="1286" d="M215 1434h932v-50h-881v-639h819v-49h-819v-647h899v-49h-950v1434z" />
<glyph unicode="F" horiz-adv-x="1212" d="M215 1434h934v-50h-883v-653h824v-49h-824v-682h-51v1434z" />
<glyph unicode="G" horiz-adv-x="1454" d="M111 717q0 150 43 274.5t115 209t169.5 142.5t204.5 84.5t221 26.5q231 0 414 -94v-51q-86 45 -194.5 70.5t-215.5 25.5t-207 -24t-191.5 -78t-159.5 -132t-108 -195t-40 -259q0 -143 41 -260t109.5 -195.5t162 -131.5t195 -77t211.5 -24q213 0 385 82v637h51v-672 q-203 -96 -438 -96q-118 0 -227 26t-208.5 83.5t-172.5 141.5t-116.5 209t-43.5 277z" />
<glyph unicode="H" horiz-adv-x="1570" d="M1305 1434h51v-1434h-51v696h-1039v-696h-51v1434h51v-689h1039v689z" />
<glyph unicode="I" horiz-adv-x="481" d="M215 1434h51v-1434h-51v1434z" />
<glyph unicode="J" horiz-adv-x="1069" d="M346 1434h524v-1057q0 -195 -120 -296t-316 -101q-229 0 -366 88v51q139 -90 360 -90q178 0 284.5 87.5t106.5 260.5v1007h-473v50z" />
<glyph unicode="K" horiz-adv-x="1339" d="M266 0h-51v1434h51v-674h443l503 674h60l-520 -699l577 -735h-61l-561 711h-441v-711z" />
<glyph unicode="L" horiz-adv-x="1179" d="M215 1434h51v-1385h877v-49h-928v1434z" />
<glyph unicode="M" horiz-adv-x="1837" d="M1583 1434h39v-1434h-51v1331l-637 -930h-31l-637 930v-1331h-51v1434h39l664 -969z" />
<glyph unicode="N" horiz-adv-x="1570" d="M266 0h-51v1434h43l1047 -1344v123v1221h51v-1434h-45l-1045 1346v-123v-1223z" />
<glyph unicode="O" horiz-adv-x="1691" d="M106 717q0 108 28.5 212.5t89.5 199.5t146.5 167.5t208.5 115t267 42.5t266.5 -42.5t208.5 -115t146.5 -167.5t89 -199.5t28.5 -212.5t-28.5 -212.5t-89 -199.5t-146.5 -167.5t-208.5 -115t-266.5 -42.5t-267 42.5t-208.5 115t-146.5 167.5t-89.5 199.5t-28.5 212.5z M1534 717q0 102 -27 200t-83 186.5t-136 155.5t-194 106.5t-248 39.5t-248 -39.5t-194 -106.5t-136 -155.5t-83 -186.5t-27 -200t27 -200t83 -186.5t136 -155.5t194 -106.5t248 -39.5t248 39.5t194 106.5t136 155.5t83 186.5t27 200z" />
<glyph unicode="P" horiz-adv-x="1333" d="M215 1434h444q100 0 184.5 -13t162.5 -44.5t132.5 -81t86.5 -127.5t32 -179q0 -444 -598 -444h-393v-545h-51v1434zM1206 989q0 395 -544 395h-396v-790h396q544 0 544 395z" />
<glyph unicode="Q" horiz-adv-x="1691" d="M1589 -86l-33 -33l-247 246q-191 -147 -463 -147q-144 0 -267 42.5t-208.5 115t-146.5 167.5t-89.5 199.5t-28.5 212.5t28.5 212.5t89.5 199.5t146.5 167.5t208.5 115t267 42.5t266.5 -42.5t208.5 -115t146.5 -167.5t89 -199.5t28.5 -212.5q0 -158 -60.5 -306 t-178.5 -253zM158 717q0 -102 27 -200t83 -186.5t136 -155.5t194 -106.5t248 -39.5q253 0 428 135l-332 332l33 32l334 -333q110 97 167.5 235.5t57.5 286.5q0 102 -27 200t-83 186.5t-136 155.5t-194 106.5t-248 39.5t-248 -39.5t-194 -106.5t-136 -155.5t-83 -186.5 t-27 -200z" />
<glyph unicode="R" horiz-adv-x="1396" d="M266 0h-51v1434h539q74 0 143.5 -13.5t135.5 -45t115 -78t79 -118.5t30 -161q0 -104 -39.5 -184t-106.5 -127.5t-145.5 -72.5t-166.5 -30l549 -604h-64l-545 602h-473v-602zM266 1384v-733h490q84 0 160 19.5t143 60t107 114.5t40 173q0 79 -27 143t-70.5 104.5t-103 68 t-121.5 39t-128 11.5h-490z" />
<glyph unicode="S" horiz-adv-x="1153" d="M121 1108q0 87 38 155.5t102 109t142 61t164 20.5q108 0 217 -26t189 -70v-51q-79 46 -190 73t-214 25q-78 0 -147 -17t-126 -51.5t-90.5 -93.5t-33.5 -135q0 -72 31 -128.5t83 -93.5t119 -67t142 -54t149.5 -49t141.5 -59t119 -76.5t83 -107.5t31 -147q0 -91 -39 -160 t-106.5 -109t-151 -59t-180.5 -18q-131 0 -259.5 31t-228.5 87v52q103 -58 230.5 -89.5t253.5 -31.5q90 0 165 16t136 49t95 92t34 138q0 76 -31 135.5t-83 98t-119 69.5t-142 55.5t-149.5 49.5t-141.5 57.5t-119 73t-83 103t-31 142.5z" />
<glyph unicode="T" horiz-adv-x="1214" d="M31 1434h1153v-50h-551v-1384h-51v1384h-551v50z" />
<glyph unicode="U" horiz-adv-x="1533" d="M1286 1434h51v-940q0 -112 -29 -200t-79.5 -146.5t-123.5 -96.5t-156 -54.5t-181 -16.5q-99 0 -182.5 16.5t-156 54.5t-123.5 96.5t-80 146.5t-29 200v940h51v-938q0 -127 38.5 -219t110 -145.5t163.5 -78t208 -24.5t207 24.5t162.5 78t110 145.5t38.5 219v938z" />
<glyph unicode="V" horiz-adv-x="1386" d="M719 0h-51l-627 1434h55l598 -1377l598 1377h54z" />
<glyph unicode="W" horiz-adv-x="2021" d="M1907 1434h57l-459 -1434h-55l-440 1333l-439 -1333h-55l-459 1434h56l430 -1364l444 1347h47l443 -1347z" />
<glyph unicode="X" horiz-adv-x="1241" d="M84 0h-61l567 737l-537 697h62l506 -658l507 658h60l-537 -697l568 -737h-60l-538 696z" />
<glyph unicode="Y" horiz-adv-x="1280" d="M666 0h-52v582l-565 852h57l533 -803l532 803h58l-563 -852v-582z" />
<glyph unicode="Z" horiz-adv-x="1165" d="M1104 0h-1055v45l975 1339h-934v50h1000v-45l-977 -1340h991v-49z" />
<glyph unicode="[" horiz-adv-x="481" d="M442 -225h-282v1884h282v-49h-231v-1786h231v-49z" />
<glyph unicode="\" horiz-adv-x="821" d="M735 -117h-41l-608 1667h41z" />
<glyph unicode="]" horiz-adv-x="481" d="M322 -225h-283v49h231v1786h-231v49h283v-1884z" />
<glyph unicode="^" horiz-adv-x="991" d="M172 827h-55l356 607h45l356 -607h-53l-325 553z" />
<glyph unicode="_" horiz-adv-x="874" d="M874 -260h-874v49h874v-49z" />
<glyph unicode="`" horiz-adv-x="337" d="M285 1593h-58l-184 273h61z" />
<glyph unicode="a" horiz-adv-x="1103" d="M909 143q0 -100 107 -100q41 0 76 14v-43q-43 -16 -86 -16q-61 0 -103.5 34.5t-42.5 108.5v74q-69 -112 -188 -173.5t-256 -61.5q-87 0 -160.5 28.5t-123.5 94t-50 157.5q0 82 36 143.5t97.5 96.5t134 52t154.5 17q176 0 356 -61v106q0 159 -91.5 251.5t-262.5 92.5 q-184 0 -348 -61v49q163 58 350 58q193 0 297 -105t104 -289v-467zM131 262q0 -78 43.5 -134t108 -80.5t141.5 -24.5q135 0 253.5 67t182.5 191v182q-171 61 -352 61q-74 0 -138.5 -14t-119.5 -43.5t-87 -82t-32 -122.5z" />
<glyph unicode="b" horiz-adv-x="1255" d="M172 1434h49v-703q60 120 179 196.5t268 76.5q213 0 350 -140t137 -372t-137 -372t-350 -140q-150 0 -269 77t-182 199v-256h-45v1434zM1106 492q0 215 -124 340.5t-318 125.5q-155 0 -275.5 -90t-167.5 -227v-299q47 -137 167.5 -227t275.5 -90q194 0 318 126.5 t124 340.5z" />
<glyph unicode="c" horiz-adv-x="1009" d="M100 483q0 106 30.5 194.5t82 148t120 100.5t143 59.5t153.5 18.5q168 0 286 -80v-47q-118 81 -282 81q-92 0 -176 -28t-154 -83.5t-111.5 -149.5t-41.5 -214q0 -113 38.5 -203t103.5 -144.5t145.5 -82.5t170.5 -28q181 0 318 79v-49q-136 -75 -322 -75q-77 0 -149 18.5 t-137 58.5t-113 98t-76.5 142.5t-28.5 185.5z" />
<glyph unicode="d" horiz-adv-x="1255" d="M1034 1434h49v-1434h-45v256q-63 -122 -181.5 -199t-268.5 -77q-213 0 -350.5 140t-137.5 372t137.5 372t350.5 140q149 0 267.5 -76.5t178.5 -196.5v703zM1034 641q-48 137 -167 227t-275 90q-193 0 -317.5 -125.5t-124.5 -340.5q0 -214 124.5 -340.5t317.5 -126.5 q156 0 275 90t167 227v299z" />
<glyph unicode="e" horiz-adv-x="1116" d="M100 492q0 120 40.5 218.5t108 161.5t153 97.5t178.5 34.5q75 0 140 -18t111.5 -49t84.5 -73t59 -91t35.5 -102t14 -105.5t-6.5 -102.5h-868q3 -113 44.5 -199t111 -137t154 -76.5t181.5 -25.5q185 0 317 77v-49q-125 -73 -323 -73q-108 0 -202 30t-169.5 90t-119.5 161 t-44 231zM975 508q6 59 -3 119.5t-37 120.5t-72.5 106.5t-117 75t-163.5 28.5q-85 0 -161 -29.5t-136 -85t-96.5 -142t-38.5 -193.5h825z" />
<glyph unicode="f" horiz-adv-x="710" d="M266 0h-49v936h-168v47h168v170q0 80 26 140.5t71 94.5t98.5 50t115.5 16q145 0 234 -47v-47q-38 22 -100 35.5t-125 13.5q-119 0 -195 -61.5t-76 -196.5v-168h436v-47h-436v-936z" />
<glyph unicode="g" horiz-adv-x="1255" d="M100 492q0 232 137.5 372t350.5 140q149 0 268 -77t182 -200v256h45v-983q0 -97 -28 -176.5t-76.5 -133.5t-114.5 -90.5t-140 -53.5t-155 -17q-203 0 -385 92v49q187 -96 381 -96q95 0 177 25t149 74.5t105.5 133.5t37.5 193v254q-60 -121 -178 -197.5t-268 -76.5 q-213 0 -350.5 140t-137.5 372zM1034 641q-48 137 -167 227t-275 90q-193 0 -317.5 -125.5t-124.5 -340.5q0 -214 124.5 -340.5t317.5 -126.5q156 0 275 88.5t167 224.5v303z" />
<glyph unicode="h" d="M172 1434h49v-668q28 42 65 80t88.5 75.5t120 60t142.5 22.5q165 0 273 -108t108 -292v-604h-49v600q0 168 -95 263t-241 95q-75 0 -142.5 -23.5t-118 -63.5t-87.5 -84t-64 -93v-694h-49v1434z" />
<glyph unicode="i" horiz-adv-x="405" d="M227 0h-49v983h49v-983zM244 1260q0 -19 -12 -29t-29 -10t-29 10t-12 29t12.5 29.5t28.5 10.5t28.5 -10.5t12.5 -29.5z" />
<glyph unicode="j" horiz-adv-x="405" d="M227 -238q0 -65 -20.5 -112t-56 -72.5t-75.5 -37t-87 -11.5q-76 0 -140 22v48q64 -23 132 -23q40 0 73.5 9.5t62.5 30.5t45.5 59.5t16.5 91.5v1216h49v-1221zM244 1260q0 -39 -41 -39q-17 0 -29 10t-12 29t12.5 29.5t28.5 10.5q18 0 29.5 -10.5t11.5 -29.5z" />
<glyph unicode="k" horiz-adv-x="1003" d="M995 0h-59l-451 485h-264v-485h-49v1434h49v-902h268l390 451h59l-410 -477z" />
<glyph unicode="l" horiz-adv-x="405" d="M178 1495h49v-1495h-49v1495z" />
<glyph unicode="m" horiz-adv-x="1830" d="M221 0h-49v983h45v-209q26 40 62 77t85 73t112.5 58t131.5 22q117 0 203.5 -60.5t120.5 -163.5q67 91 167 157.5t224 66.5q156 0 252 -101.5t96 -261.5v-641h-49v639q0 139 -82.5 229t-220.5 90q-120 0 -215 -68t-156 -163q8 -36 8 -86v-641h-49v639q0 139 -82.5 229 t-220.5 90q-66 0 -128.5 -23t-110 -61.5t-83 -80t-61.5 -86.5v-707z" />
<glyph unicode="n" d="M217 762q27 42 64.5 81.5t90 77t121.5 60.5t144 23q165 0 273 -108t108 -292v-604h-49v600q0 168 -95 263t-241 95q-75 0 -142.5 -23.5t-118 -63.5t-87.5 -84t-64 -93v-694h-49v983h45v-221z" />
<glyph unicode="o" horiz-adv-x="1212" d="M100 492q0 119 42 217.5t112.5 162t161 98t190.5 34.5q101 0 191.5 -34.5t161 -98t112 -162t41.5 -217.5t-41.5 -217.5t-112 -162t-161 -98t-191.5 -34.5q-100 0 -190.5 34.5t-161 98t-112.5 162t-42 217.5zM1063 492q0 143 -64 250.5t-166.5 160.5t-226.5 53t-226.5 -53 t-166 -160t-63.5 -251q0 -108 37 -197.5t100 -147t145 -89t174 -31.5t174.5 31.5t145.5 89t100 147t37 197.5z" />
<glyph unicode="p" horiz-adv-x="1255" d="M217 727q63 123 182 200t269 77q213 0 350 -140t137 -372t-137 -372t-350 -140q-149 0 -268 76.5t-179 195.5v-703h-49v1434h45v-256zM1106 492q0 214 -123.5 340t-318.5 126q-155 0 -275.5 -90t-167.5 -227v-299q47 -137 167.5 -227t275.5 -90q194 0 318 126t124 341z " />
<glyph unicode="q" horiz-adv-x="1255" d="M100 492q0 232 137.5 372t350.5 140q149 0 268 -77t182 -200v256h45v-1434h-49v703q-60 -120 -178.5 -196t-267.5 -76q-213 0 -350.5 140t-137.5 372zM1034 641q-48 137 -167 227t-275 90q-193 0 -317.5 -126t-124.5 -340q0 -215 125 -341t317 -126q156 0 275 90t167 227 v299z" />
<glyph unicode="r" horiz-adv-x="688" d="M217 682q51 137 169.5 230t279.5 92v-50q-89 1 -167 -30t-133 -84.5t-91.5 -118.5t-53.5 -137v-584h-49v983h45v-301z" />
<glyph unicode="s" horiz-adv-x="925" d="M109 754q0 65 30 114.5t80.5 78.5t109.5 43t124 14q90 0 179 -23t154 -61v-50q-61 39 -152 63.5t-179 24.5q-77 0 -141.5 -19.5t-109 -66.5t-44.5 -116q0 -58 29.5 -101t77.5 -67t109 -45t125 -35t125 -37t109 -50.5t77.5 -76t29.5 -113.5q0 -86 -53.5 -144.5 t-133.5 -82.5t-180 -24q-99 0 -204.5 27t-170.5 71v49q71 -47 173.5 -74.5t199.5 -27.5q138 0 229 51.5t91 152.5q0 64 -37.5 109.5t-98 70.5t-133.5 44.5t-146 41t-133.5 50.5t-98 82t-37.5 127z" />
<glyph unicode="t" horiz-adv-x="741" d="M211 1307l49 16v-340h438v-47h-438v-657q0 -250 252 -250q121 0 211 49v-47q-84 -49 -221 -49q-139 0 -215 75t-76 215v664h-184v47h184v324z" />
<glyph unicode="u" d="M954 983h50v-983h-46v221q-27 -42 -64.5 -81t-89.5 -77t-121 -60.5t-144 -22.5q-167 0 -274 107t-107 292v604h49v-600q0 -169 93.5 -263.5t242.5 -94.5q75 0 142.5 23.5t118 63.5t87 84t63.5 93v694z" />
<glyph unicode="v" horiz-adv-x="1069" d="M969 983h55l-463 -983h-53l-463 983h55l435 -928z" />
<glyph unicode="w" horiz-adv-x="1634" d="M1528 983h51l-377 -983h-49l-336 903l-334 -903h-49l-379 983h54l350 -920l334 904h49l336 -904z" />
<glyph unicode="x" horiz-adv-x="987" d="M872 983h58l-406 -479l428 -504h-59l-399 469l-400 -469h-59l430 504l-408 479h60l377 -442z" />
<glyph unicode="y" horiz-adv-x="1085" d="M567 51l418 932h53l-522 -1163q-70 -158 -148 -224.5t-178 -66.5q-48 0 -100 12v45q50 -12 96 -12q92 0 160.5 64t128.5 204l68 154l-508 987h53z" />
<glyph unicode="z" horiz-adv-x="907" d="M90 983h729v-41l-694 -897h717v-45h-781v41l695 897h-666v45z" />
<glyph unicode="{" horiz-adv-x="530" d="M453 -180v-45q-207 -37 -207 186v528q0 98 -58.5 152.5t-130.5 52.5v45q72 -2 130.5 52.5t58.5 152.5v529q0 226 207 186v-45q-88 14 -122 -25t-34 -131v-516q0 -94 -43 -152t-107 -73q64 -15 107 -73t43 -152v-517q0 -92 34 -130.5t122 -24.5z" />
<glyph unicode="|" horiz-adv-x="370" d="M211 -205h-51v1864h51v-1864z" />
<glyph unicode="}" horiz-adv-x="530" d="M285 -39q0 -106 -50.5 -156t-156.5 -30v45q88 -14 121.5 24.5t33.5 130.5v517q0 94 43 152t107 73q-64 15 -107 73t-43 152v516q0 92 -33.5 131t-121.5 25v45q106 21 156.5 -29.5t50.5 -156.5v-529q0 -99 57.5 -153t130.5 -52v-45q-73 2 -130.5 -52t-57.5 -153v-528z" />
<glyph unicode="~" horiz-adv-x="1181" d="M1028 748q0 -74 -46 -121t-124 -47q-51 0 -126 22.5t-139 49t-138 49t-123 22.5q-60 0 -93.5 -34t-31.5 -89h-47q-2 76 44.5 123t123.5 47q65 0 165.5 -36t199.5 -71.5t161 -35.5q59 0 93 33t34 88h47z" />
<glyph unicode="&#xa1;" horiz-adv-x="368" d="M211 -442h-51l2 1089h45zM229 958q0 -20 -12.5 -32.5t-32.5 -12.5q-19 0 -32 12.5t-13 32.5t13 33t32 13q20 0 32.5 -13t12.5 -33z" />
<glyph unicode="&#xa2;" horiz-adv-x="1046" d="M643 25q167 7 291 79v-49q-123 -68 -291 -75v-226h-45v226q-76 2 -146 21.5t-133 60t-109.5 98t-73.5 140.5t-27 183q0 126 41.5 225t112 160t155.5 94.5t180 38.5v228h45v-225q162 0 281 -80v-47q-118 81 -281 81v-933zM598 956q-87 -6 -163.5 -37.5t-139.5 -87 t-100 -145.5t-37 -203q0 -110 36.5 -198t99 -143t140 -84.5t164.5 -32.5v931z" />
<glyph unicode="&#xa3;" horiz-adv-x="1247" d="M1145 0h-1067v49h63q78 0 123 52t45 147v422h-166v49h166v233q0 119 37.5 210.5t102 144.5t141.5 79.5t164 26.5q167 0 286 -80v-49q-125 80 -282 80q-80 0 -149 -23.5t-126 -71t-90 -129.5t-33 -190v-231h525v-49h-525v-422q0 -152 -96 -199h881v-49z" />
<glyph unicode="&#xa4;" horiz-adv-x="1173" d="M334 422l-133 -133l-35 35l131 131q-104 104 -104 262t104 262l-131 131l35 35l133 -133q109 86 252 86q145 0 254 -86l133 133l35 -35l-131 -131q104 -109 104 -262t-104 -262l131 -131l-35 -35l-133 133q-109 -86 -254 -86q-143 0 -252 86zM242 717q0 -148 101.5 -241 t244.5 -93q92 0 170.5 40.5t127 118t48.5 175.5q0 148 -101.5 241t-244.5 93q-144 0 -245 -92.5t-101 -241.5z" />
<glyph unicode="&#xa5;" horiz-adv-x="1273" d="M1143 1393h57l-512 -770h363v-45h-387v-201h387v-45h-387v-332h-52v332h-389v45h389v201h-389v45h363l-512 770h57l506 -762z" />
<glyph unicode="&#xa6;" horiz-adv-x="407" d="M229 956h-51v703h51v-703zM229 -205h-51v703h51v-703z" />
<glyph unicode="&#xa7;" horiz-adv-x="989" d="M856 172q0 -114 -102 -178t-252 -64q-98 0 -191 24.5t-155 68.5v45q64 -43 157.5 -68t186.5 -25q132 0 219.5 53t87.5 144q0 33 -10 61.5t-24 49.5t-41.5 40t-49 30.5t-62 25.5t-64.5 21t-71 20q-43 12 -59.5 16.5t-56 17t-57 20.5t-49.5 23t-47 28t-36 33t-30.5 41 t-17 48t-7.5 58q0 96 63 164.5t150 107.5q-92 36 -142.5 89.5t-50.5 141.5q0 77 47.5 134t122 84.5t164.5 27.5q88 0 175 -22t143 -58v-47q-59 37 -145.5 59.5t-170.5 22.5q-122 0 -204 -54t-82 -147q0 -44 19.5 -79.5t43.5 -57t75 -42.5t83 -30.5t99 -27.5q20 -5 30 -8 q62 -17 100 -29t88 -36t78 -50.5t48 -68.5t20 -95q0 -171 -230 -266q97 -36 152 -93.5t55 -152.5zM498 465q52 -13 94 -27q237 77 237 240q0 45 -17.5 80.5t-42 58.5t-68 43.5t-79 31.5t-92.5 26q-104 28 -137 38q-36 -11 -72 -31t-71 -49.5t-56.5 -72.5t-21.5 -92 q0 -26 6.5 -49t15 -41t27 -35t32 -28.5t42 -24.5t44.5 -19.5t52 -17.5t51.5 -15.5t55.5 -15.5z" />
<glyph unicode="&#xa8;" horiz-adv-x="565" d="M537 1710q0 -19 -14 -33t-34 -14q-19 0 -33 14t-14 33q0 20 14 33.5t33 13.5q20 0 34 -13.5t14 -33.5zM125 1710q0 -19 -13.5 -33t-33.5 -14q-19 0 -33 14t-14 33q0 20 14 33.5t33 13.5q20 0 33.5 -13.5t13.5 -33.5z" />
<glyph unicode="&#xa9;" horiz-adv-x="1751" d="M1636 717q0 -142 -45 -264t-120.5 -207.5t-174.5 -146.5t-206 -90t-216 -29q-108 0 -215.5 29t-205.5 90t-173.5 146.5t-120 207.5t-44.5 264t44.5 264t120 207.5t173.5 146.5t205.5 90t215.5 29q109 0 216 -29t206 -90t174.5 -146.5t120.5 -207.5t45 -264zM1171 377 q-124 -70 -270 -70q-75 0 -145 24t-127.5 70t-92 123.5t-34.5 175.5q0 108 37 192t98.5 133.5t135 75t153.5 25.5q141 0 245 -69v-43q-106 71 -241 71q-57 0 -111 -13.5t-104 -43.5t-87 -73.5t-59 -108.5t-22 -144q0 -89 30.5 -158.5t82 -111t115 -63t134.5 -21.5 q138 0 262 70v-41zM143 717q0 -137 43 -254t115.5 -199.5t167 -141t197.5 -86.5t208 -28t209 28t198.5 86.5t166.5 141t115 199.5t43 254t-43 254t-115 199t-166.5 140.5t-198.5 86.5t-209 28q-87 0 -173.5 -20t-168.5 -58.5t-152.5 -99t-123.5 -137t-83 -178t-30 -215.5z " />
<glyph unicode="&#xab;" horiz-adv-x="847" d="M709 141h-56l-241 342v17l241 342h56l-248 -350zM403 141h-55l-242 342v17l242 342h55l-247 -350z" />
<glyph unicode="&#xac;" horiz-adv-x="1179" d="M1024 618h-49v318h-821v47h870v-365z" />
<glyph unicode="&#xad;" horiz-adv-x="993" d="M145 520h703v-47h-703v47z" />
<glyph unicode="&#xae;" horiz-adv-x="1751" d="M1636 717q0 -142 -45 -264t-120.5 -207.5t-174.5 -146.5t-206 -90t-216 -29q-108 0 -215.5 29t-205.5 90t-173.5 146.5t-120 207.5t-44.5 264t44.5 264t120 207.5t173.5 146.5t205.5 90t215.5 29q109 0 216 -29t206 -90t174.5 -146.5t120.5 -207.5t45 -264zM143 717 q0 -137 43 -254t115.5 -199.5t167 -141t197.5 -86.5t208 -28t209 28t198.5 86.5t166.5 141t115 199.5t43 254t-43 254t-115 199t-166.5 140.5t-198.5 86.5t-209 28q-87 0 -173.5 -20t-168.5 -58.5t-152.5 -99t-123.5 -137t-83 -178t-30 -215.5zM651 305h-41v809h310 q36 0 71.5 -5.5t77 -22.5t72.5 -43.5t52 -72.5t21 -106q0 -101 -54 -153t-136 -68l238 -338h-45l-234 332q-25 -4 -68 -4h-264v-328zM651 1073v-399h264q259 0 259 190q0 52 -18.5 91.5t-45.5 61t-64 35t-67.5 17.5t-63.5 4h-264z" />
<glyph unicode="&#xaf;" horiz-adv-x="606" d="M45 1708h516v-47h-516v47z" />
<glyph unicode="&#xb0;" horiz-adv-x="794" d="M692 1182q0 -131 -87.5 -210t-207.5 -79t-207.5 79t-87.5 210t87.5 209.5t207.5 78.5t207.5 -78.5t87.5 -209.5zM143 1182q0 -113 75 -181.5t179 -68.5t179 68.5t75 181.5t-75 181.5t-179 68.5t-179 -68.5t-75 -181.5z" />
<glyph unicode="&#xb1;" horiz-adv-x="1196" d="M621 1165v-411h411v-47h-411v-412h-48v412h-411v47h411v411h48zM1032 0h-870v47h870v-47z" />
<glyph unicode="&#xb4;" horiz-adv-x="337" d="M117 1593h-58l181 273h61z" />
<glyph unicode="&#xb6;" horiz-adv-x="1208" d="M563 -451h-51v1057q-205 0 -321.5 110t-116.5 304t116.5 304t321.5 110h518v-1885h-51v1835h-416v-1835z" />
<glyph unicode="&#xb7;" horiz-adv-x="382" d="M238 489q0 -20 -13 -32.5t-32 -12.5q-21 0 -34.5 12.5t-13.5 32.5t14 33t34 13q19 0 32 -13t13 -33z" />
<glyph unicode="&#xb8;" horiz-adv-x="430" d="M184 0h45l-49 -197q97 23 174 -9.5t78 -108.5q2 -71 -58 -113.5t-173 -42.5q-116 0 -201 45v43q83 -45 197 -45q96 0 144 32t46 83q-1 65 -83 85.5t-177 -8.5z" />
<glyph unicode="&#xbb;" horiz-adv-x="847" d="M500 141h-56l248 351l-248 350h56l241 -342v-17zM195 141h-56l248 351l-248 350h56l241 -342v-17z" />
<glyph unicode="&#xbc;" horiz-adv-x="1875" d="M1575 836h49v-590h178v-41h-178v-205h-45v205h-489v39zM1579 246v526l-432 -526h432zM416 -23h-35l934 1477h35zM338 1393h33v-793h159v-43h-415v43h211v743l-191 -71v43z" />
<glyph unicode="&#xbd;" horiz-adv-x="1779" d="M408 -23h-35l934 1477h34zM1153 772q113 76 254 76q121 0 194.5 -55t73.5 -152q0 -51 -18.5 -93.5t-58 -79t-73 -59.5t-91.5 -57q-115 -68 -148 -94q-108 -83 -115 -201v-14h515v-43h-564v27q0 56 16 103.5t38.5 80t62 65.5t69 52t78.5 48q4 2 6.5 3.5t6 3.5t6.5 4 q113 68 149 100q76 67 76 154q0 76 -61.5 120t-163.5 44q-136 0 -252 -78v45zM330 1393h32v-793h160v-43h-416v43h211v743l-190 -71v43z" />
<glyph unicode="&#xbe;" horiz-adv-x="1976" d="M567 -23h-35l934 1477h35zM1673 836h49v-590h179v-41h-179v-205h-45v205h-489v39zM1677 246v526l-432 -526h432zM666 1192q0 -69 -40 -122t-118 -69q84 -17 138 -70t54 -145q0 -111 -78.5 -172t-205.5 -61q-179 0 -291 53v45q116 -55 289 -55q111 0 177 49.5t66 142.5 q0 96 -68.5 141.5t-176.5 45.5h-123v43h119q107 0 161 50t54 122q0 78 -61.5 129t-168.5 51q-135 0 -254 -55v45q112 53 258 53q123 0 196 -63t73 -158z" />
<glyph unicode="&#xbf;" horiz-adv-x="976" d="M905 -348q-183 -115 -393 -115q-199 0 -318.5 88t-119.5 240q0 70 30.5 141t75.5 127.5t98.5 118.5t98.5 115t75.5 117t30.5 124h49q0 -56 -22.5 -112.5t-58.5 -105.5t-79.5 -99t-86.5 -100t-79 -99.5t-58.5 -107.5t-22.5 -115q0 -132 105.5 -207.5t287.5 -75.5 q194 0 387 115v-49zM555 958q0 -20 -14 -32.5t-33 -12.5t-32 12.5t-13 32.5t13 33t32 13t33 -13t14 -33z" />
<glyph unicode="&#xc0;" horiz-adv-x="1441" d="M88 0h-55l659 1434h60l657 -1434h-55l-203 440h-860zM709 1352l-396 -863h820l-396 863q-6 12 -14 32q-8 -20 -14 -32zM788 1593h-57l-184 273h61z" />
<glyph unicode="&#xc1;" horiz-adv-x="1441" d="M88 0h-55l659 1434h60l657 -1434h-55l-203 440h-860zM709 1352l-396 -863h820l-396 863q-6 12 -14 32q-8 -20 -14 -32zM702 1593h-57l180 273h62z" />
<glyph unicode="&#xc2;" horiz-adv-x="1441" d="M88 0h-55l659 1434h60l657 -1434h-55l-203 440h-860zM709 1352l-396 -863h820l-396 863q-6 12 -14 32q-8 -20 -14 -32zM700 1849h43l261 -256h-60l-221 217l-221 -217h-60z" />
<glyph unicode="&#xc3;" horiz-adv-x="1441" d="M88 0h-55l659 1434h60l657 -1434h-55l-203 440h-860zM709 1352l-396 -863h820l-396 863q-6 12 -14 32q-8 -20 -14 -32zM1016 1763q8 -66 -23.5 -106.5t-93.5 -40.5q-47 0 -113 29t-129 57.5t-102 28.5q-42 0 -64 -29.5t-16 -75.5h-45q-9 64 24.5 107t92.5 43 q56 0 177.5 -57.5t166.5 -57.5q90 0 80 102h45z" />
<glyph unicode="&#xc4;" horiz-adv-x="1441" d="M88 0h-55l659 1434h60l657 -1434h-55l-203 440h-860zM709 1352l-396 -863h820l-396 863q-6 12 -14 32q-8 -20 -14 -32zM973 1710q0 -19 -13.5 -33t-33.5 -14q-19 0 -33 14t-14 33q0 20 14 33.5t33 13.5q20 0 33.5 -13.5t13.5 -33.5zM561 1710q0 -19 -13.5 -33t-33.5 -14 q-19 0 -33 14t-14 33q0 20 14 33.5t33 13.5q20 0 33.5 -13.5t13.5 -33.5z" />
<glyph unicode="&#xc5;" horiz-adv-x="1441" d="M88 0h-55l659 1434h60l657 -1434h-55l-203 440h-860zM709 1352l-396 -863h820l-396 863q-6 12 -14 32q-8 -20 -14 -32zM893 1720q0 -74 -51 -121t-121 -47t-122 47t-52 121q0 73 52 120.5t122 47.5t121 -47.5t51 -120.5zM588 1720q0 -58 39.5 -93.5t93.5 -35.5 q53 0 92 35.5t39 93.5q0 57 -39 93t-92 36t-93 -36.5t-40 -92.5z" />
<glyph unicode="&#xc6;" horiz-adv-x="2029" d="M1075 696v-647h834v-49h-883v442h-672l-317 -442h-60l1027 1434h892v-50h-821v-639h760v-49h-760zM385 489h639v891z" />
<glyph unicode="&#xc7;" horiz-adv-x="1347" d="M1264 131v-51q-163 -94 -396 -100l-45 -177q97 23 174 -9.5t78 -108.5q2 -71 -58 -113.5t-173 -42.5q-116 0 -201 45v43q83 -45 197 -45q96 0 144 32t46 83q-1 65 -83 85.5t-177 -8.5l53 216q-107 3 -208.5 32t-194 87.5t-161.5 141t-109.5 200.5t-40.5 257 q0 146 42.5 271t114 212.5t166 150t199.5 92.5t213 30q230 0 401 -98v-51q-173 100 -395 100q-102 0 -200.5 -27.5t-187.5 -85.5t-156 -140t-106.5 -199.5t-39.5 -254.5q0 -133 40 -245t107 -189t156.5 -131t188.5 -79t202 -25q238 0 410 102z" />
<glyph unicode="&#xc8;" horiz-adv-x="1286" d="M215 1434h932v-50h-881v-639h819v-49h-819v-647h899v-49h-950v1434zM750 1593h-58l-184 273h61z" />
<glyph unicode="&#xc9;" horiz-adv-x="1286" d="M215 1434h932v-50h-881v-639h819v-49h-819v-647h899v-49h-950v1434zM664 1593h-58l180 273h62z" />
<glyph unicode="&#xca;" horiz-adv-x="1286" d="M215 1434h932v-50h-881v-639h819v-49h-819v-647h899v-49h-950v1434zM662 1849h43l260 -256h-60l-221 217l-221 -217h-60z" />
<glyph unicode="&#xcb;" horiz-adv-x="1286" d="M215 1434h932v-50h-881v-639h819v-49h-819v-647h899v-49h-950v1434zM934 1710q0 -19 -13.5 -33t-33.5 -14q-19 0 -33 14t-14 33q0 20 14 33.5t33 13.5q20 0 33.5 -13.5t13.5 -33.5zM522 1710q0 -19 -13.5 -33t-33.5 -14q-19 0 -33 14t-14 33q0 20 14 33.5t33 13.5 q20 0 33.5 -13.5t13.5 -33.5z" />
<glyph unicode="&#xcc;" horiz-adv-x="481" d="M215 1434h51v-1434h-51v1434zM309 1593h-57l-184 273h61z" />
<glyph unicode="&#xcd;" horiz-adv-x="481" d="M215 1434h51v-1434h-51v1434zM223 1593h-57l180 273h62z" />
<glyph unicode="&#xce;" horiz-adv-x="481" d="M215 1434h51v-1434h-51v1434zM221 1849h43l260 -256h-59l-221 217l-221 -217h-60z" />
<glyph unicode="&#xcf;" horiz-adv-x="481" d="M215 1434h51v-1434h-51v1434zM494 1710q0 -19 -14 -33t-34 -14q-19 0 -33 14t-14 33q0 20 14 33.5t33 13.5q20 0 34 -13.5t14 -33.5zM82 1710q0 -19 -13.5 -33t-33.5 -14q-19 0 -33 14t-14 33q0 20 14 33.5t33 13.5q20 0 33.5 -13.5t13.5 -33.5z" />
<glyph unicode="&#xd0;" horiz-adv-x="1495" d="M215 1434h408q152 0 277 -35t214 -98.5t150 -153t90.5 -197.5t29.5 -233t-29.5 -233t-90.5 -197.5t-150 -153t-214 -98.5t-277 -35h-408v692h-164v47h164v695zM266 49h357q177 0 313.5 49.5t222.5 139t130 210.5t44 269t-44 269t-130 210.5t-222.5 138.5t-313.5 49h-357 v-645h496v-47h-496v-643z" />
<glyph unicode="&#xd1;" horiz-adv-x="1570" d="M266 0h-51v1434h43l1047 -1344v123v1221h51v-1434h-45l-1045 1346v-123v-1223zM1079 1763q8 -66 -23 -106.5t-93 -40.5q-47 0 -113.5 29t-129.5 57.5t-102 28.5q-42 0 -63.5 -29.5t-15.5 -75.5h-45q-9 64 24 107t92 43q56 0 177.5 -57.5t166.5 -57.5q90 0 80 102h45z" />
<glyph unicode="&#xd2;" horiz-adv-x="1691" d="M106 717q0 108 28.5 212.5t89.5 199.5t146.5 167.5t208.5 115t267 42.5t266.5 -42.5t208.5 -115t146.5 -167.5t89 -199.5t28.5 -212.5t-28.5 -212.5t-89 -199.5t-146.5 -167.5t-208.5 -115t-266.5 -42.5t-267 42.5t-208.5 115t-146.5 167.5t-89.5 199.5t-28.5 212.5z M1534 717q0 102 -27 200t-83 186.5t-136 155.5t-194 106.5t-248 39.5t-248 -39.5t-194 -106.5t-136 -155.5t-83 -186.5t-27 -200t27 -200t83 -186.5t136 -155.5t194 -106.5t248 -39.5t248 39.5t194 106.5t136 155.5t83 186.5t27 200zM913 1593h-57l-184 273h61z" />
<glyph unicode="&#xd3;" horiz-adv-x="1691" d="M106 717q0 108 28.5 212.5t89.5 199.5t146.5 167.5t208.5 115t267 42.5t266.5 -42.5t208.5 -115t146.5 -167.5t89 -199.5t28.5 -212.5t-28.5 -212.5t-89 -199.5t-146.5 -167.5t-208.5 -115t-266.5 -42.5t-267 42.5t-208.5 115t-146.5 167.5t-89.5 199.5t-28.5 212.5z M1534 717q0 102 -27 200t-83 186.5t-136 155.5t-194 106.5t-248 39.5t-248 -39.5t-194 -106.5t-136 -155.5t-83 -186.5t-27 -200t27 -200t83 -186.5t136 -155.5t194 -106.5t248 -39.5t248 39.5t194 106.5t136 155.5t83 186.5t27 200zM827 1593h-57l180 273h62z" />
<glyph unicode="&#xd4;" horiz-adv-x="1691" d="M106 717q0 108 28.5 212.5t89.5 199.5t146.5 167.5t208.5 115t267 42.5t266.5 -42.5t208.5 -115t146.5 -167.5t89 -199.5t28.5 -212.5t-28.5 -212.5t-89 -199.5t-146.5 -167.5t-208.5 -115t-266.5 -42.5t-267 42.5t-208.5 115t-146.5 167.5t-89.5 199.5t-28.5 212.5z M1534 717q0 102 -27 200t-83 186.5t-136 155.5t-194 106.5t-248 39.5t-248 -39.5t-194 -106.5t-136 -155.5t-83 -186.5t-27 -200t27 -200t83 -186.5t136 -155.5t194 -106.5t248 -39.5t248 39.5t194 106.5t136 155.5t83 186.5t27 200zM825 1849h43l260 -256h-59l-221 217 l-221 -217h-60z" />
<glyph unicode="&#xd5;" horiz-adv-x="1691" d="M106 717q0 108 28.5 212.5t89.5 199.5t146.5 167.5t208.5 115t267 42.5t266.5 -42.5t208.5 -115t146.5 -167.5t89 -199.5t28.5 -212.5t-28.5 -212.5t-89 -199.5t-146.5 -167.5t-208.5 -115t-266.5 -42.5t-267 42.5t-208.5 115t-146.5 167.5t-89.5 199.5t-28.5 212.5z M1534 717q0 102 -27 200t-83 186.5t-136 155.5t-194 106.5t-248 39.5t-248 -39.5t-194 -106.5t-136 -155.5t-83 -186.5t-27 -200t27 -200t83 -186.5t136 -155.5t194 -106.5t248 -39.5t248 39.5t194 106.5t136 155.5t83 186.5t27 200zM1141 1763q8 -66 -23.5 -106.5 t-93.5 -40.5q-47 0 -113 29t-129 57.5t-102 28.5q-42 0 -64 -29.5t-16 -75.5h-45q-9 64 24.5 107t92.5 43q56 0 177.5 -57.5t166.5 -57.5q90 0 80 102h45z" />
<glyph unicode="&#xd6;" horiz-adv-x="1691" d="M106 717q0 108 28.5 212.5t89.5 199.5t146.5 167.5t208.5 115t267 42.5t266.5 -42.5t208.5 -115t146.5 -167.5t89 -199.5t28.5 -212.5t-28.5 -212.5t-89 -199.5t-146.5 -167.5t-208.5 -115t-266.5 -42.5t-267 42.5t-208.5 115t-146.5 167.5t-89.5 199.5t-28.5 212.5z M1534 717q0 102 -27 200t-83 186.5t-136 155.5t-194 106.5t-248 39.5t-248 -39.5t-194 -106.5t-136 -155.5t-83 -186.5t-27 -200t27 -200t83 -186.5t136 -155.5t194 -106.5t248 -39.5t248 39.5t194 106.5t136 155.5t83 186.5t27 200zM1098 1710q0 -19 -13.5 -33t-33.5 -14 q-19 0 -33 14t-14 33q0 20 14 33.5t33 13.5q20 0 33.5 -13.5t13.5 -33.5zM686 1710q0 -19 -13.5 -33t-33.5 -14q-19 0 -33 14t-14 33q0 20 14 33.5t33 13.5q20 0 33.5 -13.5t13.5 -33.5z" />
<glyph unicode="&#xd7;" horiz-adv-x="911" d="M457 684l-277 -276l-33 34l275 275l-275 276l33 33l277 -274l274 274l33 -33l-275 -276l275 -275l-33 -34z" />
<glyph unicode="&#xd8;" horiz-adv-x="1691" d="M1477 1532l-166 -227q133 -106 203.5 -263t70.5 -325q0 -108 -28.5 -212.5t-89 -199.5t-146.5 -167.5t-208.5 -115t-266.5 -42.5q-240 0 -416 114l-139 -192h-53l157 217q-140 104 -214.5 265t-74.5 333q0 108 28.5 212.5t89.5 199.5t146.5 167.5t208.5 115t267 42.5 q249 0 430 -125l147 203h54zM846 1405q-134 0 -248 -39.5t-194 -106.5t-136 -155.5t-83 -186.5t-27 -200q0 -163 68.5 -312.5t199.5 -244.5l821 1130q-166 115 -401 115zM461 135q161 -106 385 -106q135 0 249.5 39.5t194 106.5t136 155.5t83.5 186.5t27 200q0 158 -65 304 t-189 243z" />
<glyph unicode="&#xd9;" horiz-adv-x="1533" d="M1286 1434h51v-940q0 -112 -29 -200t-79.5 -146.5t-123.5 -96.5t-156 -54.5t-181 -16.5q-99 0 -182.5 16.5t-156 54.5t-123.5 96.5t-80 146.5t-29 200v940h51v-938q0 -127 38.5 -219t110 -145.5t163.5 -78t208 -24.5t207 24.5t162.5 78t110 145.5t38.5 219v938zM842 1593 h-58l-184 273h62z" />
<glyph unicode="&#xda;" horiz-adv-x="1533" d="M1286 1434h51v-940q0 -112 -29 -200t-79.5 -146.5t-123.5 -96.5t-156 -54.5t-181 -16.5q-99 0 -182.5 16.5t-156 54.5t-123.5 96.5t-80 146.5t-29 200v940h51v-938q0 -127 38.5 -219t110 -145.5t163.5 -78t208 -24.5t207 24.5t162.5 78t110 145.5t38.5 219v938zM756 1593 h-58l181 273h61z" />
<glyph unicode="&#xdb;" horiz-adv-x="1533" d="M1286 1434h51v-940q0 -112 -29 -200t-79.5 -146.5t-123.5 -96.5t-156 -54.5t-181 -16.5q-99 0 -182.5 16.5t-156 54.5t-123.5 96.5t-80 146.5t-29 200v940h51v-938q0 -127 38.5 -219t110 -145.5t163.5 -78t208 -24.5t207 24.5t162.5 78t110 145.5t38.5 219v938zM754 1849 h43l260 -256h-60l-221 217l-221 -217h-59z" />
<glyph unicode="&#xdc;" horiz-adv-x="1533" d="M1286 1434h51v-940q0 -112 -29 -200t-79.5 -146.5t-123.5 -96.5t-156 -54.5t-181 -16.5q-99 0 -182.5 16.5t-156 54.5t-123.5 96.5t-80 146.5t-29 200v940h51v-938q0 -127 38.5 -219t110 -145.5t163.5 -78t208 -24.5t207 24.5t162.5 78t110 145.5t38.5 219v938z M1026 1710q0 -19 -13.5 -33t-33.5 -14q-19 0 -33 14t-14 33q0 20 14 33.5t33 13.5q20 0 33.5 -13.5t13.5 -33.5zM614 1710q0 -19 -13.5 -33t-33.5 -14q-19 0 -33 14t-14 33q0 20 14 33.5t33 13.5q20 0 33.5 -13.5t13.5 -33.5z" />
<glyph unicode="&#xdd;" horiz-adv-x="1280" d="M666 0h-52v582l-565 852h57l533 -803l532 803h58l-563 -852v-582zM623 1593h-58l180 273h62z" />
<glyph unicode="&#xde;" horiz-adv-x="1331" d="M266 1161h393q100 0 184.5 -12.5t162.5 -44.5t132.5 -81t86.5 -127t32 -179t-32 -179t-86.5 -127.5t-132.5 -81t-162.5 -44.5t-184.5 -13h-393v-272h-51v1434h51v-273zM266 322h396q544 0 544 395t-544 395h-396v-790z" />
<glyph unicode="&#xdf;" horiz-adv-x="1204" d="M1124 307q0 -83 -33.5 -147t-91.5 -102.5t-131 -58t-157 -19.5q-164 0 -269 65v45q111 -65 263 -65q105 0 186 28t132.5 93.5t51.5 162.5q0 66 -33.5 127.5t-81.5 107.5t-95.5 89t-81 88.5t-33.5 87.5q0 37 17 71.5t41 62.5t47.5 57.5t40.5 70.5t17 88q0 98 -85 174 t-228 76q-169 0 -274 -98.5t-105 -272.5v-1038h-49v1032q0 197 118.5 309.5t309.5 112.5q165 1 264 -88.5t99 -202.5q0 -50 -17 -93.5t-41 -73.5t-48 -57t-41 -58.5t-17 -65.5q0 -38 33.5 -80.5t81.5 -85t95.5 -91t81 -114t33.5 -137.5z" />
<glyph unicode="&#xe0;" horiz-adv-x="1103" d="M909 143q0 -100 107 -100q41 0 76 14v-43q-43 -16 -86 -16q-61 0 -103.5 34.5t-42.5 108.5v74q-69 -112 -188 -173.5t-256 -61.5q-87 0 -160.5 28.5t-123.5 94t-50 157.5q0 82 36 143.5t97.5 96.5t134 52t154.5 17q176 0 356 -61v106q0 159 -91.5 251.5t-262.5 92.5 q-184 0 -348 -61v49q163 58 350 58q193 0 297 -105t104 -289v-467zM131 262q0 -78 43.5 -134t108 -80.5t141.5 -24.5q135 0 253.5 67t182.5 191v182q-171 61 -352 61q-74 0 -138.5 -14t-119.5 -43.5t-87 -82t-32 -122.5zM582 1143h-58l-184 272h61z" />
<glyph unicode="&#xe1;" horiz-adv-x="1103" d="M909 143q0 -100 107 -100q41 0 76 14v-43q-43 -16 -86 -16q-61 0 -103.5 34.5t-42.5 108.5v74q-69 -112 -188 -173.5t-256 -61.5q-87 0 -160.5 28.5t-123.5 94t-50 157.5q0 82 36 143.5t97.5 96.5t134 52t154.5 17q176 0 356 -61v106q0 159 -91.5 251.5t-262.5 92.5 q-184 0 -348 -61v49q163 58 350 58q193 0 297 -105t104 -289v-467zM131 262q0 -78 43.5 -134t108 -80.5t141.5 -24.5q135 0 253.5 67t182.5 191v182q-171 61 -352 61q-74 0 -138.5 -14t-119.5 -43.5t-87 -82t-32 -122.5zM496 1143h-58l180 272h62z" />
<glyph unicode="&#xe2;" horiz-adv-x="1103" d="M909 143q0 -100 107 -100q41 0 76 14v-43q-43 -16 -86 -16q-61 0 -103.5 34.5t-42.5 108.5v74q-69 -112 -188 -173.5t-256 -61.5q-87 0 -160.5 28.5t-123.5 94t-50 157.5q0 82 36 143.5t97.5 96.5t134 52t154.5 17q176 0 356 -61v106q0 159 -91.5 251.5t-262.5 92.5 q-184 0 -348 -61v49q163 58 350 58q193 0 297 -105t104 -289v-467zM131 262q0 -78 43.5 -134t108 -80.5t141.5 -24.5q135 0 253.5 67t182.5 191v182q-171 61 -352 61q-74 0 -138.5 -14t-119.5 -43.5t-87 -82t-32 -122.5zM494 1399h43l260 -256h-60l-221 217l-221 -217h-59z " />
<glyph unicode="&#xe3;" horiz-adv-x="1103" d="M909 143q0 -100 107 -100q41 0 76 14v-43q-43 -16 -86 -16q-61 0 -103.5 34.5t-42.5 108.5v74q-69 -112 -188 -173.5t-256 -61.5q-87 0 -160.5 28.5t-123.5 94t-50 157.5q0 82 36 143.5t97.5 96.5t134 52t154.5 17q176 0 356 -61v106q0 159 -91.5 251.5t-262.5 92.5 q-184 0 -348 -61v49q163 58 350 58q193 0 297 -105t104 -289v-467zM131 262q0 -78 43.5 -134t108 -80.5t141.5 -24.5q135 0 253.5 67t182.5 191v182q-171 61 -352 61q-74 0 -138.5 -14t-119.5 -43.5t-87 -82t-32 -122.5zM809 1313q8 -66 -23.5 -107t-93.5 -41 q-47 0 -113 28.5t-129 57.5t-102 29q-42 0 -64 -29t-16 -75h-45q-9 64 24.5 106.5t92.5 42.5q56 0 177.5 -57.5t166.5 -57.5t65 27t15 76h45z" />
<glyph unicode="&#xe4;" horiz-adv-x="1103" d="M909 143q0 -100 107 -100q41 0 76 14v-43q-43 -16 -86 -16q-61 0 -103.5 34.5t-42.5 108.5v74q-69 -112 -188 -173.5t-256 -61.5q-87 0 -160.5 28.5t-123.5 94t-50 157.5q0 82 36 143.5t97.5 96.5t134 52t154.5 17q176 0 356 -61v106q0 159 -91.5 251.5t-262.5 92.5 q-184 0 -348 -61v49q163 58 350 58q193 0 297 -105t104 -289v-467zM131 262q0 -78 43.5 -134t108 -80.5t141.5 -24.5q135 0 253.5 67t182.5 191v182q-171 61 -352 61q-74 0 -138.5 -14t-119.5 -43.5t-87 -82t-32 -122.5zM766 1260q0 -19 -13.5 -33.5t-33.5 -14.5 q-19 0 -33 14.5t-14 33.5q0 20 14 33.5t33 13.5q20 0 33.5 -13.5t13.5 -33.5zM354 1260q0 -19 -13.5 -33.5t-33.5 -14.5q-19 0 -33 14.5t-14 33.5q0 20 14 33.5t33 13.5q20 0 33.5 -13.5t13.5 -33.5z" />
<glyph unicode="&#xe5;" horiz-adv-x="1103" d="M909 143q0 -100 107 -100q41 0 76 14v-43q-43 -16 -86 -16q-61 0 -103.5 34.5t-42.5 108.5v74q-69 -112 -188 -173.5t-256 -61.5q-87 0 -160.5 28.5t-123.5 94t-50 157.5q0 82 36 143.5t97.5 96.5t134 52t154.5 17q176 0 356 -61v106q0 159 -91.5 251.5t-262.5 92.5 q-184 0 -348 -61v49q163 58 350 58q193 0 297 -105t104 -289v-467zM131 262q0 -78 43.5 -134t108 -80.5t141.5 -24.5q135 0 253.5 67t182.5 191v182q-171 61 -352 61q-74 0 -138.5 -14t-119.5 -43.5t-87 -82t-32 -122.5zM686 1270q0 -74 -51 -121t-121 -47t-122 47t-52 121 q0 73 52 120.5t122 47.5t121 -47.5t51 -120.5zM381 1270q0 -58 39.5 -93.5t93.5 -35.5q53 0 92 35.5t39 93.5q0 57 -39 93t-92 36t-93 -36.5t-40 -92.5z" />
<glyph unicode="&#xe6;" horiz-adv-x="1855" d="M928 236q-88 -125 -223 -190.5t-285 -65.5q-66 0 -125 17t-107.5 50t-77 88t-28.5 125q0 82 36 143.5t98 96.5t135 52t157 17q186 0 362 -63v108q0 159 -91.5 251.5t-272.5 92.5q-184 0 -348 -61v49q163 58 350 58q182 0 284 -87.5t117 -242.5q43 154 165.5 242t268.5 88 q82 0 151 -23.5t115.5 -64t81.5 -94.5t49.5 -115t20 -126t-7.5 -128h-833q3 -88 31 -160t73.5 -121t106 -82.5t126.5 -49t136 -15.5q74 0 157 20.5t144 56.5v-47q-63 -36 -146.5 -55.5t-161.5 -19.5q-145 0 -269.5 64.5t-188.5 191.5zM131 262q0 -116 85.5 -177.5 t209.5 -61.5q140 0 267 63.5t214 185.5q-34 84 -37 191q-175 61 -358 61q-76 0 -141.5 -14t-120.5 -43.5t-87 -82t-32 -122.5zM1341 958q-82 0 -156 -30t-132.5 -86t-94.5 -145t-38 -199h790q9 82 -7 160.5t-57.5 147t-120 110.5t-184.5 42z" />
<glyph unicode="&#xe7;" horiz-adv-x="1011" d="M926 104v-49q-129 -72 -303 -75l-43 -177q64 12 119 5.5t92 -39.5t38 -84q2 -71 -58 -113.5t-173 -42.5q-116 0 -201 45v43q83 -45 199 -45q95 0 142.5 32t47.5 83q-1 65 -83 85.5t-177 -8.5l54 216q-95 4 -179.5 36.5t-152.5 92t-108 156t-40 218.5q0 106 30.5 194.5 t82 148t120 100.5t143 59.5t153.5 18.5q168 0 286 -80v-47q-118 81 -282 81q-92 0 -176 -28t-154 -83.5t-111.5 -149.5t-41.5 -214q0 -113 38.5 -203t103.5 -144.5t145.5 -82.5t170.5 -28q181 0 318 79z" />
<glyph unicode="&#xe8;" horiz-adv-x="1116" d="M100 492q0 120 40.5 218.5t108 161.5t153 97.5t178.5 34.5q75 0 140 -18t111.5 -49t84.5 -73t59 -91t35.5 -102t14 -105.5t-6.5 -102.5h-868q3 -113 44.5 -199t111 -137t154 -76.5t181.5 -25.5q185 0 317 77v-49q-125 -73 -323 -73q-108 0 -202 30t-169.5 90t-119.5 161 t-44 231zM975 508q6 59 -3 119.5t-37 120.5t-72.5 106.5t-117 75t-163.5 28.5q-85 0 -161 -29.5t-136 -85t-96.5 -142t-38.5 -193.5h825zM645 1143h-57l-185 272h62z" />
<glyph unicode="&#xe9;" horiz-adv-x="1116" d="M100 492q0 120 40.5 218.5t108 161.5t153 97.5t178.5 34.5q75 0 140 -18t111.5 -49t84.5 -73t59 -91t35.5 -102t14 -105.5t-6.5 -102.5h-868q3 -113 44.5 -199t111 -137t154 -76.5t181.5 -25.5q185 0 317 77v-49q-125 -73 -323 -73q-108 0 -202 30t-169.5 90t-119.5 161 t-44 231zM975 508q6 59 -3 119.5t-37 120.5t-72.5 106.5t-117 75t-163.5 28.5q-85 0 -161 -29.5t-136 -85t-96.5 -142t-38.5 -193.5h825zM559 1143h-57l180 272h61z" />
<glyph unicode="&#xea;" horiz-adv-x="1116" d="M100 492q0 120 40.5 218.5t108 161.5t153 97.5t178.5 34.5q75 0 140 -18t111.5 -49t84.5 -73t59 -91t35.5 -102t14 -105.5t-6.5 -102.5h-868q3 -113 44.5 -199t111 -137t154 -76.5t181.5 -25.5q185 0 317 77v-49q-125 -73 -323 -73q-108 0 -202 30t-169.5 90t-119.5 161 t-44 231zM975 508q6 59 -3 119.5t-37 120.5t-72.5 106.5t-117 75t-163.5 28.5q-85 0 -161 -29.5t-136 -85t-96.5 -142t-38.5 -193.5h825zM557 1399h43l260 -256h-59l-221 217l-222 -217h-59z" />
<glyph unicode="&#xeb;" horiz-adv-x="1116" d="M100 492q0 120 40.5 218.5t108 161.5t153 97.5t178.5 34.5q75 0 140 -18t111.5 -49t84.5 -73t59 -91t35.5 -102t14 -105.5t-6.5 -102.5h-868q3 -113 44.5 -199t111 -137t154 -76.5t181.5 -25.5q185 0 317 77v-49q-125 -73 -323 -73q-108 0 -202 30t-169.5 90t-119.5 161 t-44 231zM975 508q6 59 -3 119.5t-37 120.5t-72.5 106.5t-117 75t-163.5 28.5q-85 0 -161 -29.5t-136 -85t-96.5 -142t-38.5 -193.5h825zM829 1260q0 -19 -13.5 -33.5t-33.5 -14.5q-19 0 -33 14.5t-14 33.5q0 20 14 33.5t33 13.5q20 0 33.5 -13.5t13.5 -33.5zM418 1260 q0 -19 -13.5 -33.5t-33.5 -14.5q-19 0 -33 14.5t-14 33.5q0 20 14 33.5t33 13.5q20 0 33.5 -13.5t13.5 -33.5z" />
<glyph unicode="&#xec;" horiz-adv-x="407" d="M229 0h-49v983h49v-983zM295 1143h-51l-176 272h55z" />
<glyph unicode="&#xed;" horiz-adv-x="407" d="M178 983h49v-983h-49v983zM184 1143h-57l180 272h62z" />
<glyph unicode="&#xee;" horiz-adv-x="409" d="M184 1378h43l201 -235h-55l-166 196l-166 -196h-55zM180 983h49v-983h-49v983z" />
<glyph unicode="&#xef;" horiz-adv-x="409" d="M399 1260q0 -18 -12.5 -32t-32.5 -14q-18 0 -31.5 14t-13.5 32q0 19 13 32t32 13q20 0 32.5 -13t12.5 -32zM102 1260q0 -18 -13 -32t-32 -14q-18 0 -31.5 14t-13.5 32q0 19 13 32t32 13q20 0 32.5 -13t12.5 -32zM180 983h49v-983h-49v983z" />
<glyph unicode="&#xf0;" horiz-adv-x="1220" d="M1100 545q0 -258 -138.5 -411.5t-365.5 -153.5q-218 0 -357 131t-139 348q0 100 38.5 186.5t103.5 146.5t152.5 94t183.5 34q80 0 156.5 -24.5t142.5 -71t113 -122t63 -170.5v50q-2 129 -31.5 239.5t-75.5 189t-110.5 142t-131.5 103t-143 67.5l-244 -244l-30 31l229 227 q-150 49 -309 49v48q179 0 346 -60l172 174l31 -30l-160 -162q81 -32 150.5 -76.5t136 -114t113.5 -155.5t75.5 -205.5t28.5 -259.5zM150 459q0 -197 124 -314.5t322 -117.5q177 0 293 102.5t149 278.5q-2 114 -42 205t-105 146t-144 84t-165 29q-181 0 -306.5 -115.5 t-125.5 -297.5z" />
<glyph unicode="&#xf1;" d="M217 762q27 42 64.5 81.5t90 77t121.5 60.5t144 23q165 0 273 -108t108 -292v-604h-49v600q0 168 -95 263t-241 95q-75 0 -142.5 -23.5t-118 -63.5t-87.5 -84t-64 -93v-694h-49v983h45v-221zM879 1313q8 -66 -23.5 -107t-93.5 -41q-47 0 -113 28.5t-129 57.5t-102 29 q-42 0 -64 -29t-16 -75h-45q-9 64 24.5 106.5t92.5 42.5q56 0 177.5 -57.5t166.5 -57.5t65 27t15 76h45z" />
<glyph unicode="&#xf2;" horiz-adv-x="1212" d="M100 492q0 119 42 217.5t112.5 162t161 98t190.5 34.5q101 0 191.5 -34.5t161 -98t112 -162t41.5 -217.5t-41.5 -217.5t-112 -162t-161 -98t-191.5 -34.5q-100 0 -190.5 34.5t-161 98t-112.5 162t-42 217.5zM1063 492q0 143 -64 250.5t-166.5 160.5t-226.5 53t-226.5 -53 t-166 -160t-63.5 -251q0 -108 37 -197.5t100 -147t145 -89t174 -31.5t174.5 31.5t145.5 89t100 147t37 197.5zM674 1126h-58l-184 273h62z" />
<glyph unicode="&#xf3;" horiz-adv-x="1212" d="M100 492q0 119 42 217.5t112.5 162t161 98t190.5 34.5q101 0 191.5 -34.5t161 -98t112 -162t41.5 -217.5t-41.5 -217.5t-112 -162t-161 -98t-191.5 -34.5q-100 0 -190.5 34.5t-161 98t-112.5 162t-42 217.5zM1063 492q0 143 -64 250.5t-166.5 160.5t-226.5 53t-226.5 -53 t-166 -160t-63.5 -251q0 -108 37 -197.5t100 -147t145 -89t174 -31.5t174.5 31.5t145.5 89t100 147t37 197.5zM588 1126h-58l181 273h61z" />
<glyph unicode="&#xf4;" horiz-adv-x="1212" d="M100 492q0 119 42 217.5t112.5 162t161 98t190.5 34.5q101 0 191.5 -34.5t161 -98t112 -162t41.5 -217.5t-41.5 -217.5t-112 -162t-161 -98t-191.5 -34.5q-100 0 -190.5 34.5t-161 98t-112.5 162t-42 217.5zM1063 492q0 143 -64 250.5t-166.5 160.5t-226.5 53t-226.5 -53 t-166 -160t-63.5 -251q0 -108 37 -197.5t100 -147t145 -89t174 -31.5t174.5 31.5t145.5 89t100 147t37 197.5zM586 1382h43l260 -256h-60l-221 217l-221 -217h-59z" />
<glyph unicode="&#xf5;" horiz-adv-x="1212" d="M100 492q0 119 42 217.5t112.5 162t161 98t190.5 34.5q101 0 191.5 -34.5t161 -98t112 -162t41.5 -217.5t-41.5 -217.5t-112 -162t-161 -98t-191.5 -34.5q-100 0 -190.5 34.5t-161 98t-112.5 162t-42 217.5zM1063 492q0 143 -64 250.5t-166.5 160.5t-226.5 53t-226.5 -53 t-166 -160t-63.5 -251q0 -108 37 -197.5t100 -147t145 -89t174 -31.5t174.5 31.5t145.5 89t100 147t37 197.5zM901 1296q8 -66 -23.5 -106.5t-93.5 -40.5q-47 0 -113 28.5t-129 57.5t-102 29q-42 0 -64 -29.5t-16 -75.5h-45q-9 64 24.5 107t92.5 43q56 0 177.5 -57.5 t166.5 -57.5q90 0 80 102h45z" />
<glyph unicode="&#xf6;" horiz-adv-x="1212" d="M100 492q0 119 42 217.5t112.5 162t161 98t190.5 34.5q101 0 191.5 -34.5t161 -98t112 -162t41.5 -217.5t-41.5 -217.5t-112 -162t-161 -98t-191.5 -34.5q-100 0 -190.5 34.5t-161 98t-112.5 162t-42 217.5zM1063 492q0 143 -64 250.5t-166.5 160.5t-226.5 53t-226.5 -53 t-166 -160t-63.5 -251q0 -108 37 -197.5t100 -147t145 -89t174 -31.5t174.5 31.5t145.5 89t100 147t37 197.5zM858 1243q0 -19 -13.5 -33t-33.5 -14q-19 0 -33 14t-14 33q0 20 14 33.5t33 13.5q20 0 33.5 -13.5t13.5 -33.5zM446 1243q0 -19 -13.5 -33t-33.5 -14 q-19 0 -33 14t-14 33q0 20 14 33.5t33 13.5q20 0 33.5 -13.5t13.5 -33.5z" />
<glyph unicode="&#xf7;" horiz-adv-x="1314" d="M1149 692h-983v49h983v-49zM702 256q0 -20 -13.5 -32.5t-33.5 -12.5q-19 0 -32 12.5t-13 32.5t13 32.5t32 12.5q20 0 33.5 -12.5t13.5 -32.5zM702 1171q0 -20 -13.5 -32.5t-33.5 -12.5q-19 0 -32 12.5t-13 32.5t13 33t32 13q20 0 33.5 -13t13.5 -33z" />
<glyph unicode="&#xf8;" horiz-adv-x="1212" d="M1022 1112l-123 -194q99 -66 156 -174.5t57 -251.5q0 -119 -41.5 -217.5t-112 -162t-161 -98t-191.5 -34.5q-145 0 -264 67l-104 -166h-48l119 189q-97 66 -153 173.5t-56 248.5q0 119 42 217.5t112.5 162t161 98t190.5 34.5q140 0 260 -66l111 174h45zM606 956 q-124 0 -226.5 -53t-166 -160t-63.5 -251q0 -127 49.5 -224.5t136.5 -158.5l504 790q-108 57 -234 57zM371 88q104 -61 237 -61q123 0 225.5 53t167 161t64.5 251q0 129 -51 227.5t-140 159.5z" />
<glyph unicode="&#xf9;" d="M954 983h50v-983h-46v221q-27 -42 -64.5 -81t-89.5 -77t-121 -60.5t-144 -22.5q-167 0 -274 107t-107 292v604h49v-600q0 -169 93.5 -263.5t242.5 -94.5q75 0 142.5 23.5t118 63.5t87 84t63.5 93v694zM664 1143h-58l-184 272h61z" />
<glyph unicode="&#xfa;" d="M954 983h50v-983h-46v221q-27 -42 -64.5 -81t-89.5 -77t-121 -60.5t-144 -22.5q-167 0 -274 107t-107 292v604h49v-600q0 -169 93.5 -263.5t242.5 -94.5q75 0 142.5 23.5t118 63.5t87 84t63.5 93v694zM578 1143h-58l180 272h62z" />
<glyph unicode="&#xfb;" d="M954 983h50v-983h-46v221q-27 -42 -64.5 -81t-89.5 -77t-121 -60.5t-144 -22.5q-167 0 -274 107t-107 292v604h49v-600q0 -169 93.5 -263.5t242.5 -94.5q75 0 142.5 23.5t118 63.5t87 84t63.5 93v694zM575 1399h43l261 -256h-60l-221 217l-221 -217h-60z" />
<glyph unicode="&#xfc;" d="M954 983h50v-983h-46v221q-27 -42 -64.5 -81t-89.5 -77t-121 -60.5t-144 -22.5q-167 0 -274 107t-107 292v604h49v-600q0 -169 93.5 -263.5t242.5 -94.5q75 0 142.5 23.5t118 63.5t87 84t63.5 93v694zM848 1260q0 -19 -13.5 -33.5t-33.5 -14.5q-19 0 -33 14.5t-14 33.5 q0 20 14 33.5t33 13.5q20 0 33.5 -13.5t13.5 -33.5zM436 1260q0 -19 -13.5 -33.5t-33.5 -14.5q-19 0 -33 14.5t-14 33.5q0 20 14 33.5t33 13.5q20 0 33.5 -13.5t13.5 -33.5z" />
<glyph unicode="&#xfd;" horiz-adv-x="1085" d="M567 51l418 932h53l-522 -1163q-70 -158 -148 -224.5t-178 -66.5q-48 0 -100 12v45q50 -12 96 -12q92 0 160.5 64t128.5 204l68 154l-508 987h53zM510 1143h-57l180 272h61z" />
<glyph unicode="&#xfe;" horiz-adv-x="1255" d="M172 1434h49v-703q60 120 179 196.5t268 76.5q213 0 350 -140t137 -372t-137 -372t-350 -140q-149 0 -268 76.5t-179 195.5v-703h-49v1885zM1106 492q0 214 -123.5 340t-318.5 126q-155 0 -275.5 -90t-167.5 -227v-299q47 -137 167.5 -227t275.5 -90q194 0 318 126 t124 341z" />
<glyph unicode="&#xff;" horiz-adv-x="1085" d="M567 51l418 932h53l-522 -1163q-70 -158 -148 -224.5t-178 -66.5q-48 0 -100 12v45q50 -12 96 -12q92 0 160.5 64t128.5 204l68 154l-508 987h53zM780 1260q0 -19 -13.5 -33.5t-33.5 -14.5q-19 0 -33 14.5t-14 33.5q0 20 14 33.5t33 13.5q20 0 33.5 -13.5t13.5 -33.5z M369 1260q0 -19 -13.5 -33.5t-33.5 -14.5q-19 0 -33.5 14.5t-14.5 33.5q0 20 14.5 33.5t33.5 13.5q20 0 33.5 -13.5t13.5 -33.5z" />
<glyph unicode="&#x100;" horiz-adv-x="1441" d="M88 0h-55l659 1434h60l657 -1434h-55l-203 440h-860zM709 1352l-396 -863h820l-396 863q-6 12 -14 32q-8 -20 -14 -32zM463 1708h516v-47h-516v47z" />
<glyph unicode="&#x101;" horiz-adv-x="1103" d="M909 143q0 -100 107 -100q41 0 76 14v-43q-43 -16 -86 -16q-61 0 -103.5 34.5t-42.5 108.5v74q-69 -112 -188 -173.5t-256 -61.5q-87 0 -160.5 28.5t-123.5 94t-50 157.5q0 82 36 143.5t97.5 96.5t134 52t154.5 17q176 0 356 -61v106q0 159 -91.5 251.5t-262.5 92.5 q-184 0 -348 -61v49q163 58 350 58q193 0 297 -105t104 -289v-467zM131 262q0 -78 43.5 -134t108 -80.5t141.5 -24.5q135 0 253.5 67t182.5 191v182q-171 61 -352 61q-74 0 -138.5 -14t-119.5 -43.5t-87 -82t-32 -122.5zM256 1257h516v-47h-516v47z" />
<glyph unicode="&#x102;" horiz-adv-x="1441" d="M88 0h-55l659 1434h60l657 -1434h-55l-203 440h-860zM709 1352l-396 -863h820l-396 863q-6 12 -14 32q-8 -20 -14 -32zM975 1686q-99 -84 -254 -84t-254 84v53q106 -90 254 -90t254 90v-53z" />
<glyph unicode="&#x103;" horiz-adv-x="1103" d="M909 143q0 -100 107 -100q41 0 76 14v-43q-43 -16 -86 -16q-61 0 -103.5 34.5t-42.5 108.5v74q-69 -112 -188 -173.5t-256 -61.5q-87 0 -160.5 28.5t-123.5 94t-50 157.5q0 82 36 143.5t97.5 96.5t134 52t154.5 17q176 0 356 -61v106q0 159 -91.5 251.5t-262.5 92.5 q-184 0 -348 -61v49q163 58 350 58q193 0 297 -105t104 -289v-467zM131 262q0 -78 43.5 -134t108 -80.5t141.5 -24.5q135 0 253.5 67t182.5 191v182q-171 61 -352 61q-74 0 -138.5 -14t-119.5 -43.5t-87 -82t-32 -122.5zM768 1235q-99 -84 -254 -84t-254 84v53 q106 -90 254 -90t254 90v-53z" />
<glyph unicode="&#x104;" horiz-adv-x="1441" d="M1161 -305q0 -57 36.5 -90t102.5 -33q76 0 150 39v-43q-70 -39 -158 -39q-83 0 -130.5 43t-47.5 115q0 153 234 327l-197 426h-860l-203 -440h-55l659 1434h60l657 -1434q-248 -173 -248 -305zM709 1352l-394 -863h818l-396 863q-6 12 -14 32q-8 -20 -14 -32z" />
<glyph unicode="&#x105;" horiz-adv-x="1103" d="M424 23q135 0 253.5 67t182.5 191v182q-171 61 -352 61q-74 0 -138.5 -14t-119.5 -43.5t-87 -82t-32 -122.5q0 -78 43.5 -134t108 -80.5t141.5 -24.5zM1087 -395v-43q-53 -21 -112 -21q-84 0 -131 43.5t-47 116.5q0 144 215 297h-6q-61 0 -103.5 34.5t-42.5 108.5v74 q-69 -112 -188 -173.5t-256 -61.5q-87 0 -160.5 28.5t-123.5 94t-50 157.5q0 82 36 143.5t97.5 96.5t134 52t154.5 17q176 0 356 -61v106q0 159 -91.5 251.5t-262.5 92.5q-184 0 -348 -61v49q163 58 350 58q193 0 297 -105t104 -289v-467q0 -100 107 -100q41 0 76 14v-43 q-248 -173 -248 -305q0 -57 36.5 -90.5t102.5 -34.5q51 3 104 21z" />
<glyph unicode="&#x106;" horiz-adv-x="1347" d="M109 698q0 146 42.5 271t114 212.5t166 150t199.5 92.5t213 30q230 0 401 -98v-51q-173 100 -395 100q-102 0 -200.5 -27.5t-187.5 -85.5t-156 -140t-106.5 -199.5t-39.5 -254.5q0 -133 40 -245t107 -189t156.5 -131t188.5 -79t202 -25q238 0 410 102v-51 q-171 -100 -418 -100q-109 0 -213.5 27t-199.5 85.5t-167 141t-114.5 202.5t-42.5 262zM809 1593h-57l180 273h61z" />
<glyph unicode="&#x107;" horiz-adv-x="1009" d="M100 483q0 106 30.5 194.5t82 148t120 100.5t143 59.5t153.5 18.5q168 0 286 -80v-47q-118 81 -282 81q-92 0 -176 -28t-154 -83.5t-111.5 -149.5t-41.5 -214q0 -113 38.5 -203t103.5 -144.5t145.5 -82.5t170.5 -28q181 0 318 79v-49q-136 -75 -322 -75q-77 0 -149 18.5 t-137 58.5t-113 98t-76.5 142.5t-28.5 185.5zM586 1143h-58l181 272h61z" />
<glyph unicode="&#x10a;" horiz-adv-x="1347" d="M109 698q0 146 42.5 271t114 212.5t166 150t199.5 92.5t213 30q230 0 401 -98v-51q-173 100 -395 100q-102 0 -200.5 -27.5t-187.5 -85.5t-156 -140t-106.5 -199.5t-39.5 -254.5q0 -133 40 -245t107 -189t156.5 -131t188.5 -79t202 -25q238 0 410 102v-51 q-171 -100 -418 -100q-109 0 -213.5 27t-199.5 85.5t-167 141t-114.5 202.5t-42.5 262zM768 1673q0 26 16.5 42t40.5 16t41 -16t17 -42q0 -24 -17 -39.5t-41 -15.5t-40.5 15.5t-16.5 39.5z" />
<glyph unicode="&#x10b;" horiz-adv-x="1009" d="M100 483q0 106 30.5 194.5t82 148t120 100.5t143 59.5t153.5 18.5q168 0 286 -80v-47q-118 81 -282 81q-92 0 -176 -28t-154 -83.5t-111.5 -149.5t-41.5 -214q0 -113 38.5 -203t103.5 -144.5t145.5 -82.5t170.5 -28q181 0 318 79v-49q-136 -75 -322 -75q-77 0 -149 18.5 t-137 58.5t-113 98t-76.5 142.5t-28.5 185.5zM545 1223q0 26 16.5 41.5t40.5 15.5t40.5 -15.5t16.5 -41.5q0 -24 -16.5 -40t-40.5 -16t-40.5 16t-16.5 40z" />
<glyph unicode="&#x10c;" horiz-adv-x="1347" d="M109 698q0 146 42.5 271t114 212.5t166 150t199.5 92.5t213 30q230 0 401 -98v-51q-173 100 -395 100q-102 0 -200.5 -27.5t-187.5 -85.5t-156 -140t-106.5 -199.5t-39.5 -254.5q0 -133 40 -245t107 -189t156.5 -131t188.5 -79t202 -25q238 0 410 102v-51 q-171 -100 -418 -100q-109 0 -213.5 27t-199.5 85.5t-167 141t-114.5 202.5t-42.5 262zM1110 1829l-260 -256h-43l-258 256h59l221 -217l222 217h59z" />
<glyph unicode="&#x10d;" horiz-adv-x="1009" d="M100 483q0 106 30.5 194.5t82 148t120 100.5t143 59.5t153.5 18.5q168 0 286 -80v-47q-118 81 -282 81q-92 0 -176 -28t-154 -83.5t-111.5 -149.5t-41.5 -214q0 -113 38.5 -203t103.5 -144.5t145.5 -82.5t170.5 -28q181 0 318 79v-49q-136 -75 -322 -75q-77 0 -149 18.5 t-137 58.5t-113 98t-76.5 142.5t-28.5 185.5zM887 1378l-260 -256h-43l-258 256h59l221 -217l221 217h60z" />
<glyph unicode="&#x10e;" horiz-adv-x="1495" d="M215 1434h408q152 0 277 -35t214 -98.5t150 -153t90.5 -197.5t29.5 -233t-29.5 -233t-90.5 -197.5t-150 -153t-214 -98.5t-277 -35h-408v1434zM1333 717q0 148 -44 269t-130 210.5t-222.5 138.5t-313.5 49h-357v-1335h357q177 0 313.5 49.5t222.5 139t130 210.5t44 269z M987 1829l-260 -256h-43l-258 256h59l222 -217l221 217h59z" />
<glyph unicode="&#x10f;" horiz-adv-x="1255" d="M1257 1434h48l-43 -320h-41zM1034 1434h49v-1434h-45v256q-63 -122 -181.5 -199t-268.5 -77q-213 0 -350.5 140t-137.5 372t137.5 372t350.5 140q149 0 267.5 -76.5t178.5 -196.5v703zM1034 641q-48 137 -167 227t-275 90q-193 0 -317.5 -125.5t-124.5 -340.5 q0 -214 124.5 -340.5t317.5 -126.5q156 0 275 90t167 227v299z" />
<glyph unicode="&#x110;" horiz-adv-x="1495" d="M215 1434h408q152 0 277 -35t214 -98.5t150 -153t90.5 -197.5t29.5 -233t-29.5 -233t-90.5 -197.5t-150 -153t-214 -98.5t-277 -35h-408v692h-164v47h164v695zM266 49h357q177 0 313.5 49.5t222.5 139t130 210.5t44 269t-44 269t-130 210.5t-222.5 138.5t-313.5 49h-357 v-645h496v-47h-496v-643z" />
<glyph unicode="&#x111;" horiz-adv-x="1255" d="M1083 1255h160v-41h-160v-1214h-45v256q-63 -122 -181.5 -199t-268.5 -77q-213 0 -350.5 140t-137.5 372t137.5 372t350.5 140q149 0 267.5 -76.5t178.5 -196.5v483h-413v41h413v179h49v-179zM592 25q156 0 275 90t167 227v299q-48 137 -167 227t-275 90 q-193 0 -317.5 -125.5t-124.5 -340.5q0 -214 124.5 -340.5t317.5 -126.5z" />
<glyph unicode="&#x112;" horiz-adv-x="1286" d="M215 1434h932v-50h-881v-639h819v-49h-819v-647h899v-49h-950v1434zM424 1708h516v-47h-516v47z" />
<glyph unicode="&#x113;" horiz-adv-x="1116" d="M100 492q0 120 40.5 218.5t108 161.5t153 97.5t178.5 34.5q75 0 140 -18t111.5 -49t84.5 -73t59 -91t35.5 -102t14 -105.5t-6.5 -102.5h-868q3 -113 44.5 -199t111 -137t154 -76.5t181.5 -25.5q185 0 317 77v-49q-125 -73 -323 -73q-108 0 -202 30t-169.5 90t-119.5 161 t-44 231zM975 508q6 59 -3 119.5t-37 120.5t-72.5 106.5t-117 75t-163.5 28.5q-85 0 -161 -29.5t-136 -85t-96.5 -142t-38.5 -193.5h825zM319 1257h517v-47h-517v47z" />
<glyph unicode="&#x116;" horiz-adv-x="1286" d="M215 1434h932v-50h-881v-639h819v-49h-819v-647h899v-49h-950v1434zM623 1673q0 26 16.5 42t40.5 16t40.5 -16t16.5 -42q0 -24 -16.5 -39.5t-40.5 -15.5t-40.5 15.5t-16.5 39.5z" />
<glyph unicode="&#x117;" horiz-adv-x="1116" d="M100 492q0 120 40.5 218.5t108 161.5t153 97.5t178.5 34.5q75 0 140 -18t111.5 -49t84.5 -73t59 -91t35.5 -102t14 -105.5t-6.5 -102.5h-868q3 -113 44.5 -199t111 -137t154 -76.5t181.5 -25.5q185 0 317 77v-49q-125 -73 -323 -73q-108 0 -202 30t-169.5 90t-119.5 161 t-44 231zM975 508q6 59 -3 119.5t-37 120.5t-72.5 106.5t-117 75t-163.5 28.5q-85 0 -161 -29.5t-136 -85t-96.5 -142t-38.5 -193.5h825zM518 1223q0 26 16.5 41.5t40.5 15.5t41 -16t17 -41q0 -24 -17 -40t-41 -16t-40.5 16t-16.5 40z" />
<glyph unicode="&#x118;" horiz-adv-x="1286" d="M1165 49v-49q-262 -175 -262 -305q0 -58 34.5 -90.5t96.5 -32.5q58 0 131 27v-43q-64 -27 -139 -27q-81 0 -125.5 42.5t-44.5 115.5q0 149 244 313h-885v1434h932v-50h-881v-639h819v-49h-819v-647h899z" />
<glyph unicode="&#x119;" horiz-adv-x="1116" d="M940 -432q-70 -39 -158 -39q-83 -1 -130.5 42.5t-47.5 115.5q0 76 61.5 153.5t182.5 169.5q-88 -30 -213 -30q-108 0 -202 30t-169.5 90t-119.5 161t-44 231q0 120 40.5 218.5t108 161.5t153 97.5t178.5 34.5q75 0 140 -18t111.5 -49t84.5 -73t59 -91t35.5 -102 t14 -105.5t-6.5 -102.5h-868q3 -113 44.5 -199t111 -137t154 -76.5t181.5 -25.5q185 0 317 77v-49q-155 -115 -231 -199t-76 -159q0 -57 37 -90t103 -33q75 0 149 39v-43zM582 958q-85 0 -161 -29.5t-136 -85t-96.5 -142t-38.5 -193.5h825q6 59 -3 119.5t-37 120.5 t-72.5 106.5t-117 75t-163.5 28.5z" />
<glyph unicode="&#x11a;" horiz-adv-x="1286" d="M215 1434h932v-50h-881v-639h819v-49h-819v-647h899v-49h-950v1434zM965 1829l-260 -256h-43l-259 256h60l221 -217l221 217h60z" />
<glyph unicode="&#x11b;" horiz-adv-x="1116" d="M100 492q0 120 40.5 218.5t108 161.5t153 97.5t178.5 34.5q75 0 140 -18t111.5 -49t84.5 -73t59 -91t35.5 -102t14 -105.5t-6.5 -102.5h-868q3 -113 44.5 -199t111 -137t154 -76.5t181.5 -25.5q185 0 317 77v-49q-125 -73 -323 -73q-108 0 -202 30t-169.5 90t-119.5 161 t-44 231zM975 508q6 59 -3 119.5t-37 120.5t-72.5 106.5t-117 75t-163.5 28.5q-85 0 -161 -29.5t-136 -85t-96.5 -142t-38.5 -193.5h825zM860 1378l-260 -256h-43l-258 256h59l222 -217l221 217h59z" />
<glyph unicode="&#x11e;" horiz-adv-x="1454" d="M111 717q0 150 43 274.5t115 209t169.5 142.5t204.5 84.5t221 26.5q231 0 414 -94v-51q-86 45 -194.5 70.5t-215.5 25.5t-207 -24t-191.5 -78t-159.5 -132t-108 -195t-40 -259q0 -143 41 -260t109.5 -195.5t162 -131.5t195 -77t211.5 -24q213 0 385 82v637h51v-672 q-203 -96 -438 -96q-118 0 -227 26t-208.5 83.5t-172.5 141.5t-116.5 209t-43.5 277zM1087 1686q-99 -84 -253 -84q-155 0 -254 84v53q106 -90 254 -90q147 0 253 90v-53z" />
<glyph unicode="&#x11f;" horiz-adv-x="1255" d="M100 492q0 232 137.5 372t350.5 140q149 0 268 -77t182 -200v256h45v-983q0 -97 -28 -176.5t-76.5 -133.5t-114.5 -90.5t-140 -53.5t-155 -17q-203 0 -385 92v49q187 -96 381 -96q95 0 177 25t149 74.5t105.5 133.5t37.5 193v254q-60 -121 -178 -197.5t-268 -76.5 q-213 0 -350.5 140t-137.5 372zM1034 641q-48 137 -167 227t-275 90q-193 0 -317.5 -125.5t-124.5 -340.5q0 -214 124.5 -340.5t317.5 -126.5q156 0 275 88.5t167 224.5v303zM846 1235q-99 -84 -254 -84t-254 84v53q106 -90 254 -90t254 90v-53z" />
<glyph unicode="&#x120;" horiz-adv-x="1454" d="M111 717q0 150 43 274.5t115 209t169.5 142.5t204.5 84.5t221 26.5q231 0 414 -94v-51q-86 45 -194.5 70.5t-215.5 25.5t-207 -24t-191.5 -78t-159.5 -132t-108 -195t-40 -259q0 -143 41 -260t109.5 -195.5t162 -131.5t195 -77t211.5 -24q213 0 385 82v637h51v-672 q-203 -96 -438 -96q-118 0 -227 26t-208.5 83.5t-172.5 141.5t-116.5 209t-43.5 277zM774 1673q0 26 16.5 42t40.5 16t41 -16t17 -42q0 -24 -17 -39.5t-41 -15.5t-40.5 15.5t-16.5 39.5z" />
<glyph unicode="&#x121;" horiz-adv-x="1255" d="M100 492q0 232 137.5 372t350.5 140q149 0 268 -77t182 -200v256h45v-983q0 -97 -28 -176.5t-76.5 -133.5t-114.5 -90.5t-140 -53.5t-155 -17q-203 0 -385 92v49q187 -96 381 -96q95 0 177 25t149 74.5t105.5 133.5t37.5 193v254q-60 -121 -178 -197.5t-268 -76.5 q-213 0 -350.5 140t-137.5 372zM1034 641q-48 137 -167 227t-275 90q-193 0 -317.5 -125.5t-124.5 -340.5q0 -214 124.5 -340.5t317.5 -126.5q156 0 275 88.5t167 224.5v303zM532 1223q0 25 17 41t41 16t40.5 -15.5t16.5 -41.5q0 -24 -16.5 -40t-40.5 -16t-41 16t-17 40z " />
<glyph unicode="&#x122;" horiz-adv-x="1454" d="M111 717q0 150 43 274.5t115 209t169.5 142.5t204.5 84.5t221 26.5q231 0 414 -94v-51q-86 45 -194.5 70.5t-215.5 25.5t-207 -24t-191.5 -78t-159.5 -132t-108 -195t-40 -259q0 -143 41 -260t109.5 -195.5t162 -131.5t195 -77t211.5 -24q213 0 385 82v637h51v-672 q-203 -96 -438 -96q-118 0 -227 26t-208.5 83.5t-172.5 141.5t-116.5 209t-43.5 277zM848 -459h-45l41 340h49z" />
<glyph unicode="&#x123;" horiz-adv-x="1255" d="M627 1126h-47l45 312h41zM100 492q0 232 137.5 372t350.5 140q149 0 268 -77t182 -200v256h45v-983q0 -97 -28 -176.5t-76.5 -133.5t-114.5 -90.5t-140 -53.5t-155 -17q-203 0 -385 92v49q187 -96 381 -96q95 0 177 25t149 74.5t105.5 133.5t37.5 193v254 q-60 -121 -178 -197.5t-268 -76.5q-213 0 -350.5 140t-137.5 372zM1034 641q-48 137 -167 227t-275 90q-193 0 -317.5 -125.5t-124.5 -340.5q0 -214 124.5 -340.5t317.5 -126.5q156 0 275 88.5t167 224.5v303z" />
<glyph unicode="&#x126;" horiz-adv-x="1570" d="M266 0h-51v1065h-162v45h162v324h51v-324h1039v324h51v-324h162v-45h-162v-1065h-51v696h-1039v-696zM266 1065v-320h1039v320h-1039z" />
<glyph unicode="&#x127;" d="M221 766q28 42 65 80t88 75.5t119 60t142 22.5q166 0 274.5 -108t108.5 -292v-604h-49v600q0 168 -95 263t-241 95q-75 0 -142.5 -23.5t-118 -63.5t-87.5 -84t-64 -93v-694h-49v1210h-156v41h156v183h49v-183h416v-41h-416v-444z" />
<glyph unicode="&#x12a;" horiz-adv-x="481" d="M215 1434h51v-1434h-51v1434zM-16 1708h516v-47h-516v47z" />
<glyph unicode="&#x12b;" horiz-adv-x="409" d="M-20 1262h450v-48h-450v48zM180 983h49v-983h-49v983z" />
<glyph unicode="&#x12e;" horiz-adv-x="481" d="M119 -305q0 -57 38 -90t101 -33q61 0 139 35v-43q-68 -35 -147 -35q-82 0 -130 43t-48 115q0 77 36.5 153.5t106.5 167.5v1426h51v-1434q-71 -88 -109 -160t-38 -145z" />
<glyph unicode="&#x12f;" horiz-adv-x="407" d="M246 1260q0 -39 -41 -39q-17 0 -29 10t-12 29t12.5 29.5t28.5 10.5q18 0 29.5 -10.5t11.5 -29.5zM70 -305q0 -57 36.5 -90.5t102.5 -34.5q77 3 149 41v-43q-68 -41 -157 -41q-84 0 -131 43.5t-47 116.5q0 137 157 325v971h49v-983q-159 -179 -159 -305z" />
<glyph unicode="&#x130;" horiz-adv-x="481" d="M215 1434h51v-1434h-51v1434zM182 1673q0 26 17 42t41 16t40.5 -16t16.5 -42q0 -24 -16.5 -39.5t-40.5 -15.5t-41 15.5t-17 39.5z" />
<glyph unicode="&#x131;" horiz-adv-x="405" d="M178 983h49v-983h-49v983z" />
<glyph unicode="&#x132;" horiz-adv-x="1550" d="M215 1434h51v-1434h-51v1434zM827 1434h525v-1057q0 -195 -120.5 -296t-316.5 -101q-229 0 -366 88v51q139 -90 360 -90q178 0 284.5 87.5t106.5 260.5v1007h-473v50z" />
<glyph unicode="&#x133;" horiz-adv-x="811" d="M227 0h-49v983h49v-983zM244 1260q0 -19 -12 -29t-29 -10t-29 10t-12 29t12.5 29.5t28.5 10.5t28.5 -10.5t12.5 -29.5zM633 -238q0 -65 -20.5 -112t-56 -72.5t-76 -37t-87.5 -11.5q-75 0 -139 22v48q64 -23 131 -23q55 0 97 16t72 60.5t30 114.5v1216h49v-1221zM649 1260 q0 -39 -41 -39q-17 0 -29 10t-12 29t12.5 29.5t28.5 10.5q18 0 29.5 -10.5t11.5 -29.5z" />
<glyph unicode="&#x136;" horiz-adv-x="1339" d="M266 0h-51v1434h51v-674h443l503 674h60l-520 -699l577 -735h-61l-561 711h-441v-711zM715 -438h-45l41 340h49z" />
<glyph unicode="&#x137;" horiz-adv-x="1003" d="M995 0h-59l-451 485h-264v-485h-49v1434h49v-902h268l390 451h59l-410 -477zM537 -438h-45l40 340h50z" />
<glyph unicode="&#x139;" horiz-adv-x="1179" d="M215 1434h51v-1385h877v-49h-928v1434zM254 1593h-57l180 273h61z" />
<glyph unicode="&#x13a;" horiz-adv-x="405" d="M178 1495h49v-1495h-49v1495zM199 1610h-58l181 272h61z" />
<glyph unicode="&#x13b;" horiz-adv-x="1179" d="M215 1434h51v-1385h877v-49h-928v1434zM657 -438h-45l41 340h49z" />
<glyph unicode="&#x13c;" horiz-adv-x="405" d="M178 1495h49v-1495h-49v1495zM188 -438h-45l41 340h49z" />
<glyph unicode="&#x13d;" horiz-adv-x="1179" d="M768 1434h47l-43 -320h-41zM215 1434h51v-1385h877v-49h-928v1434z" />
<glyph unicode="&#x13e;" horiz-adv-x="407" d="M399 1495h47l-43 -319h-41zM178 1495h49v-1495h-49v1495z" />
<glyph unicode="&#x13f;" horiz-adv-x="1196" d="M754 684q0 -20 -13 -32.5t-32 -12.5t-33 12.5t-14 32.5t14 32.5t33 12.5t32 -12.5t13 -32.5zM215 1434h51v-1385h877v-49h-928v1434z" />
<glyph unicode="&#x140;" horiz-adv-x="473" d="M178 1495h49v-1495h-49v1495zM487 717q0 -20 -13 -32.5t-32 -12.5q-20 0 -33.5 12.5t-13.5 32.5t13.5 32.5t33.5 12.5q19 0 32 -12.5t13 -32.5z" />
<glyph unicode="&#x141;" horiz-adv-x="1185" d="M1149 0h-928v596l-196 -86v45l196 86v793h51v-772l496 219v-45l-496 -220v-567h877v-49z" />
<glyph unicode="&#x142;" horiz-adv-x="454" d="M205 1495h49v-698l182 80v-46l-182 -79v-752h-49v731l-182 -80v45l182 80v719z" />
<glyph unicode="&#x143;" horiz-adv-x="1570" d="M266 0h-51v1434h43l1047 -1344v123v1221h51v-1434h-45l-1045 1346v-123v-1223zM766 1593h-57l180 273h61z" />
<glyph unicode="&#x144;" d="M217 762q27 42 64.5 81.5t90 77t121.5 60.5t144 23q165 0 273 -108t108 -292v-604h-49v600q0 168 -95 263t-241 95q-75 0 -142.5 -23.5t-118 -63.5t-87.5 -84t-64 -93v-694h-49v983h45v-221zM565 1143h-57l180 272h62z" />
<glyph unicode="&#x145;" horiz-adv-x="1570" d="M266 0h-51v1434h43l1047 -1344v123v1221h51v-1434h-45l-1045 1346v-123v-1223zM786 -438h-45l41 340h49z" />
<glyph unicode="&#x146;" d="M217 762q27 42 64.5 81.5t90 77t121.5 60.5t144 23q165 0 273 -108t108 -292v-604h-49v600q0 168 -95 263t-241 95q-75 0 -142.5 -23.5t-118 -63.5t-87.5 -84t-64 -93v-694h-49v983h45v-221zM590 -438h-45l41 340h49z" />
<glyph unicode="&#x147;" horiz-adv-x="1570" d="M266 0h-51v1434h43l1047 -1344v123v1221h51v-1434h-45l-1045 1346v-123v-1223zM1067 1829l-260 -256h-43l-258 256h59l221 -217l222 217h59z" />
<glyph unicode="&#x148;" d="M217 762q27 42 64.5 81.5t90 77t121.5 60.5t144 23q165 0 273 -108t108 -292v-604h-49v600q0 168 -95 263t-241 95q-75 0 -142.5 -23.5t-118 -63.5t-87.5 -84t-64 -93v-694h-49v983h45v-221zM866 1378l-260 -256h-43l-258 256h60l221 -217l221 217h59z" />
<glyph unicode="&#x14a;" horiz-adv-x="1570" d="M1356 -236q0 -63 -20 -110.5t-55 -73.5t-76.5 -38.5t-90.5 -12.5q-71 0 -139 22v48q68 -21 131 -21q87 0 143 45t56 146v241l-1039 1336v-123v-1223h-51v1434h43l1047 -1344v123v1221h51v-1670z" />
<glyph unicode="&#x14b;" d="M1018 -238q0 -65 -20 -112t-55.5 -72.5t-75.5 -37t-87 -11.5q-77 0 -141 22v48q70 -25 131 -25q85 0 142 45.5t57 147.5v833q0 168 -95 263t-241 95q-75 0 -142.5 -23.5t-118 -63.5t-87.5 -84t-64 -93v-694h-49v983h45v-221q27 42 64.5 81.5t90 77t121.5 60.5t144 23 q165 0 273 -108t108 -292v-842z" />
<glyph unicode="&#x14c;" horiz-adv-x="1691" d="M106 717q0 108 28.5 212.5t89.5 199.5t146.5 167.5t208.5 115t267 42.5t266.5 -42.5t208.5 -115t146.5 -167.5t89 -199.5t28.5 -212.5t-28.5 -212.5t-89 -199.5t-146.5 -167.5t-208.5 -115t-266.5 -42.5t-267 42.5t-208.5 115t-146.5 167.5t-89.5 199.5t-28.5 212.5z M1534 717q0 102 -27 200t-83 186.5t-136 155.5t-194 106.5t-248 39.5t-248 -39.5t-194 -106.5t-136 -155.5t-83 -186.5t-27 -200t27 -200t83 -186.5t136 -155.5t194 -106.5t248 -39.5t248 39.5t194 106.5t136 155.5t83 186.5t27 200zM588 1708h516v-47h-516v47z" />
<glyph unicode="&#x14d;" horiz-adv-x="1212" d="M100 492q0 119 42 217.5t112.5 162t161 98t190.5 34.5q101 0 191.5 -34.5t161 -98t112 -162t41.5 -217.5t-41.5 -217.5t-112 -162t-161 -98t-191.5 -34.5q-100 0 -190.5 34.5t-161 98t-112.5 162t-42 217.5zM1063 492q0 143 -64 250.5t-166.5 160.5t-226.5 53t-226.5 -53 t-166 -160t-63.5 -251q0 -108 37 -197.5t100 -147t145 -89t174 -31.5t174.5 31.5t145.5 89t100 147t37 197.5zM348 1241h516v-47h-516v47z" />
<glyph unicode="&#x150;" horiz-adv-x="1691" d="M106 717q0 108 28.5 212.5t89.5 199.5t146.5 167.5t208.5 115t267 42.5t266.5 -42.5t208.5 -115t146.5 -167.5t89 -199.5t28.5 -212.5t-28.5 -212.5t-89 -199.5t-146.5 -167.5t-208.5 -115t-266.5 -42.5t-267 42.5t-208.5 115t-146.5 167.5t-89.5 199.5t-28.5 212.5z M1534 717q0 102 -27 200t-83 186.5t-136 155.5t-194 106.5t-248 39.5t-248 -39.5t-194 -106.5t-136 -155.5t-83 -186.5t-27 -200t27 -200t83 -186.5t136 -155.5t194 -106.5t248 -39.5t248 39.5t194 106.5t136 155.5t83 186.5t27 200zM1014 1593h-56l154 291h57zM702 1593 h-55l154 291h57z" />
<glyph unicode="&#x151;" horiz-adv-x="1212" d="M100 492q0 119 42 217.5t112.5 162t161 98t190.5 34.5q101 0 191.5 -34.5t161 -98t112 -162t41.5 -217.5t-41.5 -217.5t-112 -162t-161 -98t-191.5 -34.5q-100 0 -190.5 34.5t-161 98t-112.5 162t-42 217.5zM1063 492q0 143 -64 250.5t-166.5 160.5t-226.5 53t-226.5 -53 t-166 -160t-63.5 -251q0 -108 37 -197.5t100 -147t145 -89t174 -31.5t174.5 31.5t145.5 89t100 147t37 197.5zM774 1126h-55l153 291h58zM463 1126h-55l153 291h57z" />
<glyph unicode="&#x152;" horiz-adv-x="2099" d="M1096 0q-98 -20 -250 -20q-144 0 -267 42.5t-208.5 115t-146.5 167.5t-89.5 199.5t-28.5 212.5t28.5 212.5t89.5 199.5t146.5 167.5t208.5 115t267 42.5q152 0 250 -20h870v-50h-819v-639h758v-49h-758v-647h831v-49h-882zM160 717q0 -103 27.5 -202t84.5 -187 t137.5 -154.5t194 -105.5t246.5 -39q155 0 248 22v1331q-97 23 -248 23q-133 0 -246.5 -39t-194 -105.5t-137.5 -154.5t-84.5 -187t-27.5 -202z" />
<glyph unicode="&#x153;" horiz-adv-x="2035" d="M1069 342q-43 -171 -171.5 -266.5t-301.5 -95.5q-135 0 -246.5 58.5t-180.5 176.5t-69 277t69 277t180.5 176.5t246.5 58.5q173 0 302 -96.5t171 -270.5q42 168 167.5 267.5t276.5 99.5q74 0 137 -18t108.5 -49t81.5 -73.5t56.5 -92t34 -103.5t12 -108.5t-7.5 -106.5 h-839q2 -87 30.5 -159.5t74.5 -121.5t106.5 -82.5t125.5 -49t134 -15.5q177 0 309 77v-47q-129 -75 -315 -75q-64 0 -126 13t-121.5 41.5t-108 70t-84.5 102.5t-52 135zM150 492q0 -144 60.5 -251t160.5 -160.5t225 -53.5t226 53.5t161.5 160.5t60.5 251q0 109 -35 197.5 t-96 146.5t-142.5 89t-174.5 31t-173.5 -31t-141.5 -89t-96 -146.5t-35 -197.5zM1518 958q-80 0 -153.5 -30t-133 -86t-96.5 -145t-39 -199h798q6 63 -1.5 125t-34 123.5t-69.5 108t-112.5 75t-158.5 28.5z" />
<glyph unicode="&#x154;" horiz-adv-x="1396" d="M266 0h-51v1434h539q74 0 143.5 -13.5t135.5 -45t115 -78t79 -118.5t30 -161q0 -104 -39.5 -184t-106.5 -127.5t-145.5 -72.5t-166.5 -30l549 -604h-64l-545 602h-473v-602zM266 1384v-733h490q84 0 160 19.5t143 60t107 114.5t40 173q0 79 -27 143t-70.5 104.5t-103 68 t-121.5 39t-128 11.5h-490zM682 1593h-57l180 273h61z" />
<glyph unicode="&#x155;" horiz-adv-x="688" d="M217 682q51 137 169.5 230t279.5 92v-50q-89 1 -167 -30t-133 -84.5t-91.5 -118.5t-53.5 -137v-584h-49v983h45v-301zM365 1143h-58l180 272h62z" />
<glyph unicode="&#x156;" horiz-adv-x="1396" d="M266 0h-51v1434h539q74 0 143.5 -13.5t135.5 -45t115 -78t79 -118.5t30 -161q0 -104 -39.5 -184t-106.5 -127.5t-145.5 -72.5t-166.5 -30l549 -604h-64l-545 602h-473v-602zM266 1384v-733h490q84 0 160 19.5t143 60t107 114.5t40 173q0 79 -27 143t-70.5 104.5t-103 68 t-121.5 39t-128 11.5h-490zM727 -438h-45l41 340h49z" />
<glyph unicode="&#x157;" horiz-adv-x="688" d="M217 682q51 137 169.5 230t279.5 92v-50q-89 1 -167 -30t-133 -84.5t-91.5 -118.5t-53.5 -137v-584h-49v983h45v-301zM178 -438h-45l41 340h49z" />
<glyph unicode="&#x158;" horiz-adv-x="1396" d="M266 0h-51v1434h539q74 0 143.5 -13.5t135.5 -45t115 -78t79 -118.5t30 -161q0 -104 -39.5 -184t-106.5 -127.5t-145.5 -72.5t-166.5 -30l549 -604h-64l-545 602h-473v-602zM266 1384v-733h490q84 0 160 19.5t143 60t107 114.5t40 173q0 79 -27 143t-70.5 104.5t-103 68 t-121.5 39t-128 11.5h-490zM983 1829l-260 -256h-43l-258 256h59l221 -217l222 217h59z" />
<glyph unicode="&#x159;" horiz-adv-x="688" d="M217 682q51 137 169.5 230t279.5 92v-50q-89 1 -167 -30t-133 -84.5t-91.5 -118.5t-53.5 -137v-584h-49v983h45v-301zM666 1378l-260 -256h-44l-258 256h60l221 -217l221 217h60z" />
<glyph unicode="&#x15a;" horiz-adv-x="1153" d="M121 1108q0 87 38 155.5t102 109t142 61t164 20.5q108 0 217 -26t189 -70v-51q-79 46 -190 73t-214 25q-78 0 -147 -17t-126 -51.5t-90.5 -93.5t-33.5 -135q0 -72 31 -128.5t83 -93.5t119 -67t142 -54t149.5 -49t141.5 -59t119 -76.5t83 -107.5t31 -147q0 -91 -39 -160 t-106.5 -109t-151 -59t-180.5 -18q-131 0 -259.5 31t-228.5 87v52q103 -58 230.5 -89.5t253.5 -31.5q90 0 165 16t136 49t95 92t34 138q0 76 -31 135.5t-83 98t-119 69.5t-142 55.5t-149.5 49.5t-141.5 57.5t-119 73t-83 103t-31 142.5zM537 1593h-58l180 273h62z" />
<glyph unicode="&#x15b;" horiz-adv-x="925" d="M109 754q0 65 30 114.5t80.5 78.5t109.5 43t124 14q90 0 179 -23t154 -61v-50q-61 39 -152 63.5t-179 24.5q-77 0 -141.5 -19.5t-109 -66.5t-44.5 -116q0 -58 29.5 -101t77.5 -67t109 -45t125 -35t125 -37t109 -50.5t77.5 -76t29.5 -113.5q0 -86 -53.5 -144.5 t-133.5 -82.5t-180 -24q-99 0 -204.5 27t-170.5 71v49q71 -47 173.5 -74.5t199.5 -27.5q138 0 229 51.5t91 152.5q0 64 -37.5 109.5t-98 70.5t-133.5 44.5t-146 41t-133.5 50.5t-98 82t-37.5 127zM434 1143h-57l180 272h61z" />
<glyph unicode="&#x15e;" horiz-adv-x="1150" d="M172 1108q0 -72 31 -128.5t83 -93.5t119 -67t142 -54t149.5 -49t141.5 -59t119 -76.5t83 -107.5t31 -147q0 -88 -35.5 -154.5t-98.5 -106.5t-141 -61t-171 -24l-45 -177q97 23 173.5 -9.5t77.5 -108.5q2 -71 -58 -113.5t-173 -42.5q-116 0 -201 45v43q83 -45 197 -45 q96 0 144 32t46 83q-1 65 -83 85.5t-177 -8.5l54 216q-127 0 -252 31t-222 87v52q103 -58 230.5 -89.5t253.5 -31.5q90 0 165 16t136 49t95 92t34 138q0 76 -31 135.5t-83 98t-119 69.5t-142 55.5t-149.5 49.5t-141.5 57.5t-119 73t-83 103t-31 142.5q0 87 38 155.5t102 109 t142 61t164 20.5q108 0 217 -26t189 -70v-51q-79 46 -190 73t-214 25q-78 0 -147 -17t-126 -51.5t-90.5 -93.5t-33.5 -135z" />
<glyph unicode="&#x15f;" horiz-adv-x="925" d="M160 756q0 -58 29.5 -101t77.5 -67t109 -45t125 -35t125 -37t109 -50.5t77.5 -76t29.5 -113.5q0 -61 -27 -109t-74 -77.5t-106 -46t-127 -18.5l-37 -177q97 23 174 -9.5t78 -108.5q2 -71 -58 -113.5t-173 -42.5q-119 0 -201 45v43q80 -45 196 -45q96 0 144.5 32.5 t46.5 82.5q-1 65 -83 85.5t-177 -8.5l45 216q-98 2 -199.5 29t-163.5 69v49q71 -47 173.5 -74.5t199.5 -27.5q138 0 229 51.5t91 152.5q0 64 -37.5 109.5t-98 70.5t-133.5 44.5t-146 41t-133.5 50.5t-98 82t-37.5 127q0 65 30 114.5t80.5 78.5t109.5 43t124 14q90 0 179 -23 t154 -61v-50q-61 39 -152 63.5t-179 24.5q-77 0 -141.5 -19.5t-109 -66.5t-44.5 -116z" />
<glyph unicode="&#x160;" horiz-adv-x="1153" d="M121 1108q0 87 38 155.5t102 109t142 61t164 20.5q108 0 217 -26t189 -70v-51q-79 46 -190 73t-214 25q-78 0 -147 -17t-126 -51.5t-90.5 -93.5t-33.5 -135q0 -72 31 -128.5t83 -93.5t119 -67t142 -54t149.5 -49t141.5 -59t119 -76.5t83 -107.5t31 -147q0 -91 -39 -160 t-106.5 -109t-151 -59t-180.5 -18q-131 0 -259.5 31t-228.5 87v52q103 -58 230.5 -89.5t253.5 -31.5q90 0 165 16t136 49t95 92t34 138q0 76 -31 135.5t-83 98t-119 69.5t-142 55.5t-149.5 49.5t-141.5 57.5t-119 73t-83 103t-31 142.5zM838 1829l-260 -256h-43l-259 256h60 l221 -217l221 217h60z" />
<glyph unicode="&#x161;" horiz-adv-x="925" d="M109 754q0 65 30 114.5t80.5 78.5t109.5 43t124 14q90 0 179 -23t154 -61v-50q-61 39 -152 63.5t-179 24.5q-77 0 -141.5 -19.5t-109 -66.5t-44.5 -116q0 -58 29.5 -101t77.5 -67t109 -45t125 -35t125 -37t109 -50.5t77.5 -76t29.5 -113.5q0 -86 -53.5 -144.5 t-133.5 -82.5t-180 -24q-99 0 -204.5 27t-170.5 71v49q71 -47 173.5 -74.5t199.5 -27.5q138 0 229 51.5t91 152.5q0 64 -37.5 109.5t-98 70.5t-133.5 44.5t-146 41t-133.5 50.5t-98 82t-37.5 127zM735 1378l-260 -256h-43l-258 256h59l222 -217l221 217h59z" />
<glyph unicode="&#x162;" horiz-adv-x="1214" d="M31 1434h1153v-50h-551v-1384h-51v1384h-551v50zM592 -438h-45l41 340h49z" />
<glyph unicode="&#x163;" horiz-adv-x="741" d="M211 1307l49 16v-340h438v-47h-438v-657q0 -250 252 -250q121 0 211 49v-47q-84 -49 -221 -49q-139 0 -215 75t-76 215v664h-184v47h184v324zM463 -438h-45l41 340h49z" />
<glyph unicode="&#x164;" horiz-adv-x="1214" d="M31 1434h1153v-50h-551v-1384h-51v1384h-551v50zM893 1829l-260 -256h-43l-258 256h59l221 -217l222 217h59z" />
<glyph unicode="&#x165;" horiz-adv-x="741" d="M492 1495h47l-43 -315h-41zM211 1307l49 16v-340h438v-47h-438v-657q0 -250 252 -250q121 0 211 49v-47q-84 -49 -221 -49q-139 0 -215 75t-76 215v664h-184v47h184v324z" />
<glyph unicode="&#x166;" horiz-adv-x="1239" d="M645 0h-51v711h-287v45h287v628h-551v50h1153v-50h-551v-628h287v-45h-287v-711z" />
<glyph unicode="&#x167;" horiz-adv-x="743" d="M262 279q0 -250 252 -250q121 0 211 49v-47q-84 -49 -221 -49q-139 0 -215 75t-76 215v310h-117v45h117v309h-184v47h184v324l49 16v-340h438v-47h-438v-309h342v-45h-342v-303z" />
<glyph unicode="&#x16a;" horiz-adv-x="1533" d="M1286 1434h51v-940q0 -112 -29 -200t-79.5 -146.5t-123.5 -96.5t-156 -54.5t-181 -16.5q-99 0 -182.5 16.5t-156 54.5t-123.5 96.5t-80 146.5t-29 200v940h51v-938q0 -127 38.5 -219t110 -145.5t163.5 -78t208 -24.5t207 24.5t162.5 78t110 145.5t38.5 219v938zM516 1708 h516v-47h-516v47z" />
<glyph unicode="&#x16b;" d="M954 983h50v-983h-46v221q-27 -42 -64.5 -81t-89.5 -77t-121 -60.5t-144 -22.5q-167 0 -274 107t-107 292v604h49v-600q0 -169 93.5 -263.5t242.5 -94.5q75 0 142.5 23.5t118 63.5t87 84t63.5 93v694zM338 1257h516v-47h-516v47z" />
<glyph unicode="&#x16e;" horiz-adv-x="1533" d="M1286 1434h51v-940q0 -112 -29 -200t-79.5 -146.5t-123.5 -96.5t-156 -54.5t-181 -16.5q-99 0 -182.5 16.5t-156 54.5t-123.5 96.5t-80 146.5t-29 200v940h51v-938q0 -127 38.5 -219t110 -145.5t163.5 -78t208 -24.5t207 24.5t162.5 78t110 145.5t38.5 219v938zM946 1720 q0 -74 -51 -121t-121 -47t-122 47t-52 121q0 73 52 120.5t122 47.5t121 -47.5t51 -120.5zM641 1720q0 -58 39.5 -93.5t93.5 -35.5q53 0 92 35.5t39 93.5q0 57 -39 93t-92 36t-93 -36.5t-40 -92.5z" />
<glyph unicode="&#x16f;" d="M954 983h50v-983h-46v221q-27 -42 -64.5 -81t-89.5 -77t-121 -60.5t-144 -22.5q-167 0 -274 107t-107 292v604h49v-600q0 -169 93.5 -263.5t242.5 -94.5q75 0 142.5 23.5t118 63.5t87 84t63.5 93v694zM768 1270q0 -74 -51 -121t-121 -47t-122 47t-52 121q0 73 52 120.5 t122 47.5t121 -47.5t51 -120.5zM463 1270q0 -58 39.5 -93.5t93.5 -35.5q53 0 92 35.5t39 93.5q0 57 -39 93t-92 36t-93 -36.5t-40 -92.5z" />
<glyph unicode="&#x170;" horiz-adv-x="1533" d="M1286 1434h51v-940q0 -112 -29 -200t-79.5 -146.5t-123.5 -96.5t-156 -54.5t-181 -16.5q-99 0 -182.5 16.5t-156 54.5t-123.5 96.5t-80 146.5t-29 200v940h51v-938q0 -127 38.5 -219t110 -145.5t163.5 -78t208 -24.5t207 24.5t162.5 78t110 145.5t38.5 219v938zM942 1593 h-55l153 291h58zM631 1593h-56l154 291h57z" />
<glyph unicode="&#x171;" d="M954 983h50v-983h-46v221q-27 -42 -64.5 -81t-89.5 -77t-121 -60.5t-144 -22.5q-167 0 -274 107t-107 292v604h49v-600q0 -169 93.5 -263.5t242.5 -94.5q75 0 142.5 23.5t118 63.5t87 84t63.5 93v694zM764 1143h-55l153 291h58zM453 1143h-56l154 291h57z" />
<glyph unicode="&#x172;" horiz-adv-x="1533" d="M1176 -430q-68 -41 -156 -41q-84 0 -131 43.5t-47 116.5q0 70 50.5 162.5t127.5 164.5q-104 -36 -252 -36q-99 0 -182.5 16.5t-156 54.5t-123.5 96.5t-80 146.5t-29 200v940h51v-938q0 -127 38.5 -219t110 -145.5t163.5 -78t208 -24.5t207 24.5t162.5 78t110 145.5 t38.5 219v938h51v-940q0 -286 -188 -418q-115 -79 -187.5 -188.5t-72.5 -190.5q0 -58 36 -91t103 -34q79 3 148 41v-43z" />
<glyph unicode="&#x173;" d="M1004 983v-983q-57 -49 -92 -82t-71 -74.5t-52.5 -80t-16.5 -76.5q0 -56 32.5 -85.5t90.5 -29.5q59 0 109 20v-43q-50 -20 -117 -20q-74 0 -118 39.5t-44 109.5q0 79 56 157t177 179v207q-27 -42 -64.5 -81t-89.5 -77t-121 -60.5t-144 -22.5q-167 0 -274 107t-107 292 v604h49v-600q0 -169 93.5 -263.5t242.5 -94.5q75 0 142.5 23.5t118 63.5t87 84t63.5 93v694h50z" />
<glyph unicode="&#x174;" horiz-adv-x="2021" d="M1907 1434h57l-459 -1434h-55l-440 1333l-439 -1333h-55l-459 1434h56l430 -1364l444 1347h47l443 -1347zM989 1849h43l260 -256h-59l-221 217l-221 -217h-60z" />
<glyph unicode="&#x175;" horiz-adv-x="1634" d="M1528 983h51l-377 -983h-49l-336 903l-334 -903h-49l-379 983h54l350 -920l334 904h49l336 -904zM797 1399h43l260 -256h-60l-221 217l-221 -217h-59z" />
<glyph unicode="&#x176;" horiz-adv-x="1280" d="M666 0h-52v582l-565 852h57l533 -803l532 803h58l-563 -852v-582zM621 1849h43l260 -256h-60l-221 217l-221 -217h-60z" />
<glyph unicode="&#x177;" horiz-adv-x="1085" d="M567 51l418 932h53l-522 -1163q-70 -158 -148 -224.5t-178 -66.5q-48 0 -100 12v45q50 -12 96 -12q92 0 160.5 64t128.5 204l68 154l-508 987h53zM508 1399h43l260 -256h-59l-222 217l-221 -217h-59z" />
<glyph unicode="&#x178;" horiz-adv-x="1280" d="M666 0h-52v582l-565 852h57l533 -803l532 803h58l-563 -852v-582zM893 1710q0 -19 -13.5 -33t-33.5 -14q-19 0 -33 14t-14 33q0 20 14 33.5t33 13.5q20 0 33.5 -13.5t13.5 -33.5zM481 1710q0 -19 -13.5 -33t-33.5 -14q-19 0 -33 14t-14 33q0 20 14 33.5t33 13.5 q20 0 33.5 -13.5t13.5 -33.5z" />
<glyph unicode="&#x179;" horiz-adv-x="1165" d="M1104 0h-1055v45l975 1339h-934v50h1000v-45l-977 -1340h991v-49zM569 1593h-57l180 273h62z" />
<glyph unicode="&#x17a;" horiz-adv-x="907" d="M90 983h729v-41l-694 -897h717v-45h-781v41l695 897h-666v45zM461 1143h-58l181 272h61z" />
<glyph unicode="&#x17b;" horiz-adv-x="1165" d="M1104 0h-1055v45l975 1339h-934v50h1000v-45l-977 -1340h991v-49zM528 1673q0 26 17 42t41 16t40.5 -16t16.5 -42q0 -24 -16.5 -39.5t-40.5 -15.5t-41 15.5t-17 39.5z" />
<glyph unicode="&#x17c;" horiz-adv-x="907" d="M90 983h729v-41l-694 -897h717v-45h-781v41l695 897h-666v45zM420 1223q0 26 16.5 41.5t40.5 15.5t41 -16t17 -41q0 -24 -17 -40t-41 -16t-40.5 16t-16.5 40z" />
<glyph unicode="&#x17d;" horiz-adv-x="1165" d="M1104 0h-1055v45l975 1339h-934v50h1000v-45l-977 -1340h991v-49zM870 1829l-260 -256h-43l-258 256h60l221 -217l221 217h59z" />
<glyph unicode="&#x17e;" horiz-adv-x="907" d="M90 983h729v-41l-694 -897h717v-45h-781v41l695 897h-666v45zM762 1378l-260 -256h-43l-258 256h59l221 -217l221 217h60z" />
<glyph unicode="&#x2c6;" horiz-adv-x="528" d="M242 1849h43l260 -256h-60l-221 217l-221 -217h-59z" />
<glyph unicode="&#x2da;" horiz-adv-x="409" d="M377 1720q0 -74 -51 -121t-121 -47t-122 47t-52 121q0 73 52 120.5t122 47.5t121 -47.5t51 -120.5zM72 1720q0 -58 39.5 -93.5t93.5 -35.5q53 0 92 35.5t39 93.5q0 57 -39 93t-92 36t-93 -36.5t-40 -92.5z" />
<glyph unicode="&#x2dc;" horiz-adv-x="630" d="M606 1763q8 -66 -23.5 -106.5t-93.5 -40.5q-47 0 -113 29t-129 57.5t-102 28.5q-42 0 -63.5 -29.5t-15.5 -75.5h-46q-9 64 24.5 107t92.5 43q56 0 177.5 -57.5t166.5 -57.5q90 0 80 102h45z" />
<glyph unicode="&#x401;" horiz-adv-x="1284" d="M934 1710q0 -19 -13.5 -33t-33.5 -14q-19 0 -33 14t-14 33q0 20 14 33.5t33 13.5q20 0 33.5 -13.5t13.5 -33.5zM522 1710q0 -19 -13.5 -33t-33.5 -14q-19 0 -33 14t-14 33q0 20 14 33.5t33 13.5q20 0 33.5 -13.5t13.5 -33.5zM215 1434h932v-50h-881v-639h819v-49h-819 v-647h899v-49h-950v1434z" />
<glyph unicode="&#x410;" horiz-adv-x="1441" d="M88 0h-55l659 1434h60l657 -1434h-55l-203 440h-860zM709 1352l-396 -863h820l-396 863q-6 12 -14 32q-8 -20 -14 -32z" />
<glyph unicode="&#x411;" horiz-adv-x="1343" d="M266 809h408q70 0 128 -4t119.5 -15.5t109.5 -30.5t91.5 -50t72 -72.5t45.5 -100t17 -130.5q0 -100 -32.5 -174.5t-84.5 -118t-131 -70t-157 -35t-178 -8.5h-459v1434h938v-50h-887v-575zM266 49h410q66 0 119 3.5t109.5 13.5t100 26.5t83 43.5t65 64t40.5 89t15 117 q0 90 -29.5 155.5t-76 103t-119 59.5t-143 29t-164.5 7h-410v-711z" />
<glyph unicode="&#x412;" horiz-adv-x="1382" d="M215 1434h516q220 0 349.5 -89.5t129.5 -269.5q0 -68 -24 -125.5t-65 -96.5t-91 -64t-106 -35q48 -8 91 -23t90.5 -44t82 -68t57 -99.5t23.5 -134.5q0 -71 -18.5 -128.5t-50 -96.5t-77.5 -69t-93 -47t-105 -27t-106.5 -13.5t-102.5 -3.5h-500v1434zM1217 389 q-1 83 -32.5 146.5t-77 98.5t-108 57t-113.5 29t-104 7h-516v-678h443q54 0 98.5 2.5t98.5 11t96.5 23.5t84.5 40.5t69.5 60.5t44 86.5t16.5 115.5zM1159 1071q0 161 -114 237t-316 76h-463v-608h537q92 0 172 33.5t132 102.5t52 159z" />
<glyph unicode="&#x413;" horiz-adv-x="1169" d="M266 0h-51v1434h922v-50h-871v-1384z" />
<glyph unicode="&#x414;" horiz-adv-x="1519" d="M82 -362h-49v411h145q95 170 158.5 410.5t89.5 482t25 492.5h831v-1385h174v-411h-49v362h-1325v-362zM502 1384q-5 -382 -69.5 -738.5t-196.5 -596.5h995v1335h-729z" />
<glyph unicode="&#x415;" horiz-adv-x="1284" d="M215 1434h932v-50h-881v-639h819v-49h-819v-647h899v-49h-950v1434z" />
<glyph unicode="&#x416;" horiz-adv-x="1898" d="M82 0h-59l499 735l-444 699h59l426 -674h361v674h51v-674h360l426 674h60l-445 -699l500 -735h-59l-484 711h-358v-711h-51v711h-359z" />
<glyph unicode="&#x417;" horiz-adv-x="1234" d="M1124 383q0 -106 -49 -187t-130 -126.5t-173.5 -67.5t-191.5 -22q-288 0 -490 88v51q210 -93 488 -90q72 0 140 11.5t133.5 38.5t114 67t78 102t29.5 139q0 76 -30.5 135.5t-80 96.5t-117 61t-135 33.5t-141.5 9.5h-264v49h262q202 0 324.5 84.5t122.5 226.5 q0 107 -62.5 181t-163 107.5t-229.5 33.5q-133 1 -234.5 -21t-209.5 -71v51q100 46 203.5 68t244.5 22q103 0 192.5 -23t159.5 -67t110 -115.5t40 -161.5q0 -137 -96.5 -224t-259.5 -113q64 -6 121.5 -21.5t112 -44.5t94 -69t63.5 -100t24 -132z" />
<glyph unicode="&#x418;" horiz-adv-x="1570" d="M1356 0h-51v1223v123l-1045 -1346h-45v1434h51v-1221v-123l1047 1344h43v-1434z" />
<glyph unicode="&#x419;" horiz-adv-x="1570" d="M1305 0h51v1434h-43l-1047 -1344v123v1221h-51v-1434h45l1045 1346v-123v-1223zM1040 1686q-99 -84 -254 -84t-254 84v53q106 -90 254 -90t254 90v-53z" />
<glyph unicode="&#x41a;" horiz-adv-x="1339" d="M266 0h-51v1434h51v-674h443l503 674h60l-520 -699l577 -735h-61l-561 711h-441v-711z" />
<glyph unicode="&#x41b;" horiz-adv-x="1492" d="M481 1434h797v-1434h-51v1384h-697q-12 -164 -21.5 -270.5t-25 -253t-33 -241.5t-42 -207t-55.5 -181t-71 -131.5t-91.5 -91t-112.5 -28.5q-53 0 -98 18v49q47 -16 92 -16q55 0 100.5 28.5t81.5 90.5t64 131t50.5 181t38 206.5t30 241.5t23.5 253t21 271z" />
<glyph unicode="&#x41c;" horiz-adv-x="1837" d="M1583 1434h39v-1434h-51v1331l-637 -930h-31l-637 930v-1331h-51v1434h39l664 -969z" />
<glyph unicode="&#x41d;" horiz-adv-x="1570" d="M1305 1434h51v-1434h-51v696h-1039v-696h-51v1434h51v-689h1039v689z" />
<glyph unicode="&#x41e;" horiz-adv-x="1691" d="M106 717q0 108 28.5 212.5t89.5 199.5t146.5 167.5t208.5 115t267 42.5t266.5 -42.5t208.5 -115t146.5 -167.5t89 -199.5t28.5 -212.5t-28.5 -212.5t-89 -199.5t-146.5 -167.5t-208.5 -115t-266.5 -42.5t-267 42.5t-208.5 115t-146.5 167.5t-89.5 199.5t-28.5 212.5z M1534 717q0 102 -27 200t-83 186.5t-136 155.5t-194 106.5t-248 39.5t-248 -39.5t-194 -106.5t-136 -155.5t-83 -186.5t-27 -200t27 -200t83 -186.5t136 -155.5t194 -106.5t248 -39.5t248 39.5t194 106.5t136 155.5t83 186.5t27 200z" />
<glyph unicode="&#x41f;" horiz-adv-x="1531" d="M266 0h-51v1434h1102v-1434h-51v1384h-1000v-1384z" />
<glyph unicode="&#x420;" horiz-adv-x="1333" d="M215 1434h444q100 0 184.5 -13t162.5 -44.5t132.5 -81t86.5 -127.5t32 -179q0 -444 -598 -444h-393v-545h-51v1434zM1206 989q0 395 -544 395h-396v-790h396q544 0 544 395z" />
<glyph unicode="&#x421;" horiz-adv-x="1357" d="M109 698q0 146 42.5 271t114 212.5t166 150t199.5 92.5t213 30q230 0 401 -98v-51q-173 100 -395 100q-102 0 -200.5 -27.5t-187.5 -85.5t-156 -140t-106.5 -199.5t-39.5 -254.5q0 -133 40 -245t107 -189t156.5 -131t188.5 -79t202 -25q238 0 410 102v-51 q-171 -100 -418 -100q-109 0 -213.5 27t-199.5 85.5t-167 141t-114.5 202.5t-42.5 262z" />
<glyph unicode="&#x422;" horiz-adv-x="1214" d="M31 1434h1153v-50h-551v-1384h-51v1384h-551v50z" />
<glyph unicode="&#x423;" horiz-adv-x="1263" d="M700 326q-53 -103 -105 -172t-104 -106.5t-100.5 -52.5t-107.5 -15q-87 0 -154 20v49q68 -20 147 -20q105 0 185.5 59t161.5 205l24 47l-620 1094h55l594 -1045l536 1045h56z" />
<glyph unicode="&#x424;" horiz-adv-x="1726" d="M889 -72h-51v193q-354 3 -562 158.5t-208 437.5t208 437.5t562 158.5v192h51v-192q354 -3 562 -158.5t208 -437.5t-208 -437.5t-562 -158.5v-193zM119 717q0 -259 191.5 -402.5t527.5 -146.5v1098q-336 -3 -527.5 -146.5t-191.5 -402.5zM889 1266v-1098 q336 3 527.5 146.5t191.5 402.5t-191.5 402.5t-527.5 146.5z" />
<glyph unicode="&#x425;" horiz-adv-x="1241" d="M84 0h-61l567 737l-537 697h62l506 -658l507 658h60l-537 -697l568 -737h-60l-538 696z" />
<glyph unicode="&#x426;" horiz-adv-x="1556" d="M1493 -362h-49v362h-1229v1434h51v-1385h1002v1385h51v-1385h174v-411z" />
<glyph unicode="&#x427;" horiz-adv-x="1376" d="M1161 0h-49v604q-244 -83 -475 -80q-256 3 -395.5 125.5t-139.5 356.5v428h52v-430q0 -215 129 -321.5t362 -109.5q234 -3 467 84v777h49v-1434z" />
<glyph unicode="&#x428;" horiz-adv-x="2181" d="M1966 0h-1751v1434h51v-1385h799v1385h51v-1385h799v1385h51v-1434z" />
<glyph unicode="&#x429;" horiz-adv-x="2205" d="M2142 -362h-49v362h-1878v1434h51v-1385h799v1385h51v-1385h799v1385h51v-1385h176v-411z" />
<glyph unicode="&#x42a;" horiz-adv-x="1531" d="M860 0h-444v1384h-385v50h434v-545h395q596 0 596 -445q0 -101 -32 -179t-86 -127t-132 -81t-162 -44.5t-184 -12.5zM465 840v-791h395q545 0 545 395q0 396 -545 396h-395z" />
<glyph unicode="&#x42b;" horiz-adv-x="1699" d="M659 0h-444v1434h51v-545h393q100 0 184.5 -12.5t162.5 -44t132 -81t86.5 -128t32.5 -179.5t-32 -179t-86.5 -127t-132.5 -81t-162.5 -44.5t-184.5 -12.5zM266 840v-791h396q544 0 544 395q0 396 -544 396h-396zM1485 0h-51v1434h51v-1434z" />
<glyph unicode="&#x42c;" horiz-adv-x="1333" d="M659 0h-444v1434h51v-545h393q100 0 184.5 -12.5t162.5 -44t132 -81t86.5 -128t32.5 -179.5t-32 -179t-86.5 -127t-132.5 -81t-162.5 -44.5t-184.5 -12.5zM266 840v-791h396q544 0 544 395q0 396 -544 396h-396z" />
<glyph unicode="&#x42d;" horiz-adv-x="1347" d="M102 1356q171 98 402 98q108 0 213 -29.5t199.5 -91t166 -148t114 -210t42.5 -268.5q0 -146 -42.5 -268.5t-114 -206t-167 -141.5t-200 -84.5t-213.5 -26.5q-229 0 -400 100v51q175 -102 394 -102q103 0 200 24t186 77t156 129t107.5 187.5t42.5 245.5h-838v49h836 q-4 129 -45 238.5t-108 186.5t-154.5 132t-184 81t-196.5 26q-107 0 -212 -26.5t-184 -73.5v51z" />
<glyph unicode="&#x42e;" horiz-adv-x="2203" d="M2097 717q0 -108 -29 -212.5t-89.5 -199.5t-146.5 -167.5t-208.5 -115t-265.5 -42.5q-141 0 -261.5 41t-206 110t-147 161t-92 193t-33.5 207h-352v-692h-51v1434h51v-693h352q3 106 33.5 207.5t92 193t147 161t206 110.5t261.5 41q143 0 265.5 -42.5t208.5 -115 t146.5 -167.5t89.5 -199.5t29 -212.5zM668 717q0 -102 27 -200t83 -186.5t136 -155.5t194 -106.5t248 -39.5t248 39.5t194 106.5t136 155.5t83 186.5t27 200t-27 200t-83 186.5t-136 155.5t-194 106.5t-248 39.5t-248 -39.5t-194 -106.5t-136 -155.5t-83 -186.5t-27 -200z " />
<glyph unicode="&#x42f;" horiz-adv-x="1386" d="M141 0h-61l446 571q-181 29 -289 138t-108 288q0 140 70.5 240.5t187.5 148.5t266 48h518v-1434h-51v561h-467q-46 0 -71 2zM182 997q0 -125 62.5 -214t167 -131t241.5 -42h467v774h-467q-136 0 -241 -42.5t-167.5 -131.5t-62.5 -213z" />
<glyph unicode="&#x430;" horiz-adv-x="1105" d="M909 143q0 -100 107 -100q41 0 76 14v-43q-43 -16 -86 -16q-61 0 -103.5 34.5t-42.5 108.5v74q-69 -112 -188 -173.5t-256 -61.5q-87 0 -160.5 28.5t-123.5 94t-50 157.5q0 82 36 143.5t97.5 96.5t134 52t154.5 17q176 0 356 -61v106q0 159 -91.5 251.5t-262.5 92.5 q-184 0 -348 -61v49q163 58 350 58q193 0 297 -105t104 -289v-467zM131 262q0 -78 43.5 -134t108 -80.5t141.5 -24.5q135 0 253.5 67t182.5 191v182q-171 61 -352 61q-74 0 -138.5 -14t-119.5 -43.5t-87 -82t-32 -122.5z" />
<glyph unicode="&#x431;" horiz-adv-x="1208" d="M1108 459q0 -216 -136 -347.5t-356 -131.5q-227 0 -366 156t-139 401q0 228 87 405t226 264q77 48 155 79t135.5 45t111 27t100 36t82.5 61v-55q-37 -34 -83 -55t-97 -33.5t-105.5 -26t-126.5 -42.5t-143 -73q-243 -150 -293 -536q56 146 184 227.5t283 81.5 q206 0 343.5 -135.5t137.5 -347.5zM160 522q0 -140 55 -252.5t159.5 -177.5t241.5 -65q199 0 321 119.5t122 312.5q0 191 -122 313.5t-314 122.5q-164 0 -293.5 -97.5t-169.5 -275.5z" />
<glyph unicode="&#x432;" horiz-adv-x="1107" d="M690 0h-518v983h494q140 0 218.5 -67t78.5 -185q0 -87 -44 -146t-128 -81q95 -19 152.5 -79.5t57.5 -168.5q0 -126 -85.5 -191t-225.5 -65zM221 477v-432h463q122 0 195 51.5t73 161.5q0 115 -71.5 167t-186.5 52h-473zM221 938v-416h447q121 0 183 54t62 153 q0 98 -65.5 153.5t-188.5 55.5h-438z" />
<glyph unicode="&#x433;" horiz-adv-x="892" d="M221 0h-49v983h690v-47h-641v-936z" />
<glyph unicode="&#x434;" horiz-adv-x="1230" d="M94 -283h-49v328h125q100 206 146 420t46 518h662v-938h141v-328h-49v283h-1022v-283zM412 938q-1 -281 -47.5 -485.5t-141.5 -407.5h754v893h-565z" />
<glyph unicode="&#x435;" horiz-adv-x="1112" d="M100 492q0 120 40.5 218.5t108 161.5t153 97.5t178.5 34.5q75 0 140 -18t111.5 -49t84.5 -73t59 -91t35.5 -102t14 -105.5t-6.5 -102.5h-868q3 -113 44.5 -199t111 -137t154 -76.5t181.5 -25.5q185 0 317 77v-49q-125 -73 -323 -73q-108 0 -202 30t-169.5 90t-119.5 161 t-44 231zM975 508q6 59 -3 119.5t-37 120.5t-72.5 106.5t-117 75t-163.5 28.5q-85 0 -161 -29.5t-136 -85t-96.5 -142t-38.5 -193.5h825z" />
<glyph unicode="&#x436;" horiz-adv-x="1452" d="M1430 0h-58l-430 483h-190v-483h-50v483h-192l-430 -483h-57l444 506l-387 477h59l371 -453h192v453h50v-453h190l373 453h57l-387 -477z" />
<glyph unicode="&#x437;" horiz-adv-x="950" d="M844 258q0 -59 -22 -106t-60 -79t-90 -53t-110.5 -30.5t-123.5 -9.5q-199 0 -350 69v47q69 -32 162.5 -51.5t183.5 -19.5q71 0 133 12.5t114.5 39.5t83 74.5t30.5 110.5q0 68 -40.5 119t-96.5 73.5t-115 22.5h-250v45h250q111 11 171 62.5t60 140.5q0 114 -97 173.5 t-243 59.5q-170 0 -334 -69v47q173 70 336 70q169 0 278 -72t109 -205q0 -90 -51.5 -149t-146.5 -76q89 -21 154 -85.5t65 -160.5z" />
<glyph unicode="&#x438;" horiz-adv-x="1196" d="M219 0h-47v983h49v-907l756 907h47v-983h-49v907z" />
<glyph unicode="&#x439;" horiz-adv-x="1196" d="M852 1237q-102 -84 -254 -84t-254 84v51q106 -90 254 -90t254 90v-51zM219 0h-47v983h49v-907l756 907h47v-983h-49v907z" />
<glyph unicode="&#x43a;" horiz-adv-x="1013" d="M221 0h-49v983h49v-451h268l390 451h59l-410 -477l467 -506h-59l-451 485h-264v-485z" />
<glyph unicode="&#x43b;" horiz-adv-x="1193" d="M422 936q-16 -469 -92 -708.5t-234 -239.5q-41 0 -84 14v43q32 -12 74 -12q137 0 205 239t82 711h649v-983h-49v936h-551z" />
<glyph unicode="&#x43c;" horiz-adv-x="1355" d="M219 0h-47v983h53l453 -631l450 631h56v-983h-49v909l-441 -616h-35l-440 616v-909z" />
<glyph unicode="&#x43d;" horiz-adv-x="1179" d="M221 0h-49v983h49v-469h737v469h50v-983h-50v469h-737v-469z" />
<glyph unicode="&#x43e;" horiz-adv-x="1212" d="M100 492q0 119 42 217.5t112.5 162t161 98t190.5 34.5q101 0 191.5 -34.5t161 -98t112 -162t41.5 -217.5t-41.5 -217.5t-112 -162t-161 -98t-191.5 -34.5q-100 0 -190.5 34.5t-161 98t-112.5 162t-42 217.5zM1063 492q0 143 -64 250.5t-166.5 160.5t-226.5 53t-226.5 -53 t-166 -160t-63.5 -251q0 -108 37 -197.5t100 -147t145 -89t174 -31.5t174.5 31.5t145.5 89t100 147t37 197.5z" />
<glyph unicode="&#x43f;" horiz-adv-x="1179" d="M221 0h-49v983h836v-983h-50v936h-737v-936z" />
<glyph unicode="&#x440;" horiz-adv-x="1255" d="M217 727q63 123 182 200t269 77q213 0 350 -140t137 -372t-137 -372t-350 -140q-149 0 -268 76.5t-179 195.5v-703h-49v1434h45v-256zM1106 492q0 214 -123.5 340t-318.5 126q-155 0 -275.5 -90t-167.5 -227v-299q47 -137 167.5 -227t275.5 -90q194 0 318 126t124 341z " />
<glyph unicode="&#x441;" horiz-adv-x="1017" d="M100 483q0 106 30.5 194.5t82 148t120 100.5t143 59.5t153.5 18.5q168 0 286 -80v-47q-118 81 -282 81q-92 0 -176 -28t-154 -83.5t-111.5 -149.5t-41.5 -214q0 -113 38.5 -203t103.5 -144.5t145.5 -82.5t170.5 -28q181 0 318 79v-49q-136 -75 -322 -75q-77 0 -149 18.5 t-137 58.5t-113 98t-76.5 142.5t-28.5 185.5z" />
<glyph unicode="&#x442;" horiz-adv-x="923" d="M485 0h-49v936h-407v47h866v-47h-410v-936z" />
<glyph unicode="&#x443;" horiz-adv-x="1085" d="M567 51l418 932h53l-522 -1163q-70 -158 -148 -224.5t-178 -66.5q-48 0 -100 12v45q50 -12 96 -12q92 0 160.5 64t128.5 204l68 154l-508 987h53z" />
<glyph unicode="&#x444;" horiz-adv-x="1425" d="M737 -451h-49v431q-169 2 -301 61t-210.5 175.5t-78.5 275.5t78.5 275.5t210.5 175.5t301 61v430h49v-430q169 -2 301 -61t210.5 -175.5t78.5 -275.5t-78.5 -275.5t-210.5 -175.5t-301 -61v-431zM147 492q0 -145 71.5 -251t192.5 -160t277 -56v933q-156 -2 -277 -55.5 t-192.5 -159.5t-71.5 -251zM737 958v-933q156 2 277 56t192.5 160t71.5 251t-71.5 251t-192.5 159.5t-277 55.5z" />
<glyph unicode="&#x445;" horiz-adv-x="987" d="M872 983h58l-406 -479l428 -504h-59l-399 469l-400 -469h-59l430 504l-408 479h60l377 -442z" />
<glyph unicode="&#x446;" horiz-adv-x="1206" d="M1141 -283h-47v283h-922v983h49v-936h731v936h49v-936h140v-330z" />
<glyph unicode="&#x447;" horiz-adv-x="1056" d="M885 0h-49v379q-153 -66 -342 -66q-187 0 -293.5 87.5t-106.5 263.5v319h49v-315q0 -156 95 -232t264 -76q189 0 334 64v559h49v-983z" />
<glyph unicode="&#x448;" horiz-adv-x="1650" d="M1479 0h-1307v983h49v-936h580v936h49v-936h580v936h49v-983z" />
<glyph unicode="&#x449;" horiz-adv-x="1683" d="M1618 -283h-47v283h-1399v983h49v-936h580v936h49v-936h580v936h49v-936h139v-330z" />
<glyph unicode="&#x44a;" d="M362 606h377q166 0 266.5 -85t100.5 -218t-100.5 -218t-266.5 -85h-426v938h-282v45h331v-377zM362 45h373q148 0 235 71.5t87 186.5t-88 186.5t-234 71.5h-373v-516z" />
<glyph unicode="&#x44b;" horiz-adv-x="1386" d="M598 0h-426v983h49v-377h377q166 0 266.5 -85t100.5 -218t-100.5 -218t-266.5 -85zM221 561v-516h373q148 0 234.5 71.5t86.5 186.5t-87.5 186.5t-233.5 71.5h-373zM1214 0h-49v983h49v-983z" />
<glyph unicode="&#x44c;" horiz-adv-x="1034" d="M598 0h-426v983h49v-377h377q166 0 266.5 -85t100.5 -218t-100.5 -218t-266.5 -85zM221 561v-516h373q148 0 234.5 71.5t86.5 186.5t-87.5 186.5t-233.5 71.5h-373z" />
<glyph unicode="&#x44d;" horiz-adv-x="1030" d="M930 481q0 -105 -28.5 -190t-76 -142t-112.5 -96t-135.5 -56t-147.5 -17q-182 0 -338 86v47q156 -88 330 -88q91 0 170 25t144.5 75.5t104.5 139t40 204.5h-596v45h596q-5 112 -48.5 199t-112.5 139.5t-151.5 79t-171.5 26.5q-76 0 -154.5 -24t-140.5 -66v47 q134 89 297 89q79 0 154 -19t144 -60.5t120.5 -101.5t82 -148t30.5 -194z" />
<glyph unicode="&#x44e;" horiz-adv-x="1636" d="M1536 492q0 -119 -42 -217.5t-112.5 -162t-161.5 -98t-192 -34.5q-98 0 -186.5 33t-158.5 93.5t-112.5 154.5t-46.5 208h-303v-469h-49v983h49v-469h303q5 151 77.5 264.5t184 169.5t242.5 56q101 0 192 -34.5t161.5 -98t112.5 -162t42 -217.5zM571 492q0 -108 37 -197.5 t100 -147t145.5 -89t174.5 -31.5t174.5 31.5t145.5 89t100 147t37 197.5q0 143 -64 250.5t-166.5 160.5t-226.5 53t-226.5 -53t-166.5 -160.5t-64 -250.5z" />
<glyph unicode="&#x44f;" horiz-adv-x="1101" d="M133 0h-57l303 401q-123 25 -192.5 101.5t-69.5 185.5q0 132 99 213.5t265 81.5h449v-983h-49v393h-400q-35 0 -51 2zM166 688q0 -113 85 -181.5t232 -68.5h398v500h-398q-147 0 -232 -69t-85 -181z" />
<glyph unicode="&#x451;" horiz-adv-x="1112" d="M829 1260q0 -19 -13.5 -33.5t-33.5 -14.5q-19 0 -33 14.5t-14 33.5q0 20 14 33.5t33 13.5q20 0 33.5 -13.5t13.5 -33.5zM418 1260q0 -19 -13.5 -33.5t-33.5 -14.5q-19 0 -33 14.5t-14 33.5q0 20 14 33.5t33 13.5q20 0 33.5 -13.5t13.5 -33.5zM100 492q0 120 40.5 218.5 t108 161.5t153 97.5t178.5 34.5q75 0 140 -18t111.5 -49t84.5 -73t59 -91t35.5 -102t14 -105.5t-6.5 -102.5h-868q3 -113 44.5 -199t111 -137t154 -76.5t181.5 -25.5q185 0 317 77v-49q-125 -73 -323 -73q-108 0 -202 30t-169.5 90t-119.5 161t-44 231zM975 508 q6 59 -3 119.5t-37 120.5t-72.5 106.5t-117 75t-163.5 28.5q-85 0 -161 -29.5t-136 -85t-96.5 -142t-38.5 -193.5h825z" />
<glyph unicode="&#x2000;" horiz-adv-x="944" />
<glyph unicode="&#x2001;" horiz-adv-x="1888" />
<glyph unicode="&#x2002;" horiz-adv-x="944" />
<glyph unicode="&#x2003;" horiz-adv-x="1888" />
<glyph unicode="&#x2004;" horiz-adv-x="629" />
<glyph unicode="&#x2005;" horiz-adv-x="472" />
<glyph unicode="&#x2006;" horiz-adv-x="314" />
<glyph unicode="&#x2007;" horiz-adv-x="314" />
<glyph unicode="&#x2008;" horiz-adv-x="236" />
<glyph unicode="&#x2009;" horiz-adv-x="377" />
<glyph unicode="&#x200a;" horiz-adv-x="104" />
<glyph unicode="&#x2010;" horiz-adv-x="993" d="M145 520h703v-47h-703v47z" />
<glyph unicode="&#x2011;" horiz-adv-x="993" d="M145 520h703v-47h-703v47z" />
<glyph unicode="&#x2012;" horiz-adv-x="993" d="M145 520h703v-47h-703v47z" />
<glyph unicode="&#x2013;" horiz-adv-x="1161" d="M1016 473h-871v47h871v-47z" />
<glyph unicode="&#x2014;" horiz-adv-x="1533" d="M1389 473h-1244v47h1244v-47z" />
<glyph unicode="&#x2018;" horiz-adv-x="370" d="M172 995h-51l110 439h43z" />
<glyph unicode="&#x2019;" horiz-adv-x="368" d="M166 995h-43l102 439h51z" />
<glyph unicode="&#x201a;" horiz-adv-x="348" d="M109 -291h-43l102 438h51z" />
<glyph unicode="&#x201c;" horiz-adv-x="624" d="M426 995h-51l110 439h43zM172 995h-51l110 439h43z" />
<glyph unicode="&#x201d;" horiz-adv-x="622" d="M420 995h-43l102 439h51zM166 995h-43l102 439h51z" />
<glyph unicode="&#x201e;" horiz-adv-x="602" d="M362 -291h-43l103 438h51zM109 -291h-43l102 438h51z" />
<glyph unicode="&#x2026;" horiz-adv-x="894" d="M766 33q0 -20 -13.5 -32.5t-33.5 -12.5q-18 0 -31.5 12.5t-13.5 32.5t13.5 32.5t31.5 12.5q20 0 33.5 -12.5t13.5 -32.5zM219 33q0 -20 -13 -32.5t-32 -12.5t-33 12.5t-14 32.5t14 32.5t33 12.5t32 -12.5t13 -32.5zM494 33q0 -20 -13 -32.5t-32 -12.5t-33.5 12.5 t-14.5 32.5t14.5 32.5t33.5 12.5t32 -12.5t13 -32.5z" />
<glyph unicode="&#x202f;" horiz-adv-x="377" />
<glyph unicode="&#x2039;" horiz-adv-x="542" d="M403 141h-55l-242 342v17l242 342h55l-247 -350z" />
<glyph unicode="&#x203a;" horiz-adv-x="542" d="M195 141h-56l248 351l-248 350h56l241 -342v-17z" />
<glyph unicode="&#x205f;" horiz-adv-x="472" />
<glyph unicode="&#x20ac;" horiz-adv-x="1517" d="M1374 80q-171 -100 -399 -100q-95 0 -185.5 21t-174.5 65t-152 107.5t-117.5 153.5t-71.5 197h-178v45h172q-10 62 -10 119q0 70 12 135h-174v45h183q23 104 72.5 193t117 153t150 109.5t173 67.5t183.5 22q228 0 399 -98v-51q-173 100 -395 100q-108 0 -211 -32 t-190.5 -93t-152.5 -156.5t-93 -214.5h809v-45h-819q-13 -70 -13 -135q0 -57 10 -119h822v-45h-813q21 -99 68 -181t110 -139.5t141.5 -97.5t162.5 -58.5t173 -18.5q219 0 391 102v-51z" />
<glyph unicode="&#x2122;" horiz-adv-x="1341" d="M662 920h-37v514h41l231 -322l233 322h39v-514h-34v460l-226 -311h-24l-223 311v-460zM324 920h-37v479h-191v35h418v-35h-190v-479z" />
<glyph unicode="&#x25fc;" horiz-adv-x="983" d="M0 983h983v-983h-983v983z" />
</font>
</defs>
</svg>
